#TITLE:Red Rocket Rising;
#SUBTITLE:R×3;
#ARTIST:BeForU;
#TITLETRANSLIT:;
#SUBTITLETRANSLIT:;
#ARTISTTRANSLIT:;
#CREDIT:;
#BANNER:;
#BACKGROUND:Red Rocket Rising.jpg;
#LYRICSPATH:Red Rocket Rising.lrc;
#CDTITLE:;
#MUSIC:Red Rocket Rising.mp3;
#OFFSET:0.240;
#SAMPLESTART:59.165;
#SAMPLELENGTH:25.000;
#SELECTABLE:YES;
#BPMS:0.000=147.500,49.000=155.000;
#STOPS:;
#BGCHANGES:;
// cache tags:
#FIRSTBEAT:15.000;
#LASTBEAT:592.750;
#SONGFILENAME:Songs/new again/Red Rocket Rising/Red Rocket Rising.sm;
#HASMUSIC:1;
#HASBANNER:0;
#MUSICLENGTH:238.125;
// end cache tags

//---------------dance-single - ----------------
#NOTES:
     dance-single:
     :
     Challenge:
     8:
     0.511,0.685,0.139,0.055,0.139,806.000,33.000,13.000,0.000,0.000:
0000
0000
0000
0000
,
0000
0000
0000
0000
,
0000
0000
0000
0000
,
0000
0000
0000
1000
,
0001
1000
0000
0010
,
0100
0010
0000
1000
,
0010
1000
0000
0001
,
0100
0001
0000
0011
,
0000
1100
0000
0110
,
0000
1001
0001
0100
,
0000
0100
0000
0010
,
0000
0100
0000
1010
,
0000
0000
1000
0100
0001
1000
0000
0000
,
0100
0000
0010
0100
1000
0100
0000
0000
,
0001
0000
0010
0100
0001
0010
0000
0000
,
0100
0000
0010
0000
0001
0000
0010
0100
,
1000
0000
0010
0001
0010
0100
0000
0000
,
0010
0000
1000
0100
0010
1000
0000
0000
,
0100
0000
0010
1000
0010
1000
0100
0001
,
0100
0000
0001
0000
0001
0010
0000
0100
0001
0000
0100
0000
1000
0100
0000
0010
,
0000
0010
1000
0000
0001
0000
0100
0000
0001
0000
0000
0000
0001
0000
0000
0010
,
0000
0100
0010
0000
0100
0010
0100
0000
,
1000
0000
0000
0000
1000
0000
0010
0000
0100
0000
0000
0000
0010
0000
0000
0100
,
0000
0001
1000
0100
0010
0000
0001
0000
,
0000
0000
0000
0000
0001
0000
0010
0000
1000
0000
0000
0000
0001
0000
0000
0100
,
0000
1000
0001
0010
0001
0000
0100
0000
,
0000
0000
0000
0000
0001
0000
0000
0000
0200
0000
0000
0000
0001
0000
0000
0001
,
0000
0000
0010
0000
0310
0000
0100
0000
1000
0000
0100
0000
0010
1000
0000
1000
,
0010
0001
1000
0100
1000
0000
1000
0010
,
1000
0000
0100
0001
0100
0010
0001
0000
,
0000
0000
0001
0010
0001
0000
0001
0100
,
0001
0000
0010
0100
0010
1000
0100
0000
,
0000
0000
0010
0100
0010
1000
0010
0001
,
0001
0010
1000
0000
0100
0000
0010
0000
,
0001
0000
0010
0100
1000
0000
0010
0100
,
1000
0000
0000
0000
0001
0000
0000
0010
0000
0000
0001
0000
0010
0000
0000
0100
,
0000
0010
0100
1000
0100
1000
0010
0100
,
0010
0000
0100
0000
0001
0000
0000
0001
0000
0000
0001
0000
0020
0000
0000
0000
,
1000
0000
0130
0010
0100
0000
0010
0100
,
0010
0000
0001
0100
0010
0000
1000
0010
,
0100
0000
0001
0010
0100
0000
0010
0100
,
1000
0000
0010
0100
1000
0000
0001
0100
,
1000
0000
0001
0100
0010
0001
1000
0000
,
0100
0000
0000
0000
0010
0000
0100
0000
1000
0000
0100
0000
0010
0000
0000
0100
,
0000
1000
0001
0010
0100
1000
0010
0100
,
0010
1000
0100
0010
0001
0010
0000
0000
,
0000
0000
0001
0010
0100
0000
1000
0100
,
0010
0000
0100
0010
0100
0000
0001
0010
,
0100
0000
1000
0100
0001
0000
0001
0010
,
1000
0000
0100
0010
0100
0000
1000
0100
,
0001
0000
0010
0100
0010
0001
0010
0100
,
0010
0000
1000
0000
0001
0000
0000
0010
0000
0000
0100
0000
0010
0000
0000
0000
,
1000
0000
0001
0000
0100
0000
0010
1000
,
0000
0000
1000
0000
0100
0010
0100
0000
0010
0000
0001
0000
1000
0100
1000
0000
,
0001
0010
0100
0000
0010
0000
0100
0001
,
0100
0001
0010
0100
,
1000
0000
0010
0001
0100
1000
0010
0001
,
0100
0000
1000
0000
0010
0000
0000
0010
0000
0000
0010
0000
0100
0000
0000
0100
,
0000
0000
0100
0000
0100
0000
1000
0000
0100
0000
0000
0000
0100
0000
0000
0001
,
0000
1000
0001
0000
1000
0001
1000
0000
,
0010
0000
0000
0000
0010
0000
0001
0000
1000
0000
0000
0000
0001
0000
0000
1000
,
0000
0100
0010
1000
0001
0000
0100
0000
,
0000
0000
0000
0000
0100
0000
0001
0000
0010
0000
0000
0000
0100
0000
0000
1000
,
0000
0010
0100
0001
0100
0000
1000
0000
,
0000
0000
0000
0000
0100
0000
0000
0000
2000
0000
0000
0000
0100
0000
0000
0100
,
0000
0000
0001
0000
3001
0000
1000
0000
0010
0000
1000
0000
0001
0010
0000
0010
,
0001
0100
0010
1000
0010
0000
0010
0001
,
0010
0000
1000
0100
1000
0001
0100
0000
,
0000
0000
0100
0001
0100
0000
0100
1000
,
0100
0000
0001
1000
0001
0010
1000
0000
,
0000
0000
0001
1000
0001
0010
0001
0100
,
0100
0001
0010
0000
1000
0000
0001
0000
,
0100
0000
0001
1000
0010
0000
0001
1000
,
0010
0000
0000
0000
0100
0000
0000
0001
0000
0000
0100
0000
0001
0000
0000
1000
,
0000
0001
1000
0010
1000
0010
0001
1000
,
0001
0000
1000
0000
0001
0000
0000
0001
0000
0000
0001
0000
0020
0000
0000
0000
,
1000
0000
0130
0010
0100
0000
0010
0100
,
0010
0000
0001
0100
0010
0000
1000
0010
,
0100
0000
0001
0010
0100
0000
0010
0100
,
1000
0000
0010
0100
1000
0010
0001
0100
,
1000
0000
0001
0100
0010
0001
1000
0000
,
0100
0000
0000
0000
0010
0000
0100
0000
1000
0000
0100
0000
0010
0000
0000
0100
,
0000
1000
0001
0010
0100
1000
0010
0100
,
0010
1000
0100
0010
0001
0010
1000
0100
,
1000
0100
0001
0010
0100
0000
1000
0100
,
0010
0000
0100
0010
0100
0000
0001
0010
,
0100
0000
1000
0100
0001
0000
0001
0010
,
1000
0000
0100
0010
0100
0001
1000
0100
,
0001
0000
0010
0100
0010
0001
0010
0100
,
0010
0000
1000
0000
0001
0000
0000
0010
0000
0000
0100
0000
0010
0000
0000
0000
,
1000
0100
0001
0000
0100
0000
0010
1000
,
0000
0000
1000
0000
0100
0010
0100
0000
0010
0000
0001
0000
1000
0100
1000
0000
,
0000
0100
0001
0000
0001
0000
0001
0000
,
0001
0100
0100
0100
,
0100
1000
1000
1000
,
1000
0010
0010
0010
,
0010
0101
0101
0101
,
0101
0010
1000
0000
1100
0000
1000
0000
,
1100
1010
1010
1010
,
1010
0000
0100
0000
0001
0000
1000
0000
0001
0000
0000
0000
0010
1000
0000
1000
,
0010
0001
0100
0000
0100
0000
0100
0000
,
0010
0001
0100
0000
0100
0000
0100
0000
,
0100
1000
1000
1000
,
0010
0100
1000
0000
1000
0000
1000
0000
,
1000
0001
0001
0001
,
0100
0010
1000
0000
1000
0000
1000
0000
,
1000
0000
0010
0100
0010
0100
1000
0010
,
1000
0010
0001
0010
0100
1000
0010
0100
,
0001
2020
0000
0000
0000
0000
3030
0000
,
0000
0001
0000
0100
,
1000
0010
0100
0001
,
0000
0000
0000
0000
1000
0000
0000
0100
0000
0000
0000
0000
0010
0000
0000
0001
,
0000
0010
0000
0100
,
0000
0011
0000
0010
,
0000
0100
0000
1000
,
0000
0000
0000
0000
0110
0000
0000
0010
0000
0000
0000
0000
1000
0000
0000
0001
,
0000
0000
0100
0000
0001
0000
0010
0000
0100
0000
0000
0000
1000
0000
0000
1000
,
0000
1000
0101
0000
0000
0000
0000
0000
,
0000
0000
0000
0000
1000
0000
0100
0000
1000
0000
0100
0000
0011
0000
0000
0110
,
0000
0000
1100
0000
0102
0000
0000
0100
0000
0000
0103
0000
0210
0000
0000
0010
,
0000
0000
0310
0000
1002
0000
0000
1000
0000
0000
1003
0000
2100
0000
0000
0100
,
0000
0000
3100
0000
0021
0000
0000
0001
0000
0000
0031
0000
2010
0000
0000
0010
,
0000
3010
0102
1000
0100
1000
0100
0000
,
1000
0003
0001
0010
0100
0001
0010
0100
,
1000
0000
0100
0000
0001
0000
0000
0010
0000
0000
0100
0000
1000
0000
0010
0000
,
0100
0000
0000
0000
0100
0000
0000
0001
0000
0000
0100
0000
1000
0000
0000
0010
,
0000
0001
0100
0010
0001
0010
1000
0100
,
0010
0001
0100
0010
0001
0000
0010
0001
,
1000
0000
0001
1000
0100
0000
1000
0100
,
0010
0000
0100
0010
0001
0000
0010
0001
,
1000
0000
0001
1000
0100
0000
1000
0100
,
0010
0000
0100
0010
1000
0100
0010
0001
,
0010
0000
0100
0000
1000
0000
0000
0100
0000
0000
0010
0000
0100
0000
1000
0000
,
0100
0000
0010
0000
0100
0000
0000
0001
0000
0000
0001
0000
0010
0000
0000
1000
,
0000
1000
0100
0010
0001
0000
0000
0000
,
0010
0000
0000
0000
0100
0000
0000
0000
0000
0000
0000
0000
0001
0000
0000
0100
,
0000
0000
1000
0000
0100
0000
0000
0000
0000
0000
0100
0000
1000
0000
0000
0010
,
0000
0001
0010
0100
0000
1000
0001
0010
,
0000
0100
0011
0000
1010
0000
0011
0000
,
1100
0000
1000
0100
0001
1000
0000
0000
,
0100
0000
0010
0100
1000
0100
0000
0000
,
0001
0000
0010
0100
0001
0010
0000
0000
,
0100
0000
0010
0000
0001
0000
0010
0100
,
1000
0000
0010
0001
0010
0100
0000
0000
,
0010
0000
1000
0100
0010
1000
0000
0000
,
0100
0000
0100
0100
1000
0010
0001
0001
,
0010
0000
1000
0000
0001
0100
0000
0100
0001
0000
0010
0000
1000
0010
0000
0010
,
1000
0000
0100
0000
0001
0010
0000
0100
1000
0000
0001
1000
0001
1000
0000
0010
,
0100
0001
0100
0001
0000
0000
0000
0000
0000
0000
0000
0000
0000
0000
0000
0000
;

//---------------dance-single - ----------------
#NOTES:
     dance-single:
     :
     Edit:
     9:
     1.000,1.000,1.000,0.000,0.487,1277.000,667.000,0.000,0.000,118.000:
0000
0000
0000
0000
,
0000
0000
0000
0000
,
0000
0000
0000
0000
,
0000
0000
0000
0000
0000
0000
0011
0001
,
0110
1000
0000
0001
0110
1000
0010
0001
,
0110
1000
0010
0001
0111
1000
0010
0001
,
0110
1000
0010
0001
0110
1000
0010
0001
,
0110
1000
0010
0001
0111
1000
1110
0001
,
0110
1000
0100
0001
0110
1000
0100
0001
,
0110
1000
0100
0001
1110
1000
0100
0001
,
0110
1000
1000
0001
0110
1000
0100
0000
,
0100
0000
0000
0000
0010
0000
0001
0000
0100
0000
0000
0000
1000
0100
1000
0100
,
0010
0100
0010
0100
1001
0000
0000
0000
0110
0000
0010
0000
1000
0000
0000
0000
,
0101
1010
0100
1000
,
0100
0000
1001
0000
0110
0010
1000
0000
,
0100
0000
0010
0001
1010
0000
0000
0000
0101
0000
0000
0000
1010
0001
0000
0001
,
0110
0000
1001
0000
0110
0010
1000
0000
,
0101
1010
0100
1000
,
0100
0000
0010
0001
1010
0000
0010
0000
0110
0000
0010
0000
1010
0000
0010
0000
,
0110
0000
0010
0000
1001
0000
0000
1001
0000
0000
1001
0000
0101
1010
0000
0100
,
0000
0100
1000
0011
1000
0011
1000
0011
,
1000
0011
1000
0001
1010
0001
1000
0011
,
1000
0001
1010
0001
1000
0011
1000
0001
,
1010
0001
1000
0011
1000
0001
1010
0001
,
1000
1011
1000
0001
1010
0001
1000
0011
,
1000
0011
1000
0001
1010
0001
1000
0011
,
1000
0001
1010
0001
1000
0011
1000
0001
,
1010
0000
0001
0000
1000
0001
0110
0000
1001
0000
0100
0000
1010
0001
0100
0001
,
1100
0001
0110
0000
1000
0000
0100
0000
1110
0000
0100
0000
1000
0000
0110
0000
,
1100
0110
1000
0100
1110
0100
1000
0110
,
1100
0100
1010
0100
1100
0110
1000
0100
,
1110
0100
1000
0110
1100
0100
1010
0100
,
1100
1110
1001
0100
1110
0100
1001
0110
,
1100
0110
1001
0100
1110
0100
1001
0110
,
1100
0100
1011
0100
1100
0110
1000
0100
,
1110
0000
0100
0000
1001
0000
0110
1000
0000
0000
1100
0000
1010
0000
0100
1000
,
0000
0000
0000
0000
0000
0000
1100
0000
0010
0000
0000
0000
1000
0000
0010
0000
0000
0000
1000
0000
0010
0000
0000
0000
1000
0000
0010
0000
0000
0000
1000
0000
0010
0000
0000
0000
1000
0000
0010
0100
0000
0000
0010
0000
0000
0100
0000
0000
,
0001
0010
0100
1000
0101
0010
0101
0010
0101
0010
0100
1000
0101
1010
1000
1010
,
0101
0010
0000
0000
1000
0000
0010
0000
1100
0000
0010
0000
1001
0000
0010
0000
,
1100
0010
1001
0010
1100
0010
1000
0010
,
1101
0000
0010
0100
1001
0000
0010
0000
1100
0000
0010
0000
1000
0000
0010
0000
,
1100
0000
0010
0000
1000
0000
0010
0000
1100
0000
0010
0000
1001
0100
0010
0000
,
1101
0000
0010
0100
1001
0000
0010
0000
1100
0000
0010
0000
1001
0000
0010
0000
,
1100
0010
1001
0010
1100
0010
1001
0010
,
1101
0000
0010
0100
1001
0100
0010
0000
1100
0000
0010
0000
1001
0000
0010
0000
,
1101
0000
0010
0000
1001
0100
0011
0000
1101
0000
0011
0100
1001
0100
0011
0100
,
1101
0010
1000
0010
1100
0010
1000
0010
,
1100
0010
1001
0010
1100
0010
1001
0010
,
1100
0010
1001
0010
1100
0010
1000
0010
,
1100
0010
1001
0010
1100
0010
1000
0010
,
1101
0010
1001
0010
1100
0010
1001
0010
,
1100
0010
1000
0010
1101
0011
1001
0010
,
1100
0000
0010
0000
1011
0000
0100
0010
1100
0000
0110
0000
1011
0000
0100
0010
,
1100
0110
1011
0100
1111
0101
1011
0100
,
1110
0000
1001
0000
1101
0010
1000
0000
,
1110
1001
1100
1000
,
1100
0000
0000
0000
0000
0000
0001
0000
0000
0010
0000
0000
1100
0000
0001
0000
0000
0000
1000
0000
0001
0000
0000
0000
1100
0000
0001
0000
0000
0000
1000
0000
0001
0000
0000
0000
1010
0000
0001
0000
0000
0000
1000
0000
0001
0000
0000
0000
,
1100
0000
0001
0000
0000
0000
1000
0000
0001
0000
0000
0000
1010
0000
0001
0100
0000
0000
0000
0000
0000
1010
0000
0000
0000
0000
0000
0000
0000
0000
1010
0000
0000
0000
0000
0000
1011
0000
0000
0100
0000
0000
0000
0000
0000
1000
0000
0000
,
0001
1000
1100
0101
1110
0101
1100
0101
,
1110
0101
1010
0011
1110
0011
1010
0011
,
1110
0011
1001
0101
1011
0101
1001
0101
,
1011
0101
1010
0110
1011
0110
1010
0100
,
1011
0101
1100
0101
1110
0101
1100
0101
,
1110
0101
1010
0011
1110
0011
1010
0011
,
1011
0110
1001
0101
1011
0101
1010
0110
,
1011
0000
0110
0000
1100
0010
0101
0000
1111
0000
0101
0000
1110
0001
0110
0000
,
1101
0000
0010
0000
1001
0010
0100
0010
1001
0000
0110
0000
1001
0010
0100
0010
,
1001
0000
0110
0000
1001
0010
0001
0100
1010
0000
0011
0000
1001
0010
0001
0100
,
1010
0000
0011
0000
1001
0100
0010
0001
1100
0000
0011
0000
1001
0100
0010
0001
,
1100
0000
0011
0000
1001
0010
0100
0010
1001
0000
0110
0000
1101
0010
0100
0010
,
1101
0000
0110
0000
1101
0010
0001
0100
1010
0000
0011
0000
1101
0010
0001
0100
,
1010
0000
0011
0000
1101
0100
0010
0001
1100
0000
0011
0000
1101
0100
0010
0001
,
1100
0000
0011
0000
1101
0010
0100
0010
1001
0000
0110
0000
1001
0010
0100
0010
,
1001
0000
0110
0000
1000
0000
0001
1000
0010
0000
1001
0000
1000
0000
0001
1000
,
0010
0000
0000
0000
0000
0000
1001
0000
0010
0000
0000
0000
1000
0000
0010
0000
0000
0000
1001
0000
0010
0000
0000
0000
1000
0000
0010
0000
0000
0000
1001
0000
0010
0000
0000
0000
1000
0000
0010
0100
0000
0000
0001
0000
0000
1000
0000
0000
,
0000
0000
1000
0000
1001
0010
1100
0001
1010
0100
0001
0010
1100
0110
1001
0010
,
0101
1010
0100
0000
1000
0000
0011
0000
1100
0000
0110
0000
1001
0000
0011
0000
,
1100
0110
1001
0011
1100
0110
1000
0011
,
1101
0000
0110
0100
1001
0000
0011
0000
1100
0000
0110
0000
1000
0000
0011
0000
,
1100
0000
0110
0000
1000
0000
0011
0000
1100
0000
0110
0000
1001
0100
0011
0000
,
1101
0000
0110
0100
1001
0000
0011
0000
1100
0000
0110
0000
1001
0000
0011
0000
,
1100
0110
1001
0011
1100
0110
1001
0011
,
1101
0000
0110
0100
1001
0100
0011
0000
1100
0000
0110
0000
1001
0000
0011
0000
,
1101
0000
0110
0000
1001
0100
0011
0000
1101
0000
0111
0100
1001
0100
0011
0100
,
1101
0110
1000
0011
1100
0110
1000
0011
,
1100
0110
1001
0011
1100
0110
1001
0011
,
1100
0110
1001
0011
1100
0110
1000
0011
,
1100
0110
1001
0011
1100
0110
1000
0011
,
1101
0110
1001
0011
1100
0110
1001
0011
,
1100
0110
1000
0011
1101
0111
1001
0011
,
1100
0000
0110
0000
1011
0000
0101
0010
1100
0001
0110
0001
1110
0001
0100
0011
,
1100
0001
0110
0001
1011
0000
0100
0000
1111
0000
0101
0000
1011
0000
0100
0000
,
1110
1010
1010
1010
,
1010
0000
0100
0000
1001
0010
0000
0001
1000
0000
0001
0000
1001
0000
0000
0010
,
1000
0000
0001
0000
1011
0100
0000
0100
1010
0000
0001
0000
1011
0100
0000
0100
,
1010
0000
0101
0000
1100
0000
0000
0100
1000
0000
0100
0000
1100
0000
0000
0100
,
1000
0000
0100
0000
1110
0000
0000
0100
1010
0000
0100
0000
1110
0000
0000
0101
,
1010
0000
0101
0000
1001
0010
0000
0010
1000
0000
0001
0000
1010
0100
0000
0100
,
1000
0000
0001
0000
1011
0100
0000
0100
1010
0000
0001
0000
1011
0100
0000
0100
,
1010
0000
0101
0000
1011
0100
0000
0100
1001
0000
0010
0100
1011
0000
0010
0101
,
1010
0100
0011
0000
1011
0000
0000
0001
1010
0000
0001
0000
1011
0000
0000
0001
,
1010
0000
0101
0000
1010
0000
0000
0010
1000
0000
0010
0000
1100
0001
0000
0001
,
1000
0000
0010
0000
1011
0100
0000
0001
1010
0000
0001
0000
1011
0100
0000
0001
,
1010
0000
0101
0000
1100
0000
0000
0100
1000
0000
0100
0000
1100
0000
0000
0100
,
1000
0000
0100
0000
1110
0000
0000
0100
1010
0000
0100
0000
1110
0000
0000
0100
,
1010
0000
0101
0000
1001
0100
0000
0100
1000
0000
0010
0000
1001
0100
0000
0100
,
1000
0000
0011
0000
1110
0001
1000
0001
1010
0000
1001
0000
1110
0001
1000
0100
,
1010
0000
1101
0000
0011
0100
1000
0100
0000
0000
1010
0000
0011
0100
1000
0100
,
0000
0010
0000
0000
0000
0000
0000
0000
,
0000
0000
1001
0010
0100
1000
0101
0010
,
0100
1000
0011
0010
0100
1000
0011
0010
,
0100
1000
0101
0010
0100
1000
1001
0010
,
0110
1000
0011
0010
0100
1000
0011
0010
,
0101
1000
0011
0010
0100
1000
1101
0010
,
0100
1000
0111
0010
0100
1000
1101
0010
,
0100
1000
0011
0010
0100
1000
0001
0010
,
0100
0000
1000
0000
1001
0100
1010
0100
1010
0100
1000
0100
1001
0100
1010
0100
,
1010
0000
0100
0000
1000
0000
0100
0000
1010
0000
0100
0000
1000
0000
0100
0000
1000
0000
0100
0000
1000
0000
0100
0000
1010
0001
0100
0010
1000
0001
0100
0010
,
1000
0001
0100
0010
1000
0001
0100
0010
1001
0000
0010
0000
1001
0000
0010
0000
1100
0000
0010
0000
0100
0000
0010
0000
1000
0000
0000
0000
1011
0000
1010
0000
,
0000
1011
1010
0000
1000
0000
0011
0000
1100
0000
0110
0000
1001
0000
0011
0000
,
1100
0110
1001
0011
1100
0110
1000
0011
,
1101
0000
0110
0100
1001
0000
0011
0000
1100
0000
0110
0000
1000
0000
0011
0000
,
1100
0000
0110
0000
1000
0000
0011
0000
1100
0000
0110
0000
1001
0100
0011
0000
,
1101
0000
0110
0100
1001
0000
0011
0000
1100
0000
0110
0000
1001
0000
0011
0000
,
1100
0110
1001
0011
1100
0110
1001
0011
,
1101
0000
0110
0100
1001
0100
0011
0000
1100
0000
0110
0000
1001
0000
0011
0000
,
1101
0000
0110
0000
1001
0100
0011
0000
1101
0000
0111
0100
1001
0100
0011
0100
,
1101
0110
1000
0011
1100
0110
1000
0011
,
1100
0110
1001
0011
1100
0110
1001
0011
,
1100
0110
1001
0011
1100
0110
1000
0011
,
1100
0110
1001
0011
1100
0110
1000
0011
,
1101
0110
1001
0011
1100
0110
1001
0011
,
1100
0110
1000
0011
1101
0111
1001
0011
,
1100
0110
1011
0101
1101
0110
1110
0101
,
1100
0000
0110
0000
1011
0100
1000
0000
1111
0000
0011
0100
1011
0000
0100
0000
,
1110
0001
1000
0010
1100
0100
1000
0010
,
1100
0001
1000
0010
1100
0100
1000
1010
,
1100
0000
1001
0000
1000
0100
0010
1000
0000
0000
1001
0000
1000
0000
0001
1000
,
0000
0000
1001
0000
1111
0000
0000
0000
1111
0000
0000
0000
1010
0100
0000
0010
,
0000
1101
1001
0000
0110
0010
1000
0000
,
0101
1010
0100
1000
,
0100
0000
1001
0000
0110
0010
1000
0000
,
0100
0000
0010
0001
1010
0000
0000
0000
0101
0000
0000
0000
1010
0001
0000
0001
,
0110
0000
1001
0000
0110
0010
1000
0000
,
0101
1010
0100
1000
,
0100
0000
0010
0100
1011
0000
0011
0000
0111
0000
0011
0000
1010
0001
0010
0001
,
0110
0001
0010
0000
1101
0000
0000
1101
0010
0000
1101
0000
0101
0000
0000
1010
,
0000
0000
0110
0000
0011
0100
0000
0010
1100
0010
0001
0010
1100
0000
0000
0100
,
0011
0000
0001
1110
0000
0000
0000
0000
0000
0000
0000
0000
0000
0000
0000
0000
;
