#TITLE:Roar;
#SUBTITLE:moonshine;
#ARTIST:Serenade;
#TITLETRANSLIT:;
#SUBTITLETRANSLIT:;
#ARTISTTRANSLIT:;
#CREDIT:;
#BANNER:Roar-banner.png;
#BACKGROUND:Roar-bg.png;
#LYRICSPATH:;
#CDTITLE:!cdtitle.png;
#MUSIC:Roar.mp3;
#OFFSET:-0.770;
#SAMPLESTART:42.960;
#SAMPLELENGTH:16.000;
#SELECTABLE:YES;
#BPMS:0.000=80.000,66.000=160.000,338.000=80.000;
#STOPS:;
#BGCHANGES:;
// cache tags:
#FIRSTBEAT:0.000;
#LASTBEAT:363.000;
#SONGFILENAME:Songs/Astronomic Metal Collection 2/(moches) Roar/Roar.sm;
#HASMUSIC:1;
#HASBANNER:1;
#MUSICLENGTH:174.445;
// end cache tags

//---------------dance-single - ----------------
#NOTES:
     dance-single:
     :
     Hard:
     12:
     1.000,1.000,1.000,0.757,1.000,1016.000,353.000,132.000,4.000,73.000:
0010
0001
0010
0100
1000
0100
0010
0001
0010
0100
1000
0100
0010
0001
0010
0100
,
1000
0100
0010
0001
0010
0100
1000
0100
0010
0001
0010
0100
1000
0100
0010
0001
,
0010
0100
1000
0100
0010
0001
0010
0100
1000
0100
0010
0001
0010
0100
1000
0100
,
1010
0001
0010
0100
1000
0101
0010
1001
0010
0100
1000
0100
0010
1001
0010
0100
,
1010
0100
0010
0001
1010
0100
1000
0100
1010
0001
0010
0100
1000
0101
0010
1001
,
0010
0100
1000
0100
0010
1001
0010
0100
1010
0100
0010
0001
1010
0001
0010
0100
,
1010
0100
0010
1001
0010
0100
1001
0100
1010
0001
0010
0101
1000
0100
1010
0001
,
1010
0100
1000
0101
0010
0001
1010
0100
1001
0000
0010
0001
1100
0001
0010
0100
,
1010
0001
0010
0100
1000
0101
0010
1001
0010
0100
1000
0100
0010
1001
0010
0100
,
1010
0100
0010
0001
1010
0100
1000
0100
1010
0001
0010
0100
1000
0101
0010
1001
,
0010
0100
1000
0100
0010
0101
0010
0100
1010
0100
0010
0001
1010
0100
1000
0100
,
1010
0000
0000
0001
0000
0100
0010
1000
0100
0000
0000
0010
0000
1000
0001
0000
,
1100
0000
0000
0010
1100
0010
0001
1000
0011
0000
0000
0101
0000
0000
1001
0000
,
1010
0000
0000
0100
0000
0000
1000
0000
0101
0010
1000
0101
0011
0000
0100
1010
,
1010
0000
1100
0010
0101
0010
0001
1100
1100
0001
0010
1100
0101
0000
0001
1010
,
1010
0000
0000
0000
1100
0000
0010
0000
0101
0000
0101
0000
1010
0000
1101
0000
1001
0010
0100
1000
0010
0100
1001
0010
0101
1000
0010
0100
0001
0010
0101
1000
,
0101
0010
0100
1000
0011
0100
0001
0010
0101
1000
0010
0100
0001
0010
0101
1000
0102
0003
0020
0030
0200
0300
2000
3000
0020
0030
0200
0300
0002
0003
0020
0030
,
0200
0300
2000
3000
0020
0030
0200
0300
0002
0003
0020
0030
0201
0300
2000
3000
0102
0003
0020
0030
0201
0300
2000
3000
0020
0030
0200
0300
0002
0003
0020
0030
,
0201
0300
2000
3000
0020
0030
0200
0300
1002
0003
0020
0030
0200
0300
2000
3000
0101
0000
0000
0000
0001
0000
0110
0000
1001
0000
0000
0000
0110
0000
0001
0000
,
0000
1001
0110
0000
1001
0000
0110
0000
0101
0000
0001
0110
1001
0010
0101
1000
,
0000
0011
0000
0100
1001
1001
0110
0000
0101
0000
0001
0110
1001
0000
0110
0001
,
0000
1001
0110
0000
1001
0000
0110
0000
0101
0000
0001
0110
1001
0010
0101
1000
,
0000
0011
0000
0100
1001
1001
0110
0000
1101
0000
0001
0110
1001
0000
0110
0001
,
0000
1001
0110
0000
1001
0000
0110
0000
0101
0000
0001
0110
1001
0010
0101
1000
,
0000
0011
0000
0100
1001
1001
0110
0000
0101
0000
0001
0110
1001
0000
0110
0001
,
0000
1001
0110
0000
1001
0000
0110
0000
0101
0000
0001
0110
1001
0010
0101
1000
,
0011
0000
0000
0000
0200
0300
0000
0000
0000
0000
0000
0000
0200
0300
0000
0000
0000
0000
0000
0000
1001
0000
0000
0000
1001
0000
0000
0000
0000
0000
0000
0000
2011
0000
0000
0000
0000
0000
0000
0000
0000
0000
0000
0000
0000
0000
0000
0000
0000
0000
0000
0000
0000
0000
0000
0000
0000
0000
0000
0000
0000
0000
0000
0000
,
0000
0000
0000
3000
,
2000
0000
0000
0000
0000
0000
0000
0000
0000
0000
0000
0000
0000
0000
0000
0000
0000
0000
0000
0000
0000
0000
0000
0000
0000
0000
0000
3000
0000
0000
2000
0000
0000
0000
0000
0000
0000
0000
0000
0000
0000
0000
0000
0000
0000
0000
0000
0000
0000
0000
0000
0000
0000
0000
0000
0000
0000
0000
0000
0000
0000
0000
0000
0000
3002
0000
0000
0000
0000
0000
0000
0000
0000
0000
0000
0000
0000
0000
0000
0000
0000
0000
0000
0000
0000
0000
0000
0000
0000
0000
0000
0000
0000
0000
0000
0000
0023
0000
0000
0000
0000
0000
0000
0000
0000
0000
0000
0000
0000
0000
0000
0000
0000
0000
0000
0000
0000
0000
0000
0000
0000
0000
0000
0000
0000
0000
0000
0000
0000
0000
0000
0000
0000
0000
0000
0000
0000
0000
0000
0000
0000
0000
0000
0000
0000
0000
0000
0000
0000
0000
0000
0000
0000
0000
0000
0000
0000
0000
0000
0000
0000
0000
0000
0000
0000
0000
0000
0000
0000
0000
0000
0000
0000
0000
0000
0000
0000
0000
0000
0000
0000
0000
0000
0000
0000
0000
0000
0000
0000
0000
0000
0000
,
0000
0000
0000
0000
0000
0000
0000
0000
0000
0000
0000
0000
0000
0000
0000
0000
0000
0000
0000
0000
0000
0000
0000
0000
0230
0000
0000
0000
0000
0000
0000
0000
2300
0000
0000
0000
0000
0000
0000
0000
3010
0000
0000
0100
0000
0000
0000
0010
0000
0000
0000
0000
0001
0000
0000
0000
0010
0000
0000
0000
0100
0000
0000
0000
,
2000
0000
0000
0000
0000
0000
0000
0000
3111
0000
0100
1000
0100
0010
0100
0001
,
0010
0000
0000
0000
0000
0000
0000
0000
0000
0000
0000
0000
0001
0000
0000
0000
0000
0000
0000
0000
0000
0000
0000
0000
0010
0000
0000
0000
0000
0000
0000
0000
0000
0000
0000
0000
0100
0000
0000
0000
0000
0000
0000
0000
0000
0000
0000
0000
0010
0000
0000
0000
0000
0000
0000
0000
0000
0000
0000
0000
1000
0000
0000
0000
0000
0000
0000
0000
0000
0000
0000
0000
0100
0000
0000
0000
0000
0000
0000
0000
0000
0000
0000
0000
0010
0000
0000
0000
0000
0000
0000
0000
0000
0000
0000
0000
0001
0000
0000
0000
0000
0000
0000
0000
0000
0000
0000
0000
0100
0000
0000
0000
0000
0000
0000
0000
0000
0000
0000
0000
0020
0000
0000
0000
0000
0000
0000
0000
0000
0000
0000
0000
0000
0000
0000
0000
0000
0000
0000
0000
0000
0031
0000
0000
0000
0000
0000
0000
0000
0000
0010
0000
0000
0000
0000
0000
0000
0000
0000
0000
0100
0000
0000
0000
0000
0000
0000
0000
1000
0000
0000
0000
0000
0000
0000
0000
0000
0000
0000
0000
0100
0000
0000
0000
0000
0000
0000
0000
0000
0000
0000
0000
,
0010
0000
0000
0000
0000
0000
0000
0000
0000
0000
0000
0000
0000
0000
0000
1000
0000
0000
0000
0000
0000
0000
0000
0000
0000
0000
0000
0010
0000
0000
0000
0000
0000
0000
0000
0000
0001
0000
0000
0000
0000
0000
0000
0000
0000
0010
0000
0000
0000
0000
0000
0000
0000
0000
0000
0000
0000
1000
0000
0000
0000
0000
0000
0000
0000
0000
0000
0000
0000
0000
0000
0000
0100
0000
0000
0000
0010
0000
0000
0000
0000
0000
0000
0000
0000
0000
0000
0100
0000
0000
0000
0000
0000
0001
0000
0000
0000
0000
0000
0000
0100
0000
0000
0000
0000
0000
0000
0000
0000
0000
0000
0000
0000
0000
0010
0000
0000
0000
0000
0000
0000
0000
0000
1000
0000
0000
0000
0000
0000
0000
0000
0000
0100
0000
0000
0000
0000
0000
0000
0000
0000
0010
0000
0000
0000
0000
0000
0001
0000
0000
0000
0000
0000
0010
0000
0000
0000
0000
0000
0000
0000
0000
0100
0000
0000
0000
0000
0000
0000
0000
0000
1000
0000
0000
0000
0000
0000
0000
0000
0000
0200
0000
0000
0000
0000
0000
0000
0000
0000
0000
0000
0000
,
0000
0000
0320
0000
0000
0000
0000
0031
0000
0000
0010
0000
0000
0100
0000
0000
1000
0000
0000
0100
0000
0010
0000
0100
0000
1000
0000
0200
0000
0000
0000
0000
0000
0000
0000
1300
0000
0000
0020
0000
0000
0000
0000
0000
0000
0000
0000
0000
0000
0000
0000
0000
0000
0000
0000
0000
0000
0000
0000
0000
0000
0000
0000
0000
,
0000
0000
0000
0000
0000
0000
0000
0000
1231
0000
0000
1000
0011
0000
0320
0000
,
0000
1001
0100
0000
2031
0000
0010
0000
3200
0000
0000
1000
0011
0000
0320
0000
,
0000
0101
1000
0000
0132
0100
1000
0000
0203
0000
0000
1000
0011
0000
0320
0000
,
0000
0101
1000
0000
0132
0000
1000
0000
0023
0000
0000
0100
1032
0000
0023
0000
,
0000
1001
0230
0000
0321
0001
1000
0000
0230
0000
0000
0010
1001
0000
2300
0000
,
0000
0000
0011
3000
0100
0000
1000
0000
0011
0000
1000
0000
0100
0000
0010
0000
0002
0000
0000
0000
0000
0000
0100
0000
1010
0000
0000
0000
2003
0000
0000
0000
,
0000
0011
0100
0000
0011
0011
3100
0000
1101
0000
0001
0110
1001
0000
0110
0001
,
0000
1001
0110
0000
1001
0000
0110
0000
0101
0000
0001
0110
1001
0010
0101
1000
,
0000
0011
0000
0100
1001
1001
0110
0000
0101
0000
0001
0110
1001
0000
0110
0001
,
0000
1001
0110
0000
1001
0000
0110
0000
1001
0000
0001
1010
0101
0010
0101
1000
,
0110
0000
0000
0000
2000
3000
0000
0000
0000
0000
0000
0000
2000
3000
0000
0000
0001
0000
0000
0000
0001
0000
0000
0000
1010
0000
0000
0000
0000
0000
0000
0000
1201
0000
0000
0000
0000
0000
0000
0000
0000
0000
0000
0000
1000
0000
0000
0000
0011
0000
0000
0000
0000
0000
0000
0000
1320
0000
0000
0000
0000
0000
0000
0000
,
0000
1001
0100
0000
2031
0000
0010
0000
3201
0000
0000
1000
0011
0000
1320
0000
,
0000
0101
1000
0000
0132
0100
1000
0000
0213
0000
0000
1000
0011
0000
1320
0000
,
0000
0000
0000
0101
0000
0000
1000
0000
0000
0000
0000
0000
0132
0000
0000
0000
0000
0000
1000
0000
0000
0000
0000
0100
0023
0000
0000
0000
0000
0000
0000
0000
0000
0100
0000
1000
0132
0000
0000
0000
0000
0000
0123
0000
0000
0000
0000
0000
,
0000
1001
1230
0000
0321
0001
1000
0000
0130
1000
0100
0010
1001
0100
1000
0010
,
0100
0000
0011
0000
0100
0000
1000
0000
0011
0000
1000
0000
0100
0000
0010
0000
0100
0000
1000
0000
0010
0000
0100
0000
0011
0000
1000
0000
0100
0000
0010
0100
,
1000
0000
0000
0000
0000
0000
0000
0000
0000
0000
0000
0000
0011
0000
0000
0000
0000
0000
0000
0000
0000
0000
0000
0000
0100
0000
0000
0000
0000
0000
0000
0000
0000
0000
0000
0000
1000
0000
0000
0000
0000
0000
0000
0000
0000
0000
0000
0000
0011
0000
0000
0000
0000
0000
0000
0000
0000
0000
0000
0000
0011
0000
0000
0000
1000
0000
0000
0000
0000
0000
0000
0000
0100
0000
0000
0000
0000
0000
0000
0000
0001
0000
0000
0000
0010
0000
0000
0000
0000
0000
0000
0000
0000
0000
0000
0000
2202
0000
0000
3303
0000
0000
0000
0000
0000
0000
0000
0000
0010
0000
0000
0000
0000
0000
0000
0000
0000
0000
0000
0000
0100
0000
0000
0000
0000
0000
0000
0000
0000
0000
0000
0000
0001
0000
0000
0000
0000
0000
0000
0000
0000
0000
0000
0000
0010
0000
0000
0000
0000
0000
0000
0000
0000
0000
0000
0000
0100
0000
0000
0000
0000
0000
0000
0000
0000
0000
0000
0000
0001
0000
0000
0000
0000
0000
0000
0000
0000
0000
0000
0000
0010
0000
0000
0000
0000
0000
0000
0000
0000
0000
0000
0000
,
0100
0001
0010
0100
0001
0010
0100
1001
1001
0100
0010
1001
0010
0100
1001
0010
,
1100
0001
1010
0100
0011
1010
0100
1000
0111
0000
1000
0000
0100
0000
0010
0000
,
1000
0000
0100
0000
0010
0000
1000
0010
1100
0000
0010
0000
1000
0000
0100
0000
,
0001
0000
0010
0000
0100
0000
1000
0001
0110
0000
1000
0000
0100
0000
0011
0000
,
1000
0000
0000
0000
0000
0000
0000
0000
0000
0000
0000
0000
0000
0000
0000
0000
0000
0000
0000
0000
0000
0000
0000
0000
0100
0000
0000
0000
0000
0000
0000
0000
0000
0000
0000
0000
0000
0000
0000
0000
0000
0000
0000
0000
0000
0000
0000
0000
0010
0000
0000
0000
0000
0000
0000
0000
0000
0000
0000
0000
0000
0000
0000
0000
0000
0000
0000
0000
0000
0000
0000
0000
1000
0000
0000
0000
0000
0000
0000
0000
0000
0000
0000
0000
0001
0000
0000
0000
0000
0000
0000
0000
0000
0000
0000
0000
0100
0000
0000
0000
0000
0000
0000
0000
0000
0000
0000
0000
0000
0000
0000
0000
0000
0000
0000
0000
0000
0000
0000
0000
0010
0000
0000
0000
0000
0000
0000
0000
0000
0100
0000
0000
0000
0000
0000
0000
0000
0000
0000
0000
0000
0000
0000
0000
1000
0000
0000
0000
0000
0000
0000
0000
0000
0000
0000
0000
0000
0000
0000
0000
0001
0000
0000
0000
0000
0000
0000
0000
0100
0000
0000
0000
0000
0000
0000
0000
0000
0000
0000
0000
0000
0000
0000
0000
0000
0000
0000
0000
0000
0000
0000
0000
,
0001
0000
0000
0010
0001
0000
0100
0000
0010
1000
0000
0000
0111
0000
0000
1000
0000
0000
0100
0000
0000
0010
0000
0000
,
1000
0000
0100
0000
0010
0000
1000
0010
1100
0000
0010
0000
1000
0000
0100
0000
,
0001
0010
0100
1000
0110
1000
0100
0010
,
1000
0100
0010
1000
0100
0010
1000
0100
,
0001
0010
0100
1000
0111
1000
0101
0010
,
1001
0000
0110
0000
1010
0000
1001
0010
1100
0000
0110
0000
1001
0000
0100
0000
,
1001
0000
0010
0000
0100
0000
1010
0001
0110
0000
1000
0000
0110
0000
0011
0000
,
1001
0000
0000
0000
0000
0000
0000
0000
0000
0000
0000
0000
0000
0000
0000
0000
0000
0000
0000
0000
0000
0000
0000
0000
0110
0000
0000
0000
0000
0000
0000
0000
0000
0000
0000
0000
0000
0000
0000
0000
0000
0000
0000
0000
0000
0000
0000
0000
0011
0000
0000
0000
0000
0000
0000
0000
0000
0000
0000
0000
0000
0000
0000
0000
0000
0000
0000
0000
0000
0000
0000
0000
1100
0000
0000
0000
0000
0000
0000
0000
0000
0000
0000
0000
0001
0000
0000
0000
0000
0000
0000
0000
0000
0000
0000
0000
0101
0000
0000
0000
0000
0000
0000
0000
0000
0000
0000
0000
0000
0000
0000
0000
0000
0000
0000
0000
0000
0000
0000
0000
0011
0000
0000
0000
0000
0000
0000
0000
0000
0100
0000
0000
0000
0000
0000
0000
0000
0000
0000
0000
0000
0000
0000
0000
1010
0000
0000
0000
0000
0000
0000
0000
0000
0000
0000
0000
0000
0000
0000
0000
0001
0000
0000
0000
0000
0000
0000
0000
0100
0000
0000
0000
0000
0000
0000
0000
0000
0000
0000
0000
0000
0000
0000
0000
0000
0000
0000
0000
0000
0000
0000
0000
,
1001
0000
0000
0010
1000
0000
0101
0000
0010
1000
0000
0000
0111
0000
0000
1000
0000
0000
0101
0000
0000
0010
0000
0000
,
1001
0000
0110
0000
1010
0000
1001
0010
1100
0000
0011
0000
1001
0000
0100
0000
,
1001
0010
0100
1010
0110
1000
0101
0010
,
1001
0000
0000
0000
0000
0000
0000
0000
0000
0000
0000
0000
0000
0000
0000
0000
0000
0000
0000
0000
0000
0000
0000
0000
0110
0000
0000
0000
0000
0000
0000
0000
0000
0000
0000
0000
0000
0000
0000
0000
0000
0000
0000
0000
0000
0000
0000
0000
0010
0000
0000
0000
0000
0000
0000
0000
0000
0000
0000
0000
0000
0000
0000
0000
0001
0000
0000
0000
0000
0000
0000
0000
1100
0000
0000
0000
0000
0000
0000
0000
0010
0000
0000
0000
0000
0000
0000
0000
0000
0000
0000
0000
0000
0000
0000
0000
0101
0000
0000
0000
0000
0000
0000
0000
0000
1000
0000
0000
0000
0000
0000
0000
0001
0000
0000
0000
0000
0000
0000
0000
0010
0000
0000
0000
0000
0000
0000
0000
0100
0000
0000
0000
0001
0000
0000
0000
1000
0000
0000
0000
0000
0000
0000
0000
0110
0000
0000
0000
0000
0000
0000
0000
0001
0000
0000
0000
0110
0000
0000
0000
2000
0000
0000
0000
0000
0000
0000
0000
0000
0000
0000
0000
0000
0000
0000
0000
0000
0000
0000
0000
0000
0000
0000
0000
0000
0000
0000
0000
0000
0000
0000
0000
,
3010
0000
0000
0000
0000
0101
0000
0000
0010
0000
0000
0000
0000
0000
0000
0000
0101
0000
0000
0000
0000
0000
0000
0000
1011
0000
0000
0000
0000
0000
0000
0000
0MMM
0000
0000
0000
0000
0000
0000
0000
1000
0000
0000
0000
0000
0000
0000
0000
0011
0000
0000
0000
0000
0000
0000
0000
0110
0000
0000
0000
0000
0000
0000
0000
,
1000
0000
0110
0101
0000
0100
0011
1100
,
0000
1001
0100
0000
1001
0000
1021
0000
0000
0000
1000
0000
1031
0000
0001
0000
,
0010
0000
0000
0000
0000
0000
0000
0000
0100
0000
0000
0000
0000
0000
0000
0000
0011
0000
0000
0000
0000
0000
0000
0000
1010
0000
0000
0000
0000
0000
0000
0000
0000
0000
0000
0000
0000
0000
0000
0000
0010
0000
0000
0000
0000
0000
0000
0000
1001
0000
0000
0000
0000
0000
0000
0000
2012
3003
0000
0000
0000
0000
0000
0000
,
0000
0000
0000
0000
0000
0000
0000
0000
2012
3003
0000
0000
0000
0000
0000
0000
0000
0000
0000
0000
0000
0000
0000
0000
2011
0000
0000
0000
3000
0000
0000
0000
0000
0000
0000
0000
0000
0000
0000
0000
1000
0000
0000
0000
0000
0000
0000
0000
0011
0000
0000
0000
0000
0000
0000
0000
0120
0000
0000
0000
0030
0000
0000
0000
,
1000
0000
0002
0003
0110
0000
0201
0300
0000
0000
0100
0000
0011
0000
1200
0300
,
0000
1001
0020
0030
1001
0000
1021
0000
0000
0000
0200
0300
1031
0000
2000
3000
,
0010
0000
0000
0000
0000
0000
0000
0000
0200
0000
0000
0000
0300
0000
0000
0000
0011
0000
0000
0000
0000
0000
0000
0000
1002
0000
0000
0000
0003
0000
0000
0000
0000
0000
0000
0000
0000
0000
0000
0000
0020
0000
0000
0000
0030
0000
0000
0000
1001
0000
0000
0000
0000
0000
0000
0000
2202
3003
0000
0000
0300
0000
0000
0000
,
0000
0000
0000
0000
0000
0000
0000
0000
2022
0033
0000
0000
3000
0000
0000
0000
0000
0000
0000
0000
0000
0000
0000
0000
1011
0000
0000
0000
0000
0000
0000
0000
0000
0000
0000
0000
0000
0000
0000
0000
1000
0000
0000
0000
0000
0000
0000
0000
0011
0000
0000
0000
0000
0000
0000
0000
0110
0000
0000
0000
0000
0000
0000
0000
,
1000
0000
0010
0000
0110
0000
0101
0000
0000
0000
0100
1000
0011
0000
1100
0000
,
0010
1001
0100
0000
1001
0000
1021
0000
0000
0000
1000
0100
1031
0000
0001
0000
,
0010
0000
0000
0000
0000
0000
0000
0000
0100
0000
0000
0000
0000
0000
0000
0000
0011
0000
0000
0000
0100
0000
0000
0000
1010
0000
0000
0000
0000
0000
0000
0000
0100
0000
0000
0000
0000
0000
0000
0000
0010
0000
0000
0000
0000
0000
0000
0000
1001
0000
0000
0000
0000
0000
0000
0000
2012
3003
0000
0000
0000
0000
0000
0000
,
0000
0000
0000
0000
0000
0000
0000
0000
2012
3003
0000
0000
0000
0000
0000
0000
0000
0000
0000
0000
0000
0000
0000
0000
2011
0000
0000
0000
3000
0000
0000
0000
0000
0000
0000
0000
0000
0000
0000
0000
1000
0000
0000
0000
0000
0000
0000
0000
0011
0000
0000
0000
0000
0000
0000
0000
0120
0000
0000
0000
0030
0000
0000
0000
,
1000
0000
0002
0003
0110
0000
0201
0300
0000
0000
0100
1000
0011
0000
1200
0300
,
0010
1001
0020
0030
1001
0000
1021
0000
0000
0000
0200
1300
0131
0000
2000
3000
,
0010
0000
0000
0000
0000
0000
0000
0000
0200
0000
0000
0000
0300
0000
0000
0000
0011
0000
0000
0000
0100
0000
0000
0000
1002
0000
0000
0010
0003
0000
0000
0000
0200
0000
0000
0000
0300
0000
0000
0000
0020
0000
0000
0000
0030
0000
0000
0000
1001
0000
0000
0000
0000
0000
0000
0000
2202
3003
0000
0000
0300
0000
0000
0000
,
0000
0000
0000
0000
0000
0000
0000
0000
2022
0033
0000
0000
3000
0000
0000
0000
0101
0000
0000
0000
0000
0000
0000
0000
0000
0000
0000
0000
0000
0000
0000
0000
0111
0000
0000
0000
1000
0000
0000
0000
0100
0000
0000
0000
0010
0000
0000
0000
1000
0000
0000
0000
0100
0000
0000
0000
0010
0000
0000
0000
1000
0000
0000
0000
,
0101
0010
1000
0100
1001
0010
0100
1000
0110
1000
0100
0010
1000
0100
0010
1000
,
0101
0000
0010
0000
1000
0000
0100
0000
1001
0000
0010
0000
0100
0000
1001
1001
0111
0000
1000
0000
0100
0000
0010
0000
1000
0000
0100
0000
0010
0000
1000
0000
,
0101
0010
1000
0100
1001
0010
0100
1000
0111
1000
0100
0010
1000
0100
0010
1000
,
0100
0010
1000
0100
0001
0010
0100
1000
0010
1000
0100
0010
1000
0100
0010
1000
,
0100
0010
1000
0100
0001
0010
0100
1000
0010
1000
0100
0010
1000
0100
0010
1000
,
0100
0010
1000
0100
0001
0010
0100
1000
00M0
0001
0010
0100
1000
0000
0000
0000
;
