#TITLE:Gaussian Blur 2;
#SUBTITLE:Enjoy;
#ARTIST:Kil;
#TITLETRANSLIT:;
#SUBTITLETRANSLIT:;
#ARTISTTRANSLIT:;
#CREDIT:;
#BANNER:gaussainbn.jpg;
#BACKGROUND:gaussainbg.jpg;
#LYRICSPATH:;
#CDTITLE:N8 ball.jpg;
#MUSIC:gaussianblur2.ogg;
#OFFSET:-0.033;
#SAMPLESTART:32.420;
#SAMPLELENGTH:12.000;
#SELECTABLE:YES;
#BPMS:0.000=90.000,2.000=80.000,2.500=75.000,4.000=70.000,5.000=65.000,6.000=55.000,7.000=35.000,7.500=22.500,7.938=20.500,8.000=19.500,8.333=20.500,8.750=21.500,9.250=22.500,9.750=23.500,10.250=24.000,13.250=21.000,13.833=24.000,13.917=15.000,14.500=21.000,15.500=25.000,16.000=50.000,16.500=55.500,17.000=60.000,17.500=70.000,18.000=75.000,18.500=80.000,19.500=85.000,20.500=90.000,21.500=95.000,22.500=100.000,24.000=214.001,48.500=210.001,324.667=101.380,325.000=87.360,325.333=80.400,325.667=70.120,326.000=65.340,326.333=59.320,326.667=52.500,327.000=44.080,327.333=35.660,327.667=26.400,328.000=15.580;
#STOPS:;
#BGCHANGES:8.000=DDR2.avi=0.500=0=0=1,
10.667=Geometry1.avi=1.000=0=0=1,
16.000=blueball.avi=1.000=0=0=1,
24.000=Fireworks2.avi=1.200=0=0=1,
40.500=Square4.avi=1.000=0=0=1,
64.500=Grid1.avi=1.400=0=0=1,
80.500=Lightning Ball.avi=1.200=0=0=1,
85.000=-random-=1.000=0=0=1,
96.500=Wave2.avi=2.000=0=0=1,
112.500=dimension.avi=1.200=0=0=1,
136.500=blueball.avi=1.400=0=0=1,
152.500=Square4.avi=1.000=0=0=1,
155.500=Wave1.avi=1.000=0=0=1,
158.500=Wave2.avi=1.200=0=0=1,
184.500=Fireworks.avi=1.200=0=0=1,
216.500=blueball.avi=1.400=0=0=1,
232.500=Square4.avi=1.000=0=0=1,
249.000=Grid1.avi=1.600=0=0=1,
280.500=Wave1.avi=2.000=0=0=1,
308.000=Wave1.avi=1.000=0=0=1,
324.667=Wave1.avi=0.500=0=0=1,
328.000=gaussainbg.jpg=1.000=0=0=1,
99999=-nosongbg-=1.000=0=0=0 // don't automatically add -songbackground-
;
// cache tags:
#FIRSTBEAT:0.000;
#LASTBEAT:328.000;
#SONGFILENAME:Songs/toune 1 (2010)/blueball/gaussianblur2.sm;
#HASMUSIC:1;
#HASBANNER:1;
#MUSICLENGTH:127.555;
// end cache tags

//---------------dance-single - ----------------
#NOTES:
     dance-single:
     :
     Challenge:
     14:
     0.925,1.000,0.408,0.204,1.000,748.000,52.000,26.000,0.000,4.000:
1000
0100
0010
0000
0001
0010
0100
0000
,
1000
0100
1000
0001
1000
1000
1000
1000
,
1000
0100
1000
0100
0010
0100
0010
0100
0001
0010
0001
0010
0100
1000
0100
0010
0100
1000
0100
1000
0001
0010
0100
1000
0100
0010
0100
0010
0001
0010
0100
1000
0100
0000
0000
0000
0000
0000
0010
0001
0010
1000
0000
0100
0000
0100
0000
0100
,
0000
0100
0000
0000
0000
0000
1000
0100
0010
0001
1000
0100
0010
0100
0010
0100
1000
0100
0001
0100
1000
0100
0010
0001
0010
1000
0010
0001
0000
0000
0001
0000
0000
0001
0000
0000
0100
0000
0000
0000
0000
0000
0010
0000
0000
0000
0000
0000
,
1000
0100
0010
0100
1000
0100
0010
0100
1000
0001
0010
0001
1000
0001
0010
0001
1000
0100
0010
0100
1000
0100
0010
0100
1000
0001
1000
0001
1000
0001
0010
0001
,
1000
0001
0010
0001
1000
0100
0001
0100
1000
0100
0001
0100
1000
0010
0001
0010
1000
0010
0001
0010
1000
0100
0010
0001
1000
0100
0010
0001
1000
0100
0010
0001
,
1001
0000
0000
0100
1000
0000
0000
0000
1000
0010
0100
0000
1000
0000
0100
0010
1000
0000
0100
0000
1000
0000
0000
0010
0100
0000
0010
0000
0100
0000
0000
0000
,
0100
0000
0010
0000
0100
0000
0000
0100
1000
0000
0000
0010
0100
0000
0000
0000
0100
0000
0010
0000
0100
0000
0000
0000
0001
0100
0000
0010
0100
1000
0000
0000
,
0001
0000
1000
0000
0010
0000
0000
0000
0100
1000
0010
0100
0001
0000
0000
0000
0010
0000
0001
0000
0100
0000
0010
0000
1000
0000
0000
0000
0001
1000
0000
0000
,
0010
0000
0100
0000
0000
0000
0100
0000
1000
0000
0000
0000
1000
0010
0100
0000
0000
0100
0000
1000
0010
0000
0000
0010
0000
0001
0010
0000
0000
0000
0001
0000
,
0010
0100
2200
0000
0000
0000
0000
0000
3300
0000
0000
0000
1000
0000
0100
0000
,
1000
0100
0000
1100
0000
1010
0000
1001
,
0000
2020
0000
0000
3030
0000
1000
0100
,
0001
0010
0100
1000
0010
0011
1000
0100
,
0010
0001
0010
0100
0010
1100
0001
0010
,
0100
1000
0100
0010
0100
0011
0100
0010
,
0100
1100
0001
0010
0101
1000
0100
1010
,
0100
1010
0001
0010
0110
1000
0100
1010
,
0001
1010
0100
1000
0110
1000
0100
0101
,
1000
0101
0010
1000
0110
0001
0100
0011
,
1000
1100
0001
0100
0011
1000
0100
1001
,
0001
0110
1000
0100
0110
0010
0100
0011
,
1000
1100
1000
0001
0110
0100
0001
1010
,
1000
0100
1010
0000
0000
0000
0000
0000
1001
0100
1000
0000
0000
0000
1001
0000
,
0000
1010
0000
0000
0100
0002
0000
0000
,
0110
2003
0000
0000
0101
3020
0000
0000
,
0000
0032
0000
0000
0110
0003
0000
0000
,
0000
0000
2000
0000
0000
0000
0000
0000
0110
0000
3000
0000
0000
0000
0010
0100
,
0001
1000
0200
0000
0010
0000
0001
0000
0010
0000
0302
0000
1000
0000
0100
0000
,
0010
0203
1000
0010
0001
2300
0100
0010
,
0001
3002
0100
1000
0100
2003
0010
0100
,
0010
3002
0100
1000
0100
2003
0100
0010
,
0100
3020
0100
1000
0100
0032
0100
1000
,
0100
1003
0000
0100
0000
0001
0000
0100
,
0000
0000
0100
0010
0000
0000
0100
0000
0010
0000
0100
1000
0000
0000
0100
0000
,
0010
0000
0100
1000
0000
0000
0100
0000
0010
0000
0100
1000
0000
0000
0100
0001
,
0010
0001
0100
1000
0100
0000
0100
0001
0010
0100
1000
0100
0010
0000
0010
0100
,
0010
0100
0010
0000
1000
0000
0010
0001
1000
0100
0010
0000
0100
0000
0100
0000
,
0100
0201
0010
0310
0010
0010
0010
0101
,
1000
0000
0100
0000
1000
0000
0100
0000
0000
0000
0011
0000
0100
1000
0011
0100
,
1000
0011
0100
0010
0001
0100
0010
0001
,
0100
0010
0001
1000
0100
0010
0000
0000
,
0000
0011
0000
0000
0000
0000
0000
0000
,
0000
0100
0000
0000
0000
0000
0000
0000
,
0000
0000
0100
0000
0000
0000
1000
0100
0010
0001
0000
0000
0000
0000
0000
0000
,
0000
0000
0011
0000
1000
0000
0010
0000
1000
0000
1010
0100
0000
0100
0010
0100
,
0010
0100
0020
0000
0000
0000
0000
0000
0000
0000
0000
0000
0000
0000
0000
0000
,
0000
0100
0000
0000
0000
0000
0000
0030
,
0000
0220
0000
0000
0000
0000
0000
0000
,
0000
0000
0000
0000
0000
0000
0000
0000
0000
0000
0330
0000
0000
0000
1000
0100
,
0000
0000
0110
0001
0010
0100
0001
0010
0100
0001
0010
0100
0001
0010
0100
1000
,
0100
0010
1000
0100
0010
1000
0100
0010
1000
0100
0010
0100
0001
0010
0100
0001
,
0010
0100
0001
0010
0100
0001
0010
1000
0010
0100
1000
0010
0100
1000
0010
0100
,
1000
0010
0100
1000
0100
0001
1000
0100
0001
1000
0100
0001
1000
0100
0001
0010
,
1000
0001
0110
1000
0001
0010
1000
0001
0010
1000
0100
0010
0100
0001
0010
0001
,
0100
1000
0100
0001
0010
0001
0100
0010
1000
0100
0010
0100
0001
0010
0100
0010
,
1000
0100
0010
0100
0001
0010
0100
1000
0100
0001
0010
0001
1000
0100
1000
0001
,
0010
0001
0100
0010
0100
0001
0010
0001
1000
0100
1000
0100
0010
0001
0010
0100
,
0010
0100
1000
0000
0100
0000
1000
0000
0000
0000
0100
0000
1000
0000
0100
0000
,
0000
0001
0010
0100
0000
1000
0100
0010
,
1000
0010
0100
0000
0001
0000
0010
0000
0000
0000
1000
0000
0001
0000
0010
0000
,
0000
0000
1000
0000
0100
0000
0010
0000
0001
0000
0011
0000
0011
0001
0010
0100
,
1000
0100
1000
0010
1000
0001
0100
1000
0010
0001
0100
1000
0010
0001
0100
1000
,
0010
0001
1000
0100
0001
0010
0100
1000
0100
0010
0001
0010
0100
1000
0100
0010
,
0001
0010
0100
0010
1000
0001
1000
0010
1000
0001
1000
0100
1000
0010
1000
0001
,
0010
0100
1000
0100
0010
0100
1000
0100
0010
0100
0010
0100
1000
0100
0010
0001
,
0100
0010
0100
0001
0100
1000
0100
0001
0010
0100
1000
0010
0100
0001
0010
0100
,
1000
0001
0010
0100
1000
0100
0010
0001
1000
0100
0010
0001
1000
0100
0010
0001
,
1000
0010
0100
0010
0001
0100
1000
0100
0001
0100
1000
0100
0001
0100
1000
0100
,
1000
0001
1000
0010
1000
0100
1000
0001
1000
0100
0010
0100
0001
0010
0100
1000
,
0100
0010
0002
0000
0000
0000
0000
0000
0000
0000
0000
0000
0000
0000
0000
0000
,
0000
0000
0000
0000
,
0000
0003
0000
0000
0000
0000
2002
0000
,
0000
0000
0000
0000
,
0000
0000
0000
0000
,
0000
0000
0000
0000
,
0000
0000
0000
0000
,
0000
0000
0000
0000
,
0000
0000
0000
0000
,
0000
0000
0000
0000
,
0000
0000
0000
0000
,
0000
0000
0000
0000
,
3003
0000
0000
0000
;
