#TITLE:fffff;
#SUBTITLE:;
#ARTIST:Five hammer;
#TITLETRANSLIT:;
#SUBTITLETRANSLIT:;
#ARTISTTRANSLIT:;
#CREDIT:;
#BANNER:fffff-Banner.PNG;
#BACKGROUND:fffff-bg.PNG;
#LYRICSPATH:;
#CDTITLE:DanserCD title.png;
#MUSIC:fffff.mp3;
#OFFSET:0.060;
#SAMPLESTART:21.659;
#SAMPLELENGTH:12.000;
#SELECTABLE:YES;
#BPMS:0.000=276.000,168.000=1094.002,172.000=276.000;
#STOPS:168.000=0.250
,169.500=0.235
,171.000=0.160
;
#BGCHANGES:;
// cache tags:
#FIRSTBEAT:44.000;
#LASTBEAT:466.000;
#SONGFILENAME:Songs/new cedric/fffff/fffff.sm;
#HASMUSIC:1;
#HASBANNER:1;
#MUSICLENGTH:104.210;
// end cache tags

//---------------dance-double - ----------------
#NOTES:
     dance-double:
     :
     Challenge:
     15:
     1.000,1.000,1.000,0.077,0.355,717.000,193.000,8.000,0.000,19.000:
00000000
00000000
00000000
00000000
,
00000000
00000000
00000000
00000000
,
00000000
00000000
00000000
00000000
,
00000000
00000000
00000000
00000000
,
00000000
00000000
00000000
00000000
,
00000000
00000000
00000000
00000000
,
00000000
00000000
00000000
00000000
,
00000000
00000000
00000000
00000000
,
00000000
00000000
00000000
00000000
,
00000000
00000000
00000000
00000000
,
00000000
00000000
00000000
00000000
,
00001000
10000000
00001000
10000000
00000100
01000000
00000100
01000000
,
00000010
00100000
00000010
00100000
00000001
01000000
00000001
01000000
,
00000001
00010000
00000001
00010000
00000010
01000000
00000010
01000000
,
00000001
00100000
00000001
00100000
00000100
10000000
00000100
10000000
,
00000010
01000000
00000010
01000000
00000100
00010000
00000100
00010000
,
00001000
00100000
00001000
00100000
00000100
01000000
00000100
01000000
,
00001000
10000000
00001000
10000000
00000001
01000000
00000001
01000000
,
00000010
00010000
00000010
00010000
00000100
00100000
00000100
00100000
,
00000100
01000000
00000100
01000000
00000001
00010000
00000001
00010000
,
00001000
10000000
00001000
10000000
00000010
00010000
00000010
00010000
,
00000010
00100000
00000010
00100000
00001000
00010000
00001000
00010000
,
00000010
10000000
00000010
10000000
00000001
01000000
00000001
01000000
,
00001000
00010000
00001000
00010000
00000001
00100000
00000001
00100000
,
00000100
10000000
00000100
10000000
00000001
00010000
00000001
00010000
,
00000100
01000000
00000100
01000000
00000010
00010000
00000010
00010000
,
00001000
00100000
00001000
00100000
00000001
10000000
00000001
10000000
,
00001000
10000000
00001000
10000000
00000100
10000000
00000100
10000000
,
00000010
01000000
00000010
01000000
00000010
00100000
00000010
00100000
,
00000100
00100000
00000100
00100000
00000010
01000000
00000010
01000000
,
00000010
10000000
00000010
10000000
00000001
00010000
00000001
00010000
,
00000001
00100000
00000001
00100000
00000010
10000000
00000010
10000000
,
00000100
01000000
00000100
01000000
00001000
10000000
00001000
10000000
,
00000100
00100000
00000100
00100000
00000010
01000000
00000010
01000000
,
00000100
00010000
00000100
00010000
00001000
10000000
00001000
10000000
,
00001000
01000000
00001000
01000000
00000100
10000000
00000100
10000000
,
00000010
01000000
00000010
01000000
00000010
00100000
00000010
00100000
,
00000100
00100000
00000100
00100000
00000010
01000000
00000010
01000000
,
00000010
10000000
00000010
10000000
00000001
00010000
00000001
00010000
,
00000001
00100000
00000001
00100000
00000010
10000000
00000010
10000000
,
00000100
01000000
00000100
01000000
00001000
10000000
00001000
10000000
,
00000100
00100000
00000100
00100000
00000010
01000000
00000010
01000000
,
00010010
00000000
00000000
01000100
00000000
00000000
10001000
00000000
,
10000010
10000000
01001000
01000000
,
00100010
00000000
00000000
00000000
00000000
00000000
00100000
00000000
00000000
00001000
01000000
00000000
00000000
00000000
00000000
00000000
00100000
00000000
00000100
00000000
00010000
00000000
00000000
00000000
,
10000001
10000010
01001000
01001000
,
00010001
00000000
00000000
00100100
00000000
00000000
00010010
00000000
00000000
00000001
00100000
00000000
00000000
00000000
00000000
00000000
01000000
00000000
00000000
00000000
00000000
00000000
00000000
00000000
,
00000000
10001000
01000100
00101000
,
00100100
00000000
00010000
00010001
00000000
00010000
00000010
00010000
,
10001000
00000100
00001000
10000100
00001000
00000100
00101000
00000100
00001000
00100100
00001000
00000100
,
01001000
00000000
00000100
00100000
00001000
00000000
00010010
00000000
00000000
00100000
00000000
00000000
00000000
00000000
00000000
00100100
00000000
00000000
00000000
00000000
00000000
01000000
00000000
00000000
,
10000000
10000010
01000100
01000100
,
00100010
00000000
00000000
00000000
00000000
00000000
00100000
00000000
00000000
00000001
01000000
00000000
00000000
00000000
00000000
00000000
00100000
00000000
00000100
00000000
00010000
00000000
00000000
00000000
,
10000010
10000010
01001000
01001000
,
00010010
00000000
00000000
00100000
00000000
00000000
00010000
00000000
00000000
00000010
00100000
00000000
00000000
00000000
00000000
00000000
01000000
00000000
00000000
00000000
00000000
00000000
00000000
00000000
,
00000000
10001000
01000100
00100010
,
00100001
00000000
00010000
00010010
00000000
00010000
00000100
00010000
,
10000001
00000010
00000001
10000010
00000001
00000010
00100001
00000010
00000001
00100010
00000000
00000000
,
01000000
00100000
00010010
00100000
00000000
00100100
00000000
01000000
,
10001000
10001000
01000100
01000100
,
00100010
00000000
10001000
00100010
00000000
10001000
00100010
00000000
,
00100010
00000000
10001000
00100010
00000000
10001000
00100010
00000000
,
00100010
00000000
10001000
00100010
00000000
10001000
00100010
00000000
,
10001000
10001000
01000100
01000100
,
00010001
00000000
10001000
00010001
00000000
10001000
00010001
00000000
,
00010001
00000000
10001000
00010001
00000000
10001000
00010001
00000000
,
00010001
00000000
10001000
00010001
00000000
10001000
00010001
00000000
,
10001000
10001000
00100010
00100010
,
00010001
00000000
10001000
00010001
00000000
10001000
00010001
00000000
,
00010001
00000000
10001000
00010001
00000000
10001000
00010001
00000000
,
00010001
00000000
10001000
00010001
00000000
10001000
00010001
00000000
,
01000100
01000100
00100010
00100010
,
00100010
00000000
01000100
00100010
00000000
01000100
00100010
00000000
,
00100010
00000000
01000100
00100010
00000000
01000100
00100010
00000000
,
00010001
00000000
00100010
00010001
00000000
00100010
00010001
00000000
,
00000002
00000003
10100000
00000002
00000003
00000000
10100001
00000000
,
00000000
00000001
10100000
00000000
00000001
00000000
10100001
00000000
,
00000020
00000030
10100000
00000020
00000030
00000000
10100010
00000000
,
00000000
00000010
10100000
00000000
00000010
00000000
10100010
00000000
,
00000200
00000300
10100000
00000200
00000300
00000000
10100100
00000000
,
00000000
00000100
10100000
00000000
00000100
00000000
10100100
00000000
,
00002000
00003000
01010000
00002000
00003000
00000000
01011000
00000000
,
00000000
00001000
01010000
00000000
00001000
00000000
01011000
00000000
,
00010000
00100000
00010000
00100011
00010000
00100000
00010000
00100000
00010000
00100011
00010000
00100000
,
00010000
00100000
00010000
00100011
00010000
00100000
00010000
00100000
00010000
00100011
00010000
00100000
,
00010000
10000000
00010000
10000101
00010000
10000000
00010000
10000000
00010000
10000101
00010000
10000000
,
00010000
10000000
00010000
10000101
00010000
10000000
00010000
10000000
00010000
10000101
00010000
10000000
,
01000000
10000000
01000000
10001010
01000000
10000000
01000000
10000000
01000000
10001010
01000000
10000000
,
01000000
10000000
01000000
10001010
01000000
10000000
10001000
00000000
00000000
01000100
00000000
00000000
,
00100010
00000000
00010001
00000000
,
00100010
00000000
01000100
00000000
,
00000001
00000100
00010000
00000001
00000100
00010000
00000001
00000100
,
00010000
00000001
00000100
00010000
00000001
00000100
00010000
01000000
,
00000010
00000100
00010000
00000010
00000100
00010000
00000010
00000100
,
00010000
00000010
00000100
00010000
00000010
00000100
00010000
00100000
,
00000100
00001000
01000000
00000100
00001000
01000000
00000100
00001000
,
01000000
00000100
00001000
01000000
00000100
00001000
01000000
10000000
,
00001000
00010000
00100000
00001000
00010000
00100000
00001000
00010000
,
00100000
00001000
00010000
00100000
00010000
00001000
00000100
00001000
,
00000001
00000010
00001000
00000001
00000010
00001000
00000001
00000010
,
00001000
00000001
00000010
00001000
00000001
00000010
00001000
00100000
,
00000010
00001000
00100000
00000010
00001000
00100000
00000010
00001000
,
00100000
00000010
00001000
00100000
00000010
00001000
00100000
01000000
,
00000100
00001000
00100000
00000100
00001000
00100000
00000100
00001000
,
00100000
00000100
00001000
00100000
00000100
00000000
00000010
00000000
,
00000001
00000000
00000101
00000000
,
00011000
00000000
10100000
00000000
,
10000000
01000000
10000000
00100000
00010000
00100000
10000000
01000000
,
10000000
00000000
01000000
00000000
10000000
00000000
00100000
00000000
00010000
00000000
00100000
00000000
10001000
00000100
01000010
00000001
,
00001000
00000100
00001000
00000010
00000001
00000010
00001000
00000100
,
00001000
00000000
00000100
00000000
00001000
00000000
00000010
00000000
00000001
00000000
00000010
00000000
10001000
01000000
00100100
00010000
,
10001000
01000100
10001000
00100010
00010001
00100010
10001000
01000100
,
10001000
01000100
10001000
00100010
00010001
00100010
10001000
01000100
,
10001000
01000100
10001000
00100010
00010001
00100010
10001000
01000100
,
10001000
01000100
10001000
00100010
00010001
00100010
10001000
01000100
,
00000000
00000000
00000000
00000000
00000000
00000001
00000010
00000100
,
00001000
00010000
00100000
01000000
10000000
00000000
00000000
00000000
;
