#TITLE:Twinkle Park;
#SUBTITLE:Sonic Adventure DX;
#ARTIST:Jun Senous;
#TITLETRANSLIT:;
#SUBTITLETRANSLIT:;
#ARTISTTRANSLIT:;
#CREDIT:owenviau1;
#BANNER:BN.PNG;
#BACKGROUND:BG.PNG;
#LYRICSPATH:;
#CDTITLE:../ov1_title.png;
#MUSIC:Twinkle Park.mp3;
#OFFSET:-0.580;
#SAMPLESTART:64.000;
#SAMPLELENGTH:29.999;
#SELECTABLE:YES;
#DISPLAYBPM:149.990;
#BPMS:0.000=149.992,5.000=149.983,6.000=149.992,11.000=149.983,12.000=149.992,16.000=149.983,17.000=149.992,22.000=149.983,23.000=149.992,27.000=149.983,28.000=149.992,32.000=149.983,33.000=149.992,38.000=149.983,39.000=149.992,43.000=149.983,44.000=149.992,48.000=149.983,49.000=149.992,54.000=149.983,55.000=149.992,60.000=149.983,61.000=149.992,68.000=149.983,69.000=149.992,76.000=149.983,77.000=149.992,84.000=149.983,85.000=149.992,92.000=149.983,93.000=149.992,100.000=149.983,101.000=149.992,108.000=149.983,109.000=149.992,116.000=149.983,117.000=149.992,120.000=149.983,121.000=149.992,124.000=149.983,125.000=149.992,128.000=149.983,129.000=149.992,132.000=149.983,133.000=149.992,136.000=149.983,137.000=149.992,140.000=149.983,141.000=149.992,144.000=149.983,145.000=149.992,148.000=149.983,149.000=149.992,152.000=149.983,153.000=149.992,156.000=149.983,157.000=149.992,160.000=149.983,161.000=149.992,164.000=149.983,165.000=149.992,168.000=149.983,169.000=149.992,172.000=149.983,173.000=149.992,176.000=149.983,177.000=149.992,180.000=149.983,181.000=149.992,184.000=149.983,185.000=149.992,188.000=149.983,189.000=149.992,192.000=149.983,193.000=149.992,196.000=149.983,197.000=149.992,200.000=149.983,201.000=149.992,204.000=149.983,205.000=149.992,208.000=149.983,209.000=149.992,212.000=149.983,213.000=149.992,216.000=149.983,217.000=149.992,220.000=149.983,221.000=149.992,224.000=149.983,225.000=149.992,228.000=149.983,229.000=149.992,232.000=149.983,233.000=149.992,236.000=149.983,237.000=149.992;
#STOPS:;
#BGCHANGES:;
// cache tags:
#FIRSTBEAT:32.000;
#LASTBEAT:298.000;
#SONGFILENAME:Songs/owenviau1 Simfiles 5/Twinkle Park - [owenviau1] v1.3/Twinkle Park.sm;
#HASMUSIC:1;
#HASBANNER:1;
#MUSICLENGTH:124.847;
// end cache tags

//---------------dance-single - ----------------
#NOTES:
     dance-single:
     :
     Hard:
     10:
     0.676,0.746,0.000,0.000,0.260,591.000,0.000,0.000,0.000,0.000:
0000
0000
0000
0000
,
0000
0000
0000
0000
,
0000
0000
0000
0000
,
0000
0000
0000
0000
,
0000
0000
0000
0000
,
0000
0000
0000
0000
,
0000
0000
0000
0000
,
0000
0000
0000
0000
,
1000
0100
0010
1000
0001
0100
0010
1000
,
0001
0000
0010
0000
0001
0000
0100
0000
0010
0000
1000
0010
1000
0010
1000
0010
,
1000
0100
0010
0001
1000
0010
0100
0001
,
1000
0000
0001
0000
0100
0000
0010
0000
1000
0000
0001
0010
0001
0010
0001
0010
,
0001
0010
0100
1000
0010
1000
0001
0100
,
0010
0000
1000
0000
0010
0000
0100
0000
0001
1000
0001
1000
0001
1000
0001
1000
,
0001
0010
0100
1000
0001
0100
0010
1000
,
0100
0010
0001
1000
0001
0100
0001
0010
0100
1000
0010
1000
0001
1000
0010
0100
,
0001
0010
1000
0001
0010
0001
1000
0100
,
1000
0010
0100
0001
1000
0100
0010
0010
,
0010
0001
1000
0100
1000
0001
0100
0010
,
1000
0100
0010
0001
0100
0001
1000
1000
,
1000
0010
0100
0010
0001
0100
0010
1000
,
0001
0010
0001
1000
0010
0100
0001
0001
,
0001
0010
0100
1000
0010
0001
1000
0010
,
1000
0000
0001
0000
0010
0000
0100
0000
1000
0010
1000
0001
1000
0000
0001
0100
,
0010
1000
0001
0010
0100
1000
0010
0100
,
0001
1000
0001
0010
0001
1000
0100
0100
,
0100
0010
0100
0001
0010
0001
1000
0100
,
1000
0010
0100
0001
1000
0100
0010
0010
,
0010
0100
0010
1000
0100
0010
0001
1000
,
0001
0100
0010
1000
0010
0100
0001
0001
,
0001
0010
0100
1000
0001
0100
1000
0010
,
1000
0000
0001
0000
0010
0000
0100
0000
1000
0010
1000
0001
0100
0001
1000
0001
,
0100
0001
1000
0010
0100
0001
1000
0100
,
0010
0001
0100
0010
1000
0010
0100
0100
,
0100
0001
1000
0001
0010
0100
1000
0001
,
0100
0010
1000
0001
0100
0001
1000
1000
,
1000
0100
0010
1000
0010
0100
0001
1000
,
0001
0010
0001
0100
0010
1000
0001
0001
,
0001
0010
0100
1000
0001
1000
0100
0001
,
1000
0000
0001
0000
0010
0000
0100
0000
1000
0001
1000
0000
0010
0000
0100
0010
,
0100
1000
0001
0100
0001
0010
0100
1000
,
0010
0100
0001
1000
0001
0100
0010
0010
,
0010
1000
0010
0001
1000
0010
0100
0001
,
1000
0001
0010
0001
0100
0010
1000
1000
,
1000
0010
0100
1000
0010
0100
0001
1000
,
0001
0010
0001
1000
0010
0100
0001
0001
,
0001
1000
0100
0001
1000
0001
0010
0100
,
1000
0001
1000
0100
1000
0010
0100
0001
0100
0000
0010
0000
1000
0001
0100
0001
,
0010
0100
1000
0010
0100
0001
1000
0001
,
0010
0000
0001
0000
0100
0000
0010
0000
1000
0100
1000
0100
0010
0001
0010
0001
,
0010
1000
0001
1000
0100
1000
0010
0100
,
0001
0000
1000
0000
0100
0000
0010
0000
0001
0100
0001
0100
0010
1000
0010
1000
,
0001
0010
0100
0001
0010
0100
1000
0010
,
0100
0001
0010
0001
1000
0010
0100
0001
,
0010
0100
1000
0010
0100
0001
1000
0001
,
0010
0000
0001
0000
0100
0000
0010
0000
1000
0100
1000
0000
0001
0000
0100
0001
,
0100
0010
1000
0010
0100
0001
1000
0001
,
0010
0000
0001
0000
0100
0000
0010
0000
1000
0000
0100
0000
0010
0000
0001
1000
,
0001
1000
0001
0100
1000
0010
0100
0001
,
1000
0000
0001
0000
0100
0000
0010
0000
1000
0100
0000
0010
0001
0000
0100
0000
,
0001
1000
0001
0100
0010
1000
0100
0010
,
0001
0000
1000
0000
0001
0000
0100
0000
1000
0010
0000
0010
0000
1000
0001
0000
,
0010
0100
1000
0010
0100
0001
0010
0001
,
1000
0000
0001
0000
0100
0000
0010
0000
1000
0100
1000
0001
1000
0000
0001
0100
,
0001
0000
1000
0000
0100
0000
0010
0000
0001
0000
0000
0001
0000
0000
1000
0000
,
0010
0000
0000
0100
0000
0000
0100
0000
1000
0100
1000
0001
1000
0010
0100
0001
,
0010
0001
1000
0001
0100
0010
1000
0001
1000
0000
0010
0000
1000
0000
0001
0000
,
0010
0001
1000
0100
1000
0010
0100
0001
,
1000
0100
0010
0010
0010
0001
1000
0100
,
1000
0001
0100
0010
1000
0100
0010
0001
,
0100
0001
1000
1000
1000
0010
0100
0010
,
0001
0100
0010
1000
0001
0010
0001
1000
,
0010
0100
0001
0001
0001
0010
0100
1000
,
0010
0001
1000
0010
1000
0001
0010
0100
,
1000
0010
1000
0001
1000
0000
0001
0100
0010
0000
0000
0000
0000
0000
0000
0000
;

//---------------dance-single - ----------------
#NOTES:
     dance-single:
     :
     Challenge:
     11:
     0.965,0.985,1.000,0.040,0.292,600.000,238.000,5.000,8.000,0.000:
0000
0000
0000
0000
,
0000
0000
0000
0000
,
0000
0000
0000
0000
,
0000
0000
0000
0000
,
0000
0000
0000
0000
,
0000
0000
0000
0000
,
0000
0000
0000
0000
,
0000
0000
0000
0000
,
1000
0110
1000
0011
0100
1001
0010
0101
,
1000
0000
0110
0000
0001
0000
1100
0000
0010
0000
1000
0001
0010
0100
1000
0001
,
0100
1001
0010
1100
0001
0110
1000
0011
,
0100
0000
1001
0000
0001
0000
1100
0000
0010
0000
0001
1000
0100
0010
0001
0100
,
10MM
1001
0010
0110
1000
0011
1000
1100
,
0001
0000
1001
0000
0010
0000
0110
0000
1000
0000
0001
1000
0001
0100
0010
1000
,
0001
0110
1000
0011
0100
1001
0001
0110
,
1000
0001
1000
0010
0100
0001
1000
0100
0010
0001
0100
0001
0010
0100
1000
0010
,
1001
0010
0101
0010
1001
0100
1100
0010
,
1001
1000
0110
0001
0011
1000
1100
0101
,
1010
0001
0110
0010
1001
0010
1100
0001
,
1010
0010
0101
1000
0110
1000
0101
0110
,
1100
0010
0101
0010
1100
0100
1001
0001
,
0110
1000
0101
1000
0110
0010
1001
0101
,
1010
0001
1100
0010
0101
1000
0110
1000
,
1001
0000
0100
0000
0011
0000
0100
0000
1000
0100
0010
0001
1000
0000
0010
0100
,
1001
0100
1010
0001
1100
0001
0011
1000
,
0110
0100
1001
0010
1100
1000
0011
1100
,
0011
0001
1100
0010
1001
0100
0110
0001
,
0011
1000
1010
0100
1001
0010
0101
1010
,
0101
0010
1100
0010
0101
1000
0011
0100
,
1001
0100
1010
0001
1100
0010
1001
0110
,
1001
1000
0110
0001
1010
0100
1001
0010
,
0110
0000
0000
0000
0000
0000
1000
0000
0000
0000
0000
0000
0011
0000
0000
0000
0000
0000
1000
0000
0000
0000
0000
0000
0010
0000
0000
0100
0000
0000
1000
0000
0000
0001
0000
0000
0010
0000
0100
0000
1000
0000
0001
0000
0100
0000
0010
0000
,
1001
0100
0011
0100
1001
0100
1100
0010
,
1001
1000
0110
0001
0011
1000
1100
0101
,
1010
0001
0110
0010
1001
0010
1100
0001
,
1010
0010
0101
1000
0110
1000
0101
0110
,
1100
0010
0101
0010
1100
0100
1001
0001
,
0110
1000
0101
1000
0110
0010
1001
0101
,
1010
0001
1100
0010
0101
1000
0110
1000
,
1001
0000
0100
0000
0011
0000
0100
0000
1000
0100
0010
0001
1000
0000
0010
0100
,
1001
0100
1010
0001
1100
0001
0011
1000
,
0110
0100
1001
0010
1100
1000
0011
1100
,
0011
0001
1100
0010
1001
0100
0110
0001
,
0011
1000
1010
0100
1001
0010
0101
1010
,
0101
0010
1100
0010
0101
1000
0011
0100
,
1001
0100
1010
0001
1100
0010
1001
0110
,
1001
1000
0110
0001
1010
0100
1001
0100
,
1000
0000
0000
0100
0000
0000
0010
0000
0000
0001
0000
0000
1000
0000
0000
0010
0000
0000
1000
0000
0000
0001
0000
0000
0010
0000
0000
0000
0000
0000
0100
0000
0000
0000
0000
0000
1000
0000
0001
0000
0100
0000
0010
0000
1000
0000
0010
0000
,
1001
0100
0011
0001
1100
0001
0110
0100
,
1010
0000
0001
0000
0110
0000
0001
0000
1000
0010
0100
0001
0010
0100
1000
0010
,
0101
1000
0110
0010
1001
0100
0011
0001
,
1100
0000
0001
0000
0110
0000
1000
0000
0001
1000
0010
1000
0001
0100
0010
0100
,
1001
1000
0110
0001
1100
0001
0011
1000
,
0101
1000
0110
0100
1001
0010
1100
0001
,
0011
1000
0101
0010
1001
1000
0110
0001
,
1100
0000
0001
0000
0011
0000
0100
0000
1000
0100
0010
0001
1000
0000
0010
0100
,
1001
0100
0011
1000
1001
0001
0110
0001
,
1010
0000
0100
0000
0110
0000
0001
0000
1000
0100
0010
0000
0001
0000
1000
0010
,
1001
1000
0110
1000
0011
0001
1100
0001
,
0110
0000
0000
0000
0100
0000
0000
0000
1001
0000
0000
0000
0010
0000
0000
0000
0200
0300
0002
0003
1000
0000
0020
0030
0100
0000
0002
0003
0020
0030
0100
0000
,
1001
1000
0110
0001
1010
0100
1001
0010
,
0110
0000
1000
0000
0101
0000
0010
0000
1000
0001
0000
0010
0000
1000
0001
0000
,
0110
0001
1100
1000
0110
0001
0011
0100
,
1001
0000
0001
0000
0110
0000
1000
0000
0001
1000
0001
0100
0010
0000
1000
0001
,
1010
0000
0100
0000
1001
0000
0010
0000
100M
0000
0000
01M0
0000
0000
M100
0000
,
001M
0000
0000
M001
0000
0000
00M1
0000
1000
0100
0010
0001
1000
0010
0100
0001
,
1000
0001
0100
0001
1000
0010
0100
0001
1001
0000
0100
0000
1010
0000
0100
0000
,
1001
0010
1100
0010
1001
1000
0110
0001
,
0011
1000
1100
0101
1010
0001
0110
0010
,
1001
0010
1100
0001
1010
0010
0101
1000
,
0110
1000
0101
0110
1100
0010
0101
0010
,
1100
0100
1001
0001
0110
1000
0101
1000
,
0110
0010
1001
0101
1010
0001
1100
0010
,
0101
1000
0110
1000
1001
0100
0011
0100
,
1000
0100
0010
0001
1000
0000
0010
0100
1001
0000
0000
0000
0000
0000
0000
0000
;
