#TITLE:Trolls in the Dark;
#SUBTITLE:;
#ARTIST:Rhapsody;
#TITLETRANSLIT:;
#SUBTITLETRANSLIT:;
#ARTISTTRANSLIT:;
#CREDIT:;
#BANNER:trolls.png;
#BACKGROUND:trolls-bg.png;
#LYRICSPATH:;
#CDTITLE:;
#MUSIC:08 - trolls in the dark.mp3;
#OFFSET:0.065;
#SAMPLESTART:43.773;
#SAMPLELENGTH:22.660;
#SELECTABLE:YES;
#BPMS:0.000=90.000,32.000=180.000;
#STOPS:;
#BGCHANGES:;
// cache tags:
#FIRSTBEAT:14.500;
#LASTBEAT:418.000;
#SONGFILENAME:Songs/Essential Sim Collection/(Skorpion9x) Trolls in the Dark/trolls.sm;
#HASMUSIC:0;
#HASBANNER:1;
#MUSICLENGTH:100.000;
// end cache tags

//---------------dance-single - ----------------
#NOTES:
     dance-single:
     :
     Challenge:
     11:
     1.000,1.000,1.000,0.400,0.970,945.000,290.000,40.000,0.000,0.000:
0000
0000
0000
0000
,
0000
0000
0000
0000
,
0000
0000
0000
0000
,
0000
0000
0000
0000
0000
0200
0320
0032
,
2003
3200
0320
0000
0230
2300
3020
0230
,
0302
0023
0230
0000
2300
3200
2300
3020
,
0230
0302
0023
0000
0230
2300
3002
0203
,
0302
0023
0000
0030
,
0000
0000
0000
0110
1001
0100
0010
1000
,
0001
0000
0100
0010
1001
0100
0010
1000
,
0101
0000
0100
0011
1001
0100
0010
1000
,
0100
0000
0010
0001
1100
0010
0100
0001
,
1010
0000
0000
0000
1000
0100
0010
0001
1100
0000
0000
0000
0000
0000
0010
0000
,
0100
0001
1000
0000
0110
0000
0000
0001
,
1000
0000
0100
0000
0010
0000
0001
0000
1001
0100
1000
0000
0010
0000
0100
0000
,
1001
0100
0001
0000
0010
0000
0100
0000
1001
0010
0100
0000
0101
0010
1000
0000
,
0110
0000
0000
0100
0011
1000
0101
1000
,
0011
0100
1001
0100
1010
0001
1100
0001
,
1010
0100
0011
0011
0110
1000
0101
1000
,
0110
0001
1010
0100
0011
1000
0101
1000
,
0110
0000
1000
0000
0100
0010
0001
0010
1200
0000
0010
0000
0301
0000
0101
0000
,
0110
1100
1001
0100
1020
0001
0130
1010
,
0110
0000
0101
0000
1001
0000
0110
0000
1001
0100
0010
0000
0110
0000
1001
0000
,
0110
0001
1000
0000
0110
0000
1001
0000
1010
0100
0001
0000
0011
0100
1000
0000
,
2002
0000
0000
0000
0000
0000
3003
0100
,
1001
0000
0110
0000
1100
0000
0101
0000
0001
0100
1000
0000
0010
0100
1000
0000
,
0001
0010
1000
0000
0100
0010
1000
0000
0001
0100
1000
0000
0010
0100
1000
0000
,
0110
0000
1001
0000
0011
0000
0110
0000
1000
0100
0001
0000
0100
0010
0001
0000
,
1000
0010
0001
0000
0010
0100
0001
0000
1000
0100
0001
0000
0100
0010
0001
0000
,
0011
0000
1100
0000
1010
0000
1001
0000
1000
0100
0010
0000
1000
0010
0001
0000
,
1000
0010
0100
0000
1000
0100
0001
0000
1000
0100
0010
0000
1000
0010
0001
0000
,
1100
0000
1010
0000
0110
0000
0101
0000
0001
0100
1000
0000
0100
0010
1000
0000
,
0001
0010
1000
0000
0010
0100
1000
0000
0001
0000
0010
0000
0100
0000
1000
0000
,
0110
0000
0101
0000
1001
0000
1100
0000
0011
0000
0100
0001
1000
0000
0011
0000
,
1100
0000
0010
0001
0100
0000
1010
0000
1100
0000
0010
0001
1000
0000
0110
0000
,
1001
1100
0010
0001
0110
0010
1001
0110
,
0110
0000
0001
0000
1000
0000
0011
0000
0100
1000
0010
0000
0101
0000
1001
0000
,
1010
0100
0001
0010
0011
0101
1010
1100
,
1001
0000
0010
0100
1000
0000
1001
0000
0110
0000
0001
0100
1000
0000
0110
0000
,
1100
0000
0010
0001
0100
0000
1010
0000
0101
0000
1001
0000
0100
0000
0010
0000
,
0011
0001
1100
0011
0011
0100
1010
0100
,
0001
0010
0100
0000
1010
0000
0110
0000
0102
0000
1000
0000
1003
0000
0100
0000
,
0011
0000
1001
0000
1100
0000
0110
0000
0010
0100
1000
0000
0001
0010
1000
0000
,
0001
0100
1000
0000
0100
0010
1000
0000
0001
0010
1000
0000
0010
0001
0100
0000
,
0011
0000
0110
0000
1100
0000
0011
0000
0010
0100
0001
0000
1000
0010
0001
0000
,
1000
0100
0001
0000
0100
0010
0001
0000
1000
0010
0001
0000
0010
1000
0100
0000
,
1010
0000
0101
0000
1001
0000
1100
0000
0100
0010
1000
0000
0001
0100
1000
0000
,
0001
0010
1000
0000
0010
0100
1000
0000
0001
0100
1000
0000
0100
0001
0010
0000
,
1001
0000
0110
0000
1010
0000
0101
0000
0100
0010
0001
0000
1000
0100
0001
0000
,
1000
0010
0001
0000
0010
0100
0001
0000
1000
0000
0001
0000
0100
0000
0010
0000
,
1001
0000
1000
0010
0100
0001
0010
0100
0011
0100
1000
0100
1000
0100
1000
0100
,
0011
1000
0001
1000
0001
1000
0001
1000
0110
0001
0100
0001
0100
0001
0100
0001
,
1010
0100
0001
0100
0001
0100
0001
0100
0011
0100
1000
0001
0110
1000
0001
0010
,
1100
0010
0001
0100
1001
0010
1000
0001
0110
1000
0001
0100
1010
0001
1000
0010
,
0101
0011
0110
1100
1002
0000
0010
0000
,
0010
0000
0013
1100
0011
0100
1000
0100
,
0010
0000
0001
0100
0011
1000
0100
0010
,
1001
0000
0100
0110
0011
0100
1000
0010
,
0100
0000
0001
0010
0101
1000
0001
0100
,
0011
0000
0000
0000
1000
0010
0100
0001
1010
0000
0000
0000
0000
0000
1000
0000
,
0010
0100
0001
0000
0011
0000
0000
0100
,
1000
0000
0001
0000
0100
0000
0010
0000
0101
0010
1000
0000
0100
0000
0010
0000
,
1100
0010
0001
0000
0100
0000
0010
0000
0101
0010
1000
0000
1100
0010
0001
0000
,
1001
0000
0000
0100
1010
0001
1100
0001
,
1010
0100
0011
1000
0101
1000
0011
0100
,
1001
0100
1010
1010
1001
0100
0011
1000
,
0101
0010
1100
0001
0110
1000
0101
0010
,
1001
0000
0100
0000
1000
0100
0010
0100
1002
0000
0010
0000
0103
0000
1010
0000
,
0110
0101
1001
0010
2001
0010
3001
1010
,
0101
0000
1001
0000
1100
0000
0010
0000
1100
0001
0100
0000
0011
0000
1100
0000
,
1010
0001
0100
0000
1010
0000
0101
0000
0011
1000
0100
0000
1010
0001
0100
0000
,
2002
0000
0000
0000
0000
0000
3003
0100
,
0011
0000
1100
0000
1010
0000
0101
0000
1000
0100
0001
0000
0100
0010
1000
0000
,
0010
0001
0100
0000
1000
0100
0001
0000
0010
1000
0010
0000
0001
0100
1000
0000
,
1100
0000
0101
0000
0011
0000
1100
0000
0001
0100
1000
0000
0100
0010
0001
0000
,
0010
1000
0100
0000
0001
0100
1000
0000
0010
0001
0010
0000
1000
0100
0001
0000
,
0101
0000
1100
0000
1010
0000
0101
0000
1000
0010
0001
0000
0010
0100
1000
0000
,
0100
0001
0010
0000
1000
0010
0001
0000
0100
1000
0100
0000
0001
0010
1000
0000
,
1010
0000
0011
0000
1100
0000
0011
0000
0001
0010
1000
0000
0010
0100
0001
0000
,
0100
1000
0010
0000
0001
0010
1000
0000
0001
0000
0010
0000
0100
0000
1000
0000
,
0110
0000
1001
0000
1100
0000
1001
0000
0011
0000
1000
0100
0010
0000
1100
0000
,
0011
0000
0010
0100
1000
0000
0011
0000
1100
0000
0001
0010
0100
0000
0011
0000
,
1100
1001
0100
0010
0101
1000
0101
1100
,
1100
0000
0001
0000
0110
0000
1000
0000
0010
1000
0100
0000
0011
0000
0110
0000
,
1002
0010
0013
0100
0110
1001
0011
1100
,
1010
0000
0001
0100
0010
0000
1010
0000
0101
0000
1000
0010
0100
0000
0101
0000
,
1010
0000
0001
0100
0010
0000
1010
0000
0101
0000
1001
0000
0010
0000
0100
0000
,
1010
0001
1100
0101
0101
0010
1001
0100
,
1010
0100
0001
0000
1100
0000
0011
0000
1002
0000
0010
0000
0013
0000
1000
0000
,
0101
0000
0110
0000
1100
0000
0101
0000
0001
0100
1000
0000
0001
0010
1000
0000
,
0010
0001
0100
0000
1000
0001
0010
0000
1000
0010
0001
0000
1000
0100
0001
0000
,
1100
0000
0110
0000
0101
0000
1100
0000
1000
0100
0001
0000
1000
0010
0001
0000
,
0010
1000
0100
0000
0001
1000
0010
0000
0001
0010
1000
0000
0001
0100
1000
0000
,
0110
0000
1100
0000
1010
0000
0011
0000
0001
0010
1000
0000
0001
0100
1000
0000
,
0100
0001
0010
0000
1000
0001
0100
0000
1000
0100
0001
0000
1000
0010
0001
0000
,
0110
0000
0101
0000
0011
0000
1010
0000
1000
0010
0001
0000
1000
0100
0001
0000
,
0100
1000
0010
0000
0001
1000
0100
0000
0001
0000
0100
0000
1000
0000
0010
0000
,
1001
0000
0001
0010
0100
1000
0010
0100
1010
0100
0001
0100
0001
0100
0001
0100
,
1010
0001
1000
0001
1000
0001
1000
0001
0110
1000
0100
1000
0100
1000
0100
1000
,
0011
0100
0010
0100
0010
0100
0010
0100
1001
0100
0010
0001
1100
0010
0001
0100
,
1010
0100
0010
1000
0101
0010
1000
0100
0011
0100
0010
0001
0110
1000
0001
0100
,
1001
0011
0110
1100
2002
0000
3003
1100
,
0011
0000
1001
0000
0101
0101
0000
1010
,
1001
0000
1100
0000
0011
0011
0000
0110
,
0010
0001
0100
0010
1000
0100
0010
0001
0110
0000
0000
0000
0000
0000
0000
0000
;

//---------------dance-single - ----------------
#NOTES:
     dance-single:
     :
     Hard:
     10:
     1.000,1.000,0.510,0.220,0.925,925.000,51.000,22.000,0.000,0.000:
0000
0000
0000
0000
,
0000
0000
0000
0000
,
0000
0000
0000
0000
,
0000
0000
0000
0000
0000
0100
0010
0001
,
1000
0010
0200
0000
0301
0010
0100
1000
,
0010
0100
0002
0000
1003
0100
1000
0010
,
0100
0001
0020
0000
0130
1000
0001
0100
,
0002
0023
0000
0030
,
0000
0000
0000
1100
1001
0100
0010
0001
,
0100
0000
0010
1000
1100
0010
0001
0100
,
0101
0000
0001
1100
0110
0100
1000
0100
,
0010
0000
0001
0100
1010
0100
0001
0010
,
1100
0000
0000
0000
0001
0100
0001
0100
0020
0000
0000
0000
0000
0000
0130
0000
,
0010
1000
0100
0000
0020
0000
0000
0130
,
0010
0000
0001
0000
0100
0000
0010
0000
1000
0100
1000
0000
0100
0000
1000
0000
,
0001
0100
0001
0000
0100
0000
0001
0000
0010
0001
0100
0000
0010
1000
0100
0000
,
1001
0000
0000
0110
0110
0001
0100
0010
,
1001
0000
0100
0010
1001
0100
0010
0001
,
0110
0000
1000
1000
0110
0001
0100
0010
,
0101
0000
1000
0100
0011
0100
1000
0010
,
0101
0000
0000
0000
1000
0001
1000
0001
0020
0000
0100
0000
0130
0000
1000
0000
,
0100
1000
0010
0000
1020
0100
0130
0001
,
0010
0000
0001
0000
0100
0000
0010
0000
1000
0100
1000
0000
0001
0000
0100
0000
,
0010
1000
0010
0000
0100
0000
0001
0000
0010
0100
0010
0000
0001
1000
0001
0000
,
0220
0000
0000
0000
0000
0000
0330
0100
,
1000
0000
0100
0000
0010
0000
0001
0000
1000
0100
1000
0000
0001
0100
0001
0000
,
1000
0100
1000
0000
0001
0100
0001
0000
1000
0100
1000
0000
0001
0000
0100
0000
,
0010
0000
1000
0000
0010
0000
1000
0000
0100
0010
0100
0000
0010
0100
0010
0000
,
0100
0010
0100
0000
0010
0100
0010
0000
0100
0010
0100
0000
1000
0000
0010
0000
,
0100
0000
0001
0000
0100
0000
0010
0000
1000
0010
1000
0000
0001
0100
0001
0000
,
1000
0100
1000
0000
0001
0010
0001
0000
1000
0001
1000
0000
0100
0000
0010
0000
,
0001
0000
0100
0000
0010
0000
1000
0000
0100
1000
0100
0000
0010
0001
0010
0000
,
0001
0100
0001
0000
1000
0010
1000
0000
0010
0000
0100
0000
0001
0000
0010
0000
,
0100
0000
1000
0000
0010
0000
0100
0000
0001
0000
0010
0100
1000
0000
0010
0000
,
0100
0000
0001
0010
0100
0000
1000
0000
0010
0000
0100
0001
0010
0000
0100
0000
,
1000
0010
0100
0001
0010
0100
1000
0001
,
0100
0000
0010
0000
1000
0000
0001
0000
1000
0010
0100
0000
0001
0000
0010
0000
,
1002
0010
0013
0100
0010
1000
0100
0010
,
0001
0000
1000
0100
0010
0000
0001
0000
0100
0000
0010
1000
0100
0000
0010
0000
,
0001
0000
0100
0010
1000
0000
0100
0000
0010
0000
0001
0000
0100
0000
0010
0000
,
1000
0100
0010
0001
1000
0010
0100
0001
,
1000
0010
1000
0000
0001
0000
0100
0000
2001
0000
0010
0000
3010
0000
0100
0000
,
0001
0000
0100
0000
0001
0000
1000
0000
0100
0010
0100
0000
1000
0001
1000
0000
,
0001
0100
0001
0000
0010
0100
0010
0000
0001
1000
0001
0000
0100
0010
0100
0000
,
0010
0000
1000
0000
0100
0000
0010
0000
0001
1000
0001
0000
0100
0010
0100
0000
,
0010
1000
0010
0000
1000
0100
1000
0000
0100
0010
0100
0000
0010
0001
0010
0000
,
0001
0000
0100
0000
0010
0000
1000
0000
0100
1000
0100
0000
0010
0001
0010
0000
,
0001
0100
0001
0000
0100
0010
0100
0000
0010
1000
0010
0000
1000
0001
1000
0000
,
0001
0000
0010
0000
0100
0000
1000
0000
0010
0100
0010
0000
0100
0001
0100
0000
,
0001
1000
0001
0000
1000
0100
1000
0000
0010
0000
1000
0000
0100
0000
0010
0000
,
0001
0000
0100
0000
0010
0000
0100
0000
0001
0010
0001
0010
0001
0010
0001
0010
,
0100
1000
0100
1000
0100
1000
0100
1000
0001
1000
0001
1000
0001
1000
0001
1000
,
0001
0100
0001
0100
0001
0100
0001
0100
0010
1000
0100
0010
0001
0100
0010
1000
,
0100
0010
0001
0100
0010
1000
0100
0010
0001
0100
0010
1000
0100
0010
0001
0100
,
0010
1000
0001
0100
1002
0000
0100
0000
,
0100
0000
0103
0110
1010
0100
0010
0001
,
1000
0000
0100
1000
0011
0100
0001
1000
,
0101
0000
1000
1100
0011
0100
1000
0001
,
0010
0000
0100
1000
0011
0100
1000
0001
,
1010
0000
0000
0000
0001
0100
0001
1000
0020
0000
0000
0000
0000
0000
0130
0000
,
0001
0010
0100
0000
2000
0000
0000
3010
,
0100
0000
0001
0000
1000
0000
0100
0000
0010
0001
0100
0000
0001
0000
0010
0000
,
0100
1000
0010
0000
0100
0000
0001
0000
0010
0100
0010
0000
0001
1000
0001
0000
,
0110
0000
0000
0101
1010
0100
0001
1000
,
0110
0000
1000
0100
0011
0100
1000
0010
,
0101
0000
0010
0100
1010
0100
0001
1000
,
0110
0000
0001
0100
1010
0100
0001
0010
,
1001
0000
0000
0000
0100
0010
0001
0100
0020
0000
1000
0000
1030
0000
0100
0000
,
0010
0001
0100
0000
0120
1000
1030
0100
,
1000
0000
0010
0000
0100
0000
0001
0000
0010
0100
1000
0000
0010
0000
0100
0000
,
0001
0010
0100
0000
1000
0000
0010
0000
0100
0001
0100
0000
0010
1000
0010
0000
,
2002
0000
0000
0000
0000
0000
3003
0100
,
0010
0000
1000
0000
0001
0000
0100
0000
0001
1000
0100
0000
1000
0001
0100
0000
,
0001
1000
0010
0000
1000
0001
0010
0000
0001
0010
0100
0000
1000
0010
0100
0000
,
0001
0000
1000
0000
0010
0000
0100
0000
0001
0100
0010
0000
1000
0100
0010
0000
,
0001
0010
0100
0000
1000
0010
0100
0000
0001
1000
0100
0000
1000
0001
0010
0000
,
0100
0000
1000
0000
0001
0000
0100
0000
0010
1000
0100
0000
0010
0001
0100
0000
,
0010
0100
0001
0000
0010
0100
1000
0000
0001
1000
0100
0000
1000
0001
0100
0000
,
0010
0000
1000
0000
0100
0000
0010
0000
0001
0100
0010
0000
1000
0100
0010
0000
,
0001
1000
0010
0000
1000
0001
0010
0000
0100
0000
1000
0000
0010
0000
0100
0000
,
0001
0000
0010
0000
0100
0000
1000
0000
0010
0000
0100
0001
1000
0000
0010
0000
,
1000
0000
0100
1000
0001
0000
0010
0000
0001
0000
0100
0001
1000
0000
0010
0000
,
0100
0001
1000
0100
0010
0001
0100
0010
,
1000
0000
0100
0000
0010
0000
0001
0000
0010
0100
1000
0000
0010
0000
0100
0000
,
2001
0100
3100
0010
0001
1000
0001
0100
,
0001
0000
0010
0001
1000
0000
0100
0000
1000
0000
0010
1000
0001
0000
0100
0000
,
0001
0000
0010
0001
1000
0000
0010
0000
0100
0000
0001
0000
1000
0000
0100
0000
,
0010
0001
0100
0010
1000
0001
0100
0010
,
1000
0100
0010
0000
0001
0000
1000
0000
0120
0000
1000
0000
1030
0000
0100
0000
,
0010
0000
1000
0000
0100
0000
1000
0000
0001
0100
0010
0000
1000
0100
0010
0000
,
0001
1000
0100
0000
1000
0010
0100
0000
0001
1000
0100
0000
0010
0001
1000
0000
,
0010
0000
1000
0000
0100
0000
0010
0000
0001
0100
0001
0000
1000
0010
0100
0000
,
0001
1000
0100
0000
0010
0001
0100
0000
0010
1000
0001
0000
0100
0010
0100
0000
,
0001
0000
0010
0000
0100
0000
1000
0000
0001
0100
0001
0000
0100
0010
1000
0000
,
0001
0010
0001
0000
0010
0100
1000
0000
0010
0100
0001
0000
1000
0100
0010
0000
,
0001
0000
0100
0000
0001
0000
0010
0000
0100
1000
0100
0000
0010
0001
1000
0000
,
0010
1000
0010
0000
0100
0001
1000
0000
0010
0000
0100
0000
0001
0000
1000
0000
,
0100
0000
0010
0000
0001
0000
1000
0000
0010
0100
0010
0100
0010
0100
0010
0100
,
0001
1000
0001
1000
0001
1000
0001
1000
0100
1000
0100
1000
0100
1000
0100
1000
,
0010
0100
0010
0100
0010
0100
0010
0100
0001
0010
0100
1000
0010
0100
0001
0010
,
0100
1000
0010
0100
0001
0010
0100
1000
0010
0100
0001
0010
0100
1000
0010
0100
,
0001
0010
0100
1000
1001
0000
0000
1000
,
0100
0000
0010
0000
1001
1001
0000
0100
,
0010
0000
1000
0000
1001
1001
0000
0000
,
0001
0010
0100
1000
0010
0100
0001
1000
0110
0000
0000
0000
0000
0000
0000
0000
;

//---------------dance-single - ----------------
#NOTES:
     dance-single:
     :
     Medium:
     9:
     1.000,0.993,0.570,0.140,0.530,662.000,57.000,14.000,0.000,0.000:
0000
0000
0000
0000
,
0000
0000
0000
0000
,
0000
0000
0000
0000
,
0000
0000
0000
0000
0000
0100
0010
0001
,
1000
0001
0010
0000
0100
1000
0010
0100
,
0001
1000
0100
0000
1000
0100
1000
0010
,
0100
0001
0010
0000
0100
1000
0001
0100
,
0001
0020
0000
0030
,
0000
0000
0000
1000
0100
0010
0001
1000
,
0010
0000
1000
0100
1000
0001
0100
0001
,
0010
0000
0100
0100
1000
0100
1000
0001
,
0010
0000
0100
1000
0001
0100
0001
0010
,
0100
0000
1000
0000
0110
0000
0000
0001
,
0010
0100
1000
0000
1001
0000
0000
0010
,
0100
1000
0001
0010
0011
0000
0100
1000
,
1001
0000
0100
0001
1010
0000
0101
0000
,
1001
0000
0000
0100
0010
0001
1000
0100
,
1000
0000
0100
0010
0001
0100
0001
0010
,
0001
0000
0100
0100
0010
1000
0100
0010
,
0001
0000
1000
0010
0100
0001
1000
0100
,
1000
0000
0001
0100
0120
0000
0030
1000
,
0001
0010
0100
0000
0021
0000
0030
0100
,
1000
0001
0100
0010
1010
0000
0100
0001
,
0101
0000
1000
0001
0110
0001
1000
0100
,
2002
0000
0000
0000
0000
0000
3003
0100
,
1000
0000
0100
0000
0010
0000
0001
0000
1000
0100
0000
0000
1000
0010
0000
0000
,
1000
0100
0000
0000
1000
0001
0000
0000
1000
0010
0000
0000
1000
0100
0000
0000
,
1000
0000
0010
0000
0100
0000
0001
0000
0010
0100
0000
0000
0010
0001
0000
0000
,
0010
1000
0000
0000
0010
0100
0000
0000
0010
0001
0000
0000
0010
0100
0000
0000
,
1000
0000
0010
0000
0100
0000
0001
0000
0100
0010
0000
0000
0100
0001
0000
0000
,
0100
0010
0000
0000
0100
1000
0000
0000
0100
0010
0000
0000
0100
0001
0000
0000
,
0010
0000
0100
0000
1000
0000
0001
0000
1000
0100
0000
0000
1000
0010
0000
0000
,
1000
0100
0000
0000
1000
0001
0000
0000
0010
0000
0100
0000
1000
0000
0010
0000
,
1000
0000
0100
0000
0010
0000
0001
0000
1000
0000
0000
0010
0100
0000
0001
0000
,
1000
0000
0000
0100
0010
0000
0001
0000
1000
0000
0000
0010
1000
0000
0100
0000
,
0010
0001
0000
0000
0010
0100
1000
0010
,
0100
0000
0001
0000
1000
0000
0100
0000
1000
0000
0000
0010
0100
0000
0001
0000
,
1001
0000
0000
1000
1000
0100
1000
0010
,
0100
0000
0000
0001
1000
0000
0100
0000
1000
0000
0000
0010
1000
0000
0100
0000
,
0010
0000
0000
0001
0100
0000
0001
0000
0010
0000
0100
0000
0000
0000
0000
0000
,
1000
0001
1000
0100
1000
0010
0100
0001
,
1000
0000
0000
0100
0010
0000
0001
0000
1001
0000
0000
0000
0000
0000
0000
0000
,
0100
0000
0010
0000
0001
0000
1000
0000
0001
0100
0000
0000
0001
1000
0000
0000
,
0001
0010
0000
0000
0001
1000
0000
0000
0001
0100
0000
0000
0001
0010
0000
0000
,
0100
0000
1000
0000
0010
0000
0100
0000
0010
1000
0000
0000
0010
0100
0000
0000
,
0010
0001
0000
0000
0010
1000
0000
0000
0010
0100
0000
0000
0010
1000
0000
0000
,
0100
0000
0010
0000
0001
0000
1000
0000
0100
0010
0000
0000
0100
1000
0000
0000
,
0100
0010
0000
0000
0100
0001
0000
0000
0100
0010
0000
0000
0100
1000
0000
0000
,
0010
0000
0100
0000
0001
0000
1000
0000
0001
0010
0000
0000
0001
1000
0000
0000
,
0001
0100
0000
0000
0001
1000
0000
0000
0010
0000
0100
0000
0001
0000
1000
0000
,
0001
0100
0010
1000
1100
0000
0000
0000
,
0011
0000
1010
0000
,
0101
0000
0011
1001
,
1100
1001
0110
0011
,
1100
0010
0001
0100
1001
0000
0000
0000
,
0000
0000
0000
0100
0010
1000
0001
0100
,
0010
0000
1000
0100
1000
0010
0100
0001
,
0010
0000
0100
0100
0010
0100
0010
0001
,
1000
0000
0010
0100
0001
1000
0100
0010
,
0001
0000
0100
0000
2001
0000
3000
0010
,
1000
0100
0010
0000
1002
0000
0003
0010
,
0001
0100
0010
1000
1001
0000
0100
0010
,
0011
0000
0100
1000
1010
0000
0110
0000
,
1001
0000
0000
0100
0010
1000
0100
0010
,
0001
0000
1000
0001
0100
0001
0010
0100
,
1000
0000
0100
0100
1000
0001
0100
0001
,
0010
0000
0100
1000
0001
0010
0100
1000
,
0010
0000
0100
0001
1002
0000
0003
0100
,
0010
1000
0001
0000
1200
0000
0300
0010
,
0001
1000
0100
0010
1001
0000
0100
0010
,
1100
0000
0010
0001
1010
0100
0001
1000
,
2002
0000
0000
0000
0000
0000
3003
0100
,
1000
0000
0001
0000
0100
0000
0010
0000
1000
0100
0000
0000
0100
0010
0000
0000
,
0010
0001
0000
0000
0001
0100
0000
0000
0100
0010
0000
0000
0010
1000
0000
0000
,
0001
0000
0100
0000
0001
0000
0010
0000
0100
1000
0000
0000
1000
0010
0000
0000
,
0010
0100
0000
0000
0100
0001
0000
0000
0001
1000
0000
0000
1000
0100
0000
0000
,
0010
0000
0001
0000
1000
0000
0100
0000
1000
0010
0000
0000
0010
0100
0000
0000
,
0100
0001
0000
0000
0001
1000
0000
0000
1000
0100
0000
0000
0100
1000
0000
0000
,
0010
0000
1000
0000
0100
0000
0010
0000
0001
0100
0000
0000
0100
0010
0000
0000
,
0010
1000
0000
0000
1000
0100
0000
0000
0010
0000
0001
0000
0100
0000
0010
0000
,
1000
0000
0001
0000
1000
0000
0100
0000
0010
0000
0000
0001
1000
0000
0100
0000
,
1000
0000
0000
0001
0010
0000
0100
0000
0010
0000
0000
0001
0100
0000
0010
0000
,
1000
0100
0000
0000
0010
0100
1000
0010
,
0100
0000
0001
0000
1000
0000
0100
0000
0010
0000
0000
0001
1000
0000
0100
0000
,
1002
0000
0003
0100
0010
1000
0001
0100
,
0001
0000
0000
0010
0100
0000
1000
0000
0010
0000
0000
0100
0001
0000
1000
0000
,
0001
0000
0000
0100
0010
0000
1000
0000
0100
0000
0010
0000
0000
0000
0000
0000
,
0001
0100
0001
0010
0100
1000
0010
0100
,
0001
0000
0000
1000
0100
0000
1000
0000
2002
0000
0000
0000
3003
0000
0000
0000
,
0001
0000
0100
0000
0001
0000
0010
0000
0100
1000
0000
0000
0001
0100
0000
0000
,
0010
1000
0000
0000
0100
0010
0000
0000
0001
0100
0000
0000
0010
0100
0000
0000
,
0001
0000
0010
0000
0100
0000
1000
0000
0010
0100
0000
0000
0001
1000
0000
0000
,
0100
1000
0000
0000
0010
0100
0000
0000
0001
0010
0000
0000
0100
1000
0000
0000
,
0001
0000
0100
0000
0010
0000
1000
0000
0100
0010
0000
0000
0001
1000
0000
0000
,
0010
0100
0000
0000
0001
0010
0000
0000
0100
1000
0000
0000
0010
1000
0000
0000
,
0100
0000
0010
0000
0001
0000
0100
0000
0010
1000
0000
0000
0100
0010
0000
0000
,
0001
0100
0000
0000
0010
1000
0000
0000
0100
0000
0010
0000
0100
0000
1000
0000
,
0010
0100
0001
1000
0110
0000
0000
0000
,
0101
0000
0110
0000
,
1010
0000
1100
0110
,
0011
1001
0011
0110
,
1100
0010
0001
1000
1001
0000
0000
0001
,
0100
0000
0010
0000
1001
1000
0000
0100
,
0010
0000
0001
0000
1001
0001
0000
0000
,
0010
0100
0010
0100
0010
0000
0000
0000
1001
0000
0000
0000
0000
0000
0000
0000
;
