#TITLE:I Hate Jimmy Page;
#SUBTITLE:;
#ARTIST:Mindless Self Indulgence;
#TITLETRANSLIT:;
#SUBTITLETRANSLIT:;
#ARTISTTRANSLIT:;
#CREDIT:;
#BANNER:ihatejimmypage-bn.png;
#BACKGROUND:ihatejimmypage-bg.png;
#LYRICSPATH:;
#CDTITLE:!a0Title.png;
#MUSIC:ihatejimmypage.mp3;
#OFFSET:-0.164;
#SAMPLESTART:36.450;
#SAMPLELENGTH:18.000;
#SELECTABLE:YES;
#BPMS:0.000=238.000,328.000=119.000,357.000=148.750,358.000=178.500,359.000=208.250,360.000=238.000;
#STOPS:;
#BGCHANGES:;
// cache tags:
#FIRSTBEAT:8.000;
#LASTBEAT:435.000;
#SONGFILENAME:Songs/Community Keyboard Megapack - Volume 1/(Arch0wl) I Hate Jimmy Page/ihatejimmypage.sm;
#HASMUSIC:1;
#HASBANNER:1;
#MUSICLENGTH:121.161;
// end cache tags

//---------------dance-single - ----------------
#NOTES:
     dance-single:
     :
     Hard:
     10:
     0.613,0.763,0.578,0.371,0.070,405.000,70.000,45.000,0.000,0.000:
0000
0000
0000
0000
,
0000
0000
0000
0000
,
0001
0001
0000
0000
,
0000
0000
0000
0000
,
1000
1000
0000
0000
,
0000
0000
0000
0000
,
1001
0000
1001
0000
0000
1000
0100
1000
,
0010
0100
0010
0100
0001
0010
0001
0010
,
1001
0000
1001
0000
1000
0010
1000
0001
,
0000
0000
0100
0001
1000
0010
1000
0010
,
1001
0000
1001
0000
0001
1000
0010
1000
,
0000
0000
1000
0001
0010
0000
0001
1000
,
1001
0000
1001
0000
1000
0010
0100
0010
,
0100
0000
0001
0100
0001
0000
1000
0100
,
1001
1001
0010
0010
,
0010
0100
0100
0100
,
1001
1001
0000
0000
,
0000
0000
0000
0000
,
1000
0100
1000
0100
0000
0000
0010
0001
,
0000
0010
0100
0000
1000
0000
0001
0000
,
0100
0000
0100
0010
0100
0000
0010
0100
,
0010
1000
0100
0000
1000
0001
1000
0010
,
1000
0001
0110
0000
0001
1000
0110
0000
,
1000
0001
0010
0100
1001
0000
0000
0000
,
0000
0000
0001
0010
0100
0000
1000
0000
,
1000
0100
0010
0001
0010
0000
0100
0000
,
1000
0000
1000
0000
1000
0000
0001
0001
,
0001
0000
1000
1000
1000
0000
1000
0010
,
0100
0010
0100
0001
0010
0000
1000
0010
,
0100
0000
0001
0100
0010
0000
0000
0000
,
1100
0000
1100
0000
1100
0000
1000
0100
,
1000
0000
0001
0000
1000
0000
0000
0010
,
0100
0000
0001
0100
0001
1000
0010
0000
,
0100
0001
0000
0100
0001
0100
0001
0000
,
1000
0100
0000
1000
0100
0000
1000
0000
,
0001
0000
0000
0000
,
0000
0000
1002
0000
0003
2001
0000
3000
,
1002
0000
0003
2001
0000
3000
1002
0000
,
1003
0000
0010
0000
,
0100
0100
0000
0000
0001
0000
0000
0000
,
0000
0000
0210
0000
0300
0120
0000
0030
,
0210
0000
0300
0120
0000
0030
0210
0000
,
0310
0000
1000
0000
0001
0001
0000
0000
,
0010
0000
0100
0100
0000
0000
0000
0000
,
0000
0000
2010
0000
3000
1020
0000
0030
,
2010
0000
3000
1020
0000
0030
2010
0000
,
3010
0000
0000
0100
0001
0010
0001
0000
,
1000
0000
0000
0010
0010
0000
0000
0000
,
0000
0000
0201
0000
0300
0102
0000
0003
,
0201
0000
0300
0102
0000
0003
0201
0000
,
0301
0000
1000
0000
0010
0000
0000
0100
,
0001
1000
0000
0001
0000
0000
0000
0000
,
1001
1001
0000
0000
,
0000
0000
0000
0000
,
1001
1001
0000
0000
,
0000
0000
0000
2002
0000
0000
3003
0000
,
0100
1000
0000
0100
0010
0000
0100
0001
,
0000
0100
1000
0000
0001
0000
0001
0000
,
1000
0000
0000
0010
0000
0000
0100
0000
0000
0000
0001
0000
0000
0000
1000
0000
0000
0000
0010
0000
0000
0000
0100
0000
,
0000
0000
0001
0000
0000
0000
1000
0000
0000
0000
0100
0000
0000
0000
0000
1000
0000
0000
0100
0000
0000
1000
0000
0000
,
0100
0010
0001
0000
1000
0010
1000
0010
,
1000
0001
0100
0000
0010
1000
0000
0001
,
0001
1000
0000
1000
1000
0000
0010
0010
,
0100
0000
0001
0000
1000
0000
0010
0100
,
0001
0100
0001
1000
0010
1000
0010
0100
,
0001
0010
0100
1000
0001
0000
1000
0010
,
0000
0100
0001
0100
0010
1000
0010
1000
,
0001
1000
0001
0010
0100
0000
0010
0000
,
0001
0000
1000
0000
0001
0000
1000
0000
0001
0000
1000
0000
,
0001
0000
1000
0000
0001
0000
1000
0000
0000
0000
0000
0000
,
0010
0000
0100
0000
0010
0000
0100
0000
0010
0000
0100
0000
,
0010
0000
0100
0000
0010
0000
0100
0000
0000
0001
0000
0000
,
1000
1000
0001
0001
,
0010
0000
0100
0000
1000
1000
1000
0000
,
0100
0000
0100
0000
0010
0000
0100
1000
,
0001
0010
0001
0010
0100
0000
1000
0001
,
0100
0000
0000
0000
0000
0001
1000
1000
,
0000
0010
0000
0000
0100
0100
0001
0000
,
1001
0000
0000
0010
,
1010
0000
0000
0100
,
0110
0000
0000
0010
,
0010
0000
0000
0000
,
1000
0000
0000
0000
0002
0000
0003
0002
,
0000
0003
0000
0000
0000
0000
0000
0000
,
0000
0000
0000
0000
,
0000
0000
0000
0000
,
1000
0000
0000
0000
0001
0000
1000
1000
,
0000
0000
0000
0010
0010
0010
0000
0000
,
0100
0100
0000
0000
0001
0000
0100
0200
,
0000
0000
0000
0000
,
0300
0000
0000
1002
,
0003
2001
0000
3000
1002
0000
0003
2001
,
0000
3000
1002
0000
1003
0000
0000
0000
,
0010
0000
0000
0000
0100
0100
0000
0000
,
0001
0000
0000
0210
,
0300
0120
0000
0030
0210
0000
0300
0120
,
0000
0030
0210
0000
0310
0000
1000
0000
,
0001
0001
0000
0000
0010
0000
0100
0100
,
0000
0000
0000
2010
,
3000
1020
0000
0030
2010
0000
3000
1020
,
0000
0030
2010
0000
3010
0000
0000
0100
,
0001
0010
0001
0000
1000
0000
0000
0010
,
0010
0000
0000
0201
,
0300
0102
0000
0003
0201
0000
0300
0102
,
0000
0003
0201
0000
0301
0000
1000
0000
,
0010
0000
0000
0100
0001
1000
0000
0001
,
0000
0000
1001
1001
,
0000
0000
0000
0000
,
0000
0000
1001
1001
;

//---------------dance-single - ----------------
#NOTES:
     dance-single:
     :
     Challenge:
     13:
     1.000,1.000,0.726,0.330,0.479,767.000,88.000,40.000,0.000,0.000:
0000
0000
0000
0000
,
0000
0000
0000
0000
,
1001
0000
1001
0000
1000
0000
0010
0100
,
0010
0100
0010
0000
0100
0001
0100
0000
,
1001
0000
1001
0000
1000
0000
0010
0100
,
0010
0100
0010
0000
0100
0001
0100
0000
,
1001
0000
1001
0000
1000
0100
0010
0100
,
0010
0000
0001
0000
0010
0000
0001
1000
0100
0000
0010
0000
0100
0000
0010
0000
,
1001
0000
1001
0000
0100
0010
0100
0001
,
0000
0000
1000
0000
0001
0000
1000
0010
0100
0000
0001
0000
0100
0000
0010
0000
,
1001
0000
1001
0000
0010
0100
0010
0100
,
0000
0000
1000
0000
0010
0000
0100
0010
0001
0000
0010
0000
1000
0000
0010
0000
,
1001
0000
1001
0000
0100
0001
0010
0001
,
0010
0000
1000
0000
0010
0000
0100
1000
0010
0000
1000
0000
0001
0000
0010
0000
,
0110
0110
1000
1000
,
1000
0001
0001
0001
,
1001
1001
0000
0000
,
0000
0000
0000
0000
,
1000
0000
0001
0100
0001
0100
0001
0000
1000
0010
1000
0010
1000
0000
0001
1000
,
0001
0000
1000
0010
1000
0010
1000
0000
0001
0010
0001
0010
0001
0000
1000
0000
,
0001
0000
1000
0010
1000
0010
0100
0000
0001
0010
0001
0010
0100
0000
1000
0001
,
1000
0000
0001
0100
0001
0100
0010
0000
1000
0100
1000
0100
0010
0000
0001
0000
,
1000
0000
0010
0100
0010
1000
0100
0000
0010
0100
0010
0001
0100
0000
0001
1000
,
0001
0000
1000
0010
0100
0001
0010
0000
2200
0000
0000
0000
3300
0000
0000
0000
,
1001
0000
0010
0100
0010
0000
0010
0000
,
1000
0001
0010
0001
1000
0000
0100
0000
,
0010
0000
0001
0100
0010
0100
1000
0000
1000
0100
0001
0100
0010
0000
0010
1000
,
0001
0000
0001
0100
0010
1000
0010
0000
0010
1000
0100
0010
0100
0000
1000
0000
,
0001
0000
1000
0010
1000
0001
0010
0000
0001
0100
0001
1000
0010
0000
1000
0001
,
1000
0000
0010
1000
0001
0010
0100
0000
0100
1000
0001
0100
0010
0000
1000
0000
,
0110
0000
0110
0000
0110
0000
0010
0100
,
0010
0000
1000
0000
0100
0000
0010
0001
0100
0000
0010
0000
1000
0000
0001
0000
,
0100
1000
0100
0010
1000
0001
0100
1000
,
0100
0000
0010
0000
1000
0000
0100
1000
0010
0000
0100
0000
0010
0000
1000
0000
,
0001
0010
0001
1000
0100
0000
0001
1000
,
0110
1010
0110
0101
0000
0000
0000
0000
,
1000
0001
2010
3001
1000
0102
1003
0001
,
2010
3001
1000
0102
1003
0001
1000
0001
,
0010
0000
0010
0000
0100
0000
1000
0010
,
1000
0000
0001
0000
0100
0000
0000
0000
0001
0000
0100
0000
0010
1000
0100
0010
,
0001
1000
0102
1003
0001
2010
3001
1000
,
0102
1003
0001
2010
3001
1000
0001
1000
,
0100
0000
1000
0000
0001
0100
0001
1000
,
0100
0000
0010
0001
0010
0000
0000
0000
,
0010
0100
0021
0130
0010
1200
0310
0100
,
0021
0130
0010
1200
0310
0100
0021
0130
,
1000
0000
0001
0100
0010
0100
0010
1000
,
0100
0000
1000
0000
0010
0000
0100
0000
0001
0000
1000
0000
0001
0010
0100
1000
,
0100
0010
1200
0310
0100
0021
0130
0010
,
1200
0310
0100
0021
0130
0010
1200
0310
,
0001
0000
0001
0000
0100
0000
1000
0001
,
0010
0001
1000
0010
0100
0000
0010
0000
,
1001
1001
0000
0000
,
0000
0000
0000
0000
,
1001
1001
0000
0000
,
0000
0000
0000
0000
0000
0000
0000
0001
0100
0001
0100
0020
0000
0000
0000
0030
0000
0000
0000
0000
0000
0000
0000
0000
,
0100
0010
0100
1000
0001
0000
0100
0010
,
0000
0000
0100
0000
0010
0000
1000
0001
0010
0000
0001
0000
0010
0000
0100
0000
,
0010
0001
1000
0000
0010
0000
0000
0010
,
0001
0000
0010
0000
1000
0000
0001
1000
0001
0000
0100
0000
0010
0000
0100
0000
,
0010
0000
1000
0001
0010
0100
1000
0000
0001
0100
0010
1000
0001
0000
1000
0001
,
1000
0000
0001
0010
0001
0010
0001
0000
1000
0100
1000
0100
1000
0000
0010
0000
,
0100
0100
0001
0100
0100
0000
0010
0010
,
1000
0000
0001
0000
0100
0000
0010
1000
,
0100
0000
0010
0100
0010
0001
0010
0000
0100
1000
0100
0010
0100
0000
1000
0001
,
1000
0000
0010
0100
0010
0001
0010
0000
0100
0001
0100
0010
0100
0000
0001
0000
,
0100
0000
0001
1000
0001
0100
0001
0000
1000
0100
1000
0001
1000
0000
0001
1000
,
0001
0000
1000
0100
1000
0010
1000
0000
0001
0010
0001
0100
0001
0000
0100
0000
,
0001
0000
0010
0000
0001
0000
0010
0000
0001
0000
0010
0000
,
0001
0000
0000
0000
0000
0000
0000
0000
0010
0000
0000
0000
0000
0000
0000
0000
0000
0000
0001
0000
0000
0100
0000
0000
0001
0000
0000
0000
0000
0000
0100
0000
0000
0000
0000
0000
0100
0000
0000
0000
0000
0000
0100
0000
0000
0000
0000
0000
,
0100
0000
0010
0000
1000
0000
0010
0000
1000
0000
0010
0000
,
1000
0000
0000
0000
0000
0000
0000
0000
0010
0000
0000
0000
0000
0000
0000
0000
0000
0000
1000
0000
0000
0001
0000
0000
1000
0000
0000
0000
0000
0000
0100
0000
0000
0000
0000
0000
0100
0000
0000
0000
0000
0000
0100
0000
0000
0000
0000
0000
,
0100
0000
0010
0001
0010
0000
0100
1000
0100
0000
1000
0001
1000
0000
0010
0100
,
0010
0000
0100
0001
0100
0000
0010
1000
0010
0000
1000
0001
1000
0000
0100
0000
,
0010
0000
0100
0000
0010
0000
0001
1000
0100
0000
0010
0000
0010
0000
0100
1000
,
0010
0000
0010
0100
0001
0000
0001
1000
0010
0000
0010
0100
0001
0000
0001
1000
,
0010
0000
0100
0000
0001
1000
0001
0001
,
0100
0000
0010
0000
1000
0000
1000
0001
0010
0000
0001
0000
0100
0000
0100
0000
,
1001
0010
0000
1000
,
1001
0010
0000
0001
,
1001
0010
0000
0010
,
0010
0000
0000
0000
,
1001
0000
0010
0001
1010
0000
0010
0101
,
0000
0100
0001
0100
0000
0001
0010
0100
,
1010
0000
0100
1000
0100
0000
0010
0001
,
0010
0000
0010
0100
0000
1000
0010
0100
,
1001
0000
0001
0100
1010
0000
1001
1001
,
0010
0000
0010
1010
0110
1010
0100
0010
,
1001
1001
0100
0100
0011
0000
1001
1001
,
0020
0000
0000
0000
,
0030
0000
0000
0000
1000
0001
2010
3001
,
1000
0102
1003
0001
2010
3001
1000
0102
,
1003
0001
1000
0001
0010
0000
0010
0000
,
0100
0000
1000
0010
1000
0001
0100
0000
,
0001
0000
0100
0000
0010
1000
0100
0010
0001
0000
1000
0000
0102
0000
1003
0000
,
0001
2010
3001
1000
0102
1003
0001
2010
,
3001
1000
0001
1000
0100
0000
1000
0000
,
0001
0100
0001
1000
0100
0000
0010
0001
,
0010
0000
0000
0000
0010
0100
0021
0130
,
0010
1200
0310
0100
0021
0130
0010
1200
,
0310
0100
0021
0130
1000
0000
0001
0100
,
0010
0100
0010
1000
0100
1000
0010
0100
,
0001
0000
1000
0000
0001
0010
0100
1000
0100
0000
0010
0000
1200
0000
0310
0000
,
0100
0021
0130
0010
1200
0310
0100
0021
,
0130
0010
1200
0310
0001
0000
0001
0000
,
0100
0000
1000
0001
0010
0001
1000
0010
,
0100
0010
1001
1001
,
0000
0000
0000
0000
,
0000
0000
1001
1001
;
