#TITLE:Magnificent Dark Family '05;
#SUBTITLE:Disgaea 2;
#ARTIST:Tenpei Sato;
#TITLETRANSLIT:;
#SUBTITLETRANSLIT:;
#ARTISTTRANSLIT:;
#CREDIT:;
#BANNER:Magnificent Dark Family.PNG;
#BACKGROUND:Magnificent Dark Family-bg.png;
#LYRICSPATH:;
#CDTITLE:kn33growzw9.png;
#MUSIC:Magnificent Dark Family.mp3;
#OFFSET:0.692;
#SAMPLESTART:134.380;
#SAMPLELENGTH:12.000;
#SELECTABLE:YES;
#BPMS:0.000=118.000,2.167=128.000,4.000=134.000,13.000=112.300,16.000=126.000,16.500=131.000,17.000=115.300,17.500=103.000,18.000=95.500,18.500=90.001,19.000=70.001,19.500=69.001,20.500=96.501,22.000=110.002,22.500=111.502,23.000=112.001,23.500=112.502,23.750=125.001,24.000=135.001,216.000=124.501,216.667=125.001,217.333=114.501,218.000=110.001,218.333=100.001,218.667=95.001,219.000=83.001,219.333=75.001,219.667=40.001,220.000=135.002,335.500=134.982;
#STOPS:;
#BGCHANGES:;
// cache tags:
#FIRSTBEAT:2.167;
#LASTBEAT:340.125;
#SONGFILENAME:Songs/VGMP 2/Magnificent Dark Family (Kn33groW)/Magnificent Dark Family.sm;
#HASMUSIC:1;
#HASBANNER:1;
#MUSICLENGTH:175.621;
// end cache tags

//---------------dance-single - ----------------
#NOTES:
     dance-single:
     :
     Hard:
     12:
     1.000,1.000,1.000,1.000,1.000,1041.000,272.000,423.000,0.000,0.000:

0000
0000
0000
0000
0000
0000
0000
0000
0000
0000
0000
0000
0000
1000
0010
0100
0001
1000
0010
0100
0001
1000
0010
0100
,
1001
0000
0001
0000
0001
0000
0000
0000
0001
0000
0000
0000
1020
0030
0020
0030
0020
0030
0200
0300
0200
0300
0200
0300
,
0021
0030
1020
0030
2001
3000
0102
0003
0012
0003
0002
0003
0120
0030
0020
0030
2100
3000
0002
0003
0002
0003
0002
0003
,
0110
0000
0000
0000
0002
0000
0000
0000
0000
0000
0000
0000
0000
0000
0000
0003
,
0020
0000
0000
0030
0000
0000
0200
0000
0000
0300
0000
0000
2000
0000
0000
0000
3000
0000
0020
0000
0000
0000
0000
0030
0200
0000
0000
0000
0300
0000
2000
0000
0000
0000
3000
0000
0002
0000
0000
0000
0003
0000
0120
0000
0000
0000
0000
0000
,
0001
0000
0000
0000
0100
0000
0000
0000
2000
0000
0000
0000
0000
0000
0000
0000
0000
0000
0000
0000
0000
0000
0000
0000
0000
0000
0000
0000
0000
0000
0000
3030
,
0001
0000
0000
0000
0100
0000
1010
0000
0000
0000
0000
0000
1001
0000
0000
0000
0011
0000
0000
0000
0001
0010
0100
1000
0001
0010
0100
1000
0001
0010
0100
1000
,
0011
0000
0000
0000
0000
0000
0100
0000
0010
0000
0100
0000
1001
0000
0000
0010
0000
0000
1000
0000
0000
0100
0000
0000
0011
0000
0000
0000
0000
0000
0100
0000
0010
0000
0100
0000
1001
0000
0000
0010
0000
0000
1000
0000
0000
0100
0000
0000
,
0011
0100
0010
1001
0110
0001
1010
0100
0011
0100
0001
1100
0011
1000
0101
0010
,
0101
0000
0000
0000
0000
0000
1000
0000
0001
0000
0100
0000
1010
0000
0000
0001
0000
0000
0100
0000
0000
0010
0000
0000
0101
0000
0000
0000
0000
0000
1000
0000
0001
0000
0100
0000
1010
0000
0000
0001
0000
0000
0100
0000
0000
0010
0000
0000
,
0101
1000
0011
0100
1010
0100
1001
0100
0011
0001
1100
0010
0101
0100
0011
1000
,
0011
0000
0000
0000
0000
0000
0100
0000
0001
0000
1000
0000
0011
0000
0000
0100
0000
0000
0001
0000
0000
1000
0000
0000
0011
0000
0000
0000
0000
0000
0100
0000
0001
0000
1000
0000
0011
0000
0000
0100
0000
0000
0001
0000
0000
1000
0000
0000
,
0101
0010
1000
0101
1010
0100
0011
1000
0110
1000
0100
0011
1100
0010
0100
0001
,
0110
0000
0000
0000
0011
0000
0000
0000
1100
0000
0000
0020
0001
0030
0200
0000
,
0301
1000
0101
0010
1100
0001
0110
1000
0101
0010
1001
0100
1010
0100
0011
0100
,
1010
0100
0011
1000
0101
0010
1001
0100
1010
0100
0001
1000
0101
0010
1000
0001
,
1010
0000
0000
1010
0100
0000
1010
0100
0010
1001
0000
0010
1100
0000
0001
0010
,
0101
0000
0011
0100
1001
0110
0001
0010
0001
0001
0001
0001
1000
1000
1000
1000
,
0102
0000
0000
0000
0000
0000
0000
0000
0000
0000
0000
0000
0013
0000
0000
0000
0000
0000
0000
0000
0000
0000
0000
0000
0200
0000
0000
0000
0302
0000
0000
0000
2003
0000
0000
0000
3020
0000
0000
0000
0030
0000
0000
0000
0000
0000
0000
0000
2000
0000
0000
0000
0000
0000
0000
0000
0000
0000
0000
0000
3001
0000
0000
0000
0000
0000
0000
0000
0000
0000
0000
0000
0020
0000
0000
0000
0000
0000
0000
0000
0000
0000
0000
0000
0030
0000
0000
0000
0000
0000
0000
0000
0000
0000
0000
0000
0200
0000
0000
0000
0000
0000
0302
0000
0000
0000
0000
0000
0023
0000
0000
0000
0000
0000
2030
0000
0000
0000
0000
0000
3200
0000
0000
0000
0000
0000
0000
0000
0000
0000
0000
0000
0000
0000
0000
0000
0000
0000
0000
0000
0000
0000
0000
0000
2300
0000
0000
0000
3002
0000
0000
0000
0023
0000
0000
0000
0230
0000
0000
0000
0300
0000
0000
0000
0000
0000
0000
0000
0021
0000
0000
0000
0000
0000
0000
0000
0000
0000
0000
0000
0030
0000
0000
0000
0000
0000
0000
0000
0000
0000
0000
0000
,
2000
0000
0000
0000
0000
0000
3001
0000
0000
0000
0000
0000
0100
0000
0000
0000
0000
0000
0010
0000
0000
0000
0000
0000
1000
0000
0000
0000
0000
0000
0000
0000
0000
0000
0000
0000
0010
0000
0000
0000
0000
0000
0000
0000
0000
0000
0000
0000
0100
0000
0000
0000
0000
0000
0000
0000
0000
0000
0000
0000
0001
0000
0000
0000
0000
0000
0000
0000
0000
0000
0000
0000
1000
0000
0000
0000
0000
0000
0000
0000
0000
0000
0000
0000
0000
0000
0000
0000
0000
0000
0000
0000
0000
0000
0000
0000
0201
0000
0000
0000
0000
0000
0300
0000
0020
0000
0000
0000
0030
0000
0000
0000
0200
0000
0000
0000
0300
0000
0000
0000
0002
0000
0000
0000
0000
0000
0003
0000
0000
0000
0000
0000
0010
0000
0000
0000
0000
0000
0000
0000
0000
0000
0000
0000
2002
0000
0000
0000
3003
0000
0000
0000
0000
0000
0000
0000
0020
0000
0000
0000
0000
0000
0030
0000
0000
0000
0000
0000
2001
0000
0000
0000
0000
0000
3000
0000
0000
0000
0000
0000
0020
0000
0000
0000
0000
0000
0030
0000
0000
0000
0000
0000
,
0201
0000
0000
0000
0000
0000
2300
3002
0023
0230
0300
0000
0020
0030
0000
0000
0000
0000
0002
0003
0000
0000
0000
0000
0201
0300
0000
0000
0000
0000
2000
3000
0000
0000
0000
0000
0200
0300
0000
0000
0000
0000
0102
0003
0000
0000
0000
0000
,
0002
0000
0000
0000
0003
0000
2000
0000
0000
0000
0000
0000
3020
0000
0000
0000
0000
0000
0230
0000
0000
0000
0000
0000
0302
0000
0000
0000
0000
0000
0000
0000
0000
0000
0000
0000
0100
0000
0000
0000
0000
0000
0000
0000
0000
0000
0000
0000
0023
0000
0000
0000
0000
0000
0000
0000
0000
0000
0000
0000
0000
0000
0000
0000
0000
0000
0000
0000
0000
0000
0000
0000
0230
0000
0000
0000
0300
0000
0000
0000
0000
0000
0000
0000
0001
0000
0000
0000
0000
0000
0000
0000
0000
0000
0000
0000
2020
0000
0000
0000
0030
0000
0000
0000
0000
0000
0000
0000
0000
0000
0000
0000
0000
0000
0000
0000
0000
0000
0000
0000
3002
0000
0000
0000
0000
0000
0000
0000
0000
0000
0000
0000
0010
0000
0000
0000
0000
0000
0000
0000
0000
0000
0000
0000
0003
0000
0000
0000
0000
0000
0000
0000
0000
0000
0000
0000
0100
0000
0000
0000
0000
0000
0000
0000
0000
0000
0000
0000
1001
0000
0000
0000
0000
0000
0000
0000
0000
0000
0000
0000
0000
0000
0000
0000
0000
0000
0000
0000
0000
0000
0000
0000
,
1001
0000
0000
0000
0000
0000
0000
0000
0000
0000
0000
0000
0000
0000
0000
0000
0000
0000
0000
0000
0000
0000
0000
0000
0200
0000
0000
0000
0302
0000
0000
0000
2003
0000
0000
0000
3020
0000
0000
0000
0030
0000
0000
0000
0000
0000
0000
0000
0200
0000
0000
0000
0300
0000
0000
0000
0000
0000
0000
0000
0000
0000
0000
0000
0000
0000
0000
0000
0000
0000
0000
0000
2000
0000
0000
0000
3000
0000
0000
0000
0000
0000
0000
0000
0000
0000
0000
0000
0000
0000
0000
0000
0000
0000
0000
0000
0002
0000
0000
0000
0003
0000
2000
0000
0000
0000
0000
0000
3200
0000
0000
0000
0000
0000
0302
0000
0000
0000
0000
0000
0023
0000
0000
0000
0030
0000
0000
0000
0000
0000
0000
0000
0000
0000
0000
0000
0000
0000
0000
0000
0000
0000
0000
0000
2100
0000
0000
0000
3000
0000
0000
0000
0000
0000
0000
0000
0100
0000
0000
0000
0000
0000
0000
0000
0000
0000
0000
0000
1020
0000
0000
0000
0030
0000
0000
0000
0000
0000
0000
0000
0010
0000
0000
0000
0000
0000
0000
0000
0000
0000
0000
0000
,
0002
0023
0230
1300
0001
0000
0010
0000
0100
0000
1000
0000
0001
0000
0010
0000
0100
0000
1000
0000
0100
0000
0010
0000
2000
3200
0320
0031
1000
0000
0010
0000
0100
0000
0001
0000
0010
0000
0100
0000
1000
0000
0001
0000
1000
0000
0010
0000
,
0202
0303
0000
0020
0030
0000
0200
0300
0000
0100
0000
0000
2002
3003
0000
0200
0300
0000
0020
0030
0000
0010
0000
0000
0202
0303
0000
0020
0030
0000
0002
0003
0000
0001
0000
0000
2020
3030
0000
0002
0003
0000
0200
0300
0000
0100
0000
0000
,
0022
0000
0000
0000
0033
0000
0000
0000
0000
0000
0000
0000
0000
0000
0000
0000
0000
0000
0000
0000
0000
0000
0000
0000
0000
0000
0000
0000
0000
0000
0000
0000
0000
0000
0000
0000
0000
0000
0000
0000
0000
0000
0000
0000
0000
0000
0000
0000
0000
0000
0000
0000
0000
0000
0000
0000
0000
0000
0000
0000
0020
0000
0000
0000
0030
0000
0200
0000
0000
0300
0000
0000
1000
0000
0000
0000
0000
0000
0000
0000
0000
0000
0000
0000
0000
0000
0000
0000
0000
0000
0000
0000
0000
0000
0000
0000
0011
0000
0000
0000
0000
0000
0000
0000
0000
0000
0000
0000
0000
0000
0000
0000
0000
0000
0000
0000
0000
0000
0000
0000
0020
0000
0000
0000
0000
0000
0000
0000
0000
0000
0000
0000
0230
0000
0000
0000
0000
0000
0000
0000
0000
0000
0000
0000
0302
0000
0000
0000
0000
0000
1003
0000
0000
0000
0000
0000
0010
0000
0000
0000
0000
0000
0100
0000
0000
0000
0000
0000
0001
0000
0000
0000
0000
0000
1000
0000
0000
0000
0000
0000
0010
0000
0000
0000
0000
0000
0100
0000
0000
0000
0000
0000
,
2002
0000
0000
3003
0000
0000
0100
0000
0000
2010
3000
0000
0000
0000
0000
0100
0000
0000
2002
0000
0000
3003
0000
0000
0110
0000
0000
0001
0000
0000
1020
0000
0000
0130
0000
0000
1002
0000
0000
0013
0000
0000
1200
0000
0000
0001
0000
0000
,
2000
0000
0000
0000
0000
0000
0000
0000
0000
0000
0000
0000
3000
0000
0000
0000
0000
0000
0000
0000
0000
0000
0000
0000
0301
0000
0000
0000
0000
0000
0000
0000
0000
0000
0000
0000
1020
0000
0000
0000
0030
0000
0000
0000
0000
0000
0000
0000
0000
0000
0000
0000
0000
0000
0000
0000
0000
0000
0000
0000
0010
0000
0000
0000
0000
0000
0000
0000
0000
0000
0000
0000
0202
0000
0000
0000
0000
0000
0000
0000
0303
0000
0000
0000
0000
0000
0000
0000
0000
0000
0000
0000
0000
0000
0000
0000
2002
0000
0000
0000
0000
0000
0000
0000
0000
0000
0000
0000
3003
0000
0000
0000
0000
0000
0000
0000
0000
0000
0000
0000
2002
0000
0000
0000
0000
0000
3003
0000
0000
0000
0000
0000
0020
0000
0000
0000
0000
0000
0030
0000
0000
0000
0000
0000
2200
0000
0000
0000
0000
0000
0000
0000
0000
0000
0000
0000
3300
0000
0000
0000
0000
0000
0000
0000
0000
0000
0000
0000
2010
0000
0000
0000
0000
0000
0000
0000
0000
0000
0000
0000
3001
0000
0000
0000
0000
0000
0000
0000
0000
0000
0000
0000
,
2010
0000
0000
0000
0000
0000
0000
0000
0000
0000
0000
0000
0000
0000
0000
0000
0000
0000
0000
0000
0000
0000
0000
0000
3000
0000
0000
0000
0000
0000
0000
0000
0000
0000
0000
0000
2010
0000
0000
0000
0000
0000
0000
0000
0000
0000
0000
0000
0000
0000
0000
0000
0000
0000
0000
0000
0000
0000
0000
0000
3010
0000
0000
0000
0000
0000
0000
0000
0000
0000
0000
0000
0202
0000
0000
0000
0300
0000
0000
0000
0000
0000
0000
0000
0000
0000
0000
0000
0000
0000
0000
0000
0000
0000
0000
0000
0100
0000
0000
0000
0000
0000
0000
0000
0000
0000
0000
0000
0003
0000
0000
0000
0000
0000
0000
0000
0000
0000
0000
0000
2020
0000
0000
0000
0000
0000
0000
0000
0000
0000
0000
0000
3030
0000
0000
0000
0000
0000
0000
0000
0000
0000
0000
0000
0100
0000
0000
0000
0000
0000
0001
0000
0000
0000
0000
0000
1000
0000
0000
0000
0000
0000
0010
0000
0000
0000
0000
0000
0200
0000
0000
0000
0000
0000
0000
0000
0000
0000
0000
0000
0300
0000
0000
0000
0000
0000
0000
0000
0000
0000
0000
0000
,
2000
0000
0000
0000
0000
0000
3002
0000
0000
0000
0000
0000
0203
0000
0000
0000
0000
0000
0310
0000
0000
0000
0000
0000
2000
0000
0000
0000
0000
0000
0000
0000
0000
0000
0000
0000
0000
0000
0000
0000
0000
0000
3000
0000
0000
0000
0000
0000
0001
0000
0000
0000
0000
0000
0000
0000
0000
0000
0000
0000
0001
0000
0000
0000
0000
0000
0000
0000
0000
0000
0000
0000
0001
0000
0000
0000
0000
0000
0000
0000
0000
0000
0000
0000
0001
0000
0000
0000
0000
0000
0000
0000
0000
0000
0000
0000
0001
0000
0000
0000
0000
0000
0010
0000
0000
0000
0000
0000
0100
0000
0000
0000
0000
0000
1000
0000
0000
0000
0000
0000
0001
0000
0000
0000
0000
0000
0010
0000
0000
0000
0000
0000
0100
0000
0000
0000
0000
0000
1000
0000
0000
0000
0000
0000
0002
0000
0000
0000
0003
0000
0000
0000
0000
0000
0000
0000
0000
0000
0000
0000
0000
0000
0000
0000
0000
0000
0000
0000
0000
0000
0000
0000
0000
0000
0000
0000
0000
0000
0000
0000
0000
0000
0000
0000
0000
0000
0000
0000
0000
0000
0000
0000
,
1001
0000
0000
0000
0000
0000
0000
0000
0000
0000
0000
0000
0000
0000
0000
0000
0000
0000
0000
0000
0000
0000
0000
0000
0000
0000
0000
0000
0000
0000
0000
0000
0000
0000
0000
0000
1100
0000
0000
0000
0000
0000
0000
0000
0000
0000
0000
0000
0000
0000
0000
0000
0000
0000
0000
0000
0000
0000
0000
0000
0100
0000
0000
0000
0000
0000
0000
0000
0000
0000
0000
0000
0021
0000
0000
0000
0000
0000
0000
0000
0000
0000
0000
0000
0000
0000
0000
0000
0030
0000
0000
0000
0000
0000
0000
0000
1010
0000
0000
0000
0000
0000
0000
0000
0000
0000
0000
0000
0100
0000
0000
0000
0000
0000
0000
0000
0000
0000
0000
0000
2002
0000
0000
0000
0000
0000
3003
0000
0000
0000
0000
0000
0010
0000
0000
0000
0000
0000
0000
0000
0000
0000
0000
0000
2002
0000
0000
0000
0000
0000
3003
0000
0000
0000
0000
0000
0100
0000
0000
0000
0000
0000
0000
0000
0000
0000
0000
0000
1001
0000
0000
0000
0000
0000
0000
0000
0000
0000
0000
0000
0010
0000
0000
0000
0000
0000
0000
0000
0000
0000
0000
0000
,
1001
0000
0000
0000
0000
0000
0000
0000
0000
0000
0000
0000
0000
0000
0000
0000
0000
0000
0000
0000
0000
0000
0000
0000
2002
0000
0000
0000
0000
0000
3003
0000
0000
0000
0000
0000
0110
0000
0000
0000
0000
0000
0000
0000
0000
0000
0000
0000
2002
0000
0000
0000
0000
0000
3003
0000
0000
0000
0000
0000
0010
0000
0000
0000
0000
0000
0000
0000
0000
0000
0000
0000
0202
0000
0000
0000
0000
0000
0000
0000
0000
0000
0000
0000
0303
0000
0000
0000
0000
0000
0000
0000
0000
0000
0000
0000
0022
0000
0000
0000
0000
0000
0033
0000
0000
0000
0000
0000
0000
0000
0000
0000
0000
0000
0000
0000
0000
0000
0000
0000
0220
0000
0000
0000
0000
0000
0030
0000
0300
0000
0000
0000
0000
0000
0000
0000
0000
0000
0000
0000
0000
0000
0000
0000
0020
0000
0000
0000
0000
0000
0030
0000
0000
0000
0000
0000
0101
0000
0000
0000
0000
0000
0000
0000
0000
0000
0000
0000
0011
0000
0000
0000
0000
0000
0000
0000
0000
0000
0000
0000
0011
0000
0000
0000
0000
0000
0000
0000
0000
0000
0000
0000
,
1200
0000
0000
0000
0000
0000
0000
0000
0000
0000
0000
0000
0000
0000
0000
0000
0000
0000
0000
0000
0000
0000
0000
0000
2300
0000
0000
0000
0000
0000
0000
0000
0000
0000
0000
0000
0000
0000
0000
0000
0000
0000
0000
0000
0000
0000
0000
0000
3010
0000
0000
0000
0000
0000
0000
0000
0000
0000
0000
0000
0000
0000
0000
0000
0000
0000
0000
0000
0000
0000
0000
0000
0002
0000
0000
0000
0000
0000
0000
0000
0000
0000
0000
0000
0000
0000
0000
0000
0003
0000
0200
0000
0000
0000
0000
0000
2300
0000
0000
0000
0000
0000
0000
0000
0000
0000
0000
0000
0000
0000
0000
0000
0000
0000
0000
0000
0000
0000
0000
0000
0001
0000
0000
0000
0000
0000
0000
0000
0000
0000
0000
0000
0010
0000
0000
0000
0000
0000
0000
0000
0000
0000
0000
0000
0010
0000
0000
0000
0000
0000
0000
0000
0000
0000
0000
0000
0100
0000
0000
0000
0000
0000
0000
0000
0000
0000
0000
0000
0100
0000
0000
0000
0000
0000
0000
0000
0000
0000
0000
0000
0010
0000
0000
0000
0000
0000
0000
0000
0000
0000
0000
0000
,
3002
0000
0100
0000
0013
0000
2000
3000
0200
0000
0000
0000
0302
0000
0000
0000
2003
0000
0000
0000
3020
0100
1000
0000
0230
0000
0000
0300
0011
0000
0011
0000
,
0011
0000
0000
1100
0000
0000
0011
0000
0000
0000
0000
0000
0020
0000
0000
0030
0000
0000
1001
0000
0000
0000
0000
0000
0100
0000
0000
0100
0000
0000
1001
0000
0100
0000
0010
0000
0101
0000
0000
0000
0000
0000
1001
0000
0000
1010
0000
0000
,
1001
0000
2000
3000
0200
0300
0020
0030
1002
0003
0200
0300
0002
0003
0200
0300
,
1010
0000
0001
0000
1100
0000
0010
0000
0101
0000
1010
0000
0011
0100
1000
0010
1100
0001
0010
0100
1001
0100
0010
0001
,
1100
0000
0000
0000
2000
0000
3000
0000
0200
0000
0300
0000
0020
0000
0030
0000
1002
0000
0000
0000
0000
0000
0000
0000
1003
0100
0010
0001
1000
0100
0010
0001
,
1000
0010
0100
0010
1001
0110
0001
0010
0100
0010
0101
1000
0101
0010
0100
1000
,
0101
0010
1001
0010
0101
1010
0100
0010
0002
0000
0000
0000
0000
0000
0003
0000
,
0002
0000
0000
0003
2000
0000
3000
0000
0200
0300
0020
0030
0200
0000
0000
0000
0000
0000
0000
0000
0000
0000
0000
0000
,
0020
0000
0300
0000
0001
0000
0000
0000
1000
0000
0000
0000
0100
0000
0000
0000
2000
0000
0000
0000
0000
0000
0000
0000
0000
0000
0000
0030
0002
0003
3020
0030
,
0201
0000
0000
0000
0000
0000
0000
0000
0000
0000
0000
0000
0000
0000
0000
0000
0000
0000
0000
0000
0000
0000
0000
0000
0010
0000
0000
0000
0000
0000
0000
0000
0001
0000
0000
0000
0000
0000
0000
0000
1000
0000
0000
0000
0000
0000
0000
0000
0010
0000
0000
0000
0000
0000
0000
0000
0000
0000
0000
0000
0300
0000
0000
0000
0000
0000
0000
0000
0000
0000
0000
0000
0002
0000
0000
0000
0000
0000
0003
0000
0000
0000
0000
0000
0020
0000
0000
0000
0000
0000
0030
0000
0000
0000
0000
0000
2100
0000
0000
0000
0000
0000
0000
0000
0000
0000
0000
0000
0000
0000
0000
0000
0000
0000
0000
0000
0000
0000
0000
0000
0001
0000
0000
0000
0000
0000
0000
0000
0010
0000
0000
0000
0000
0000
0000
0000
0100
0000
0000
0000
0000
0000
0000
0000
0001
0000
0000
0000
0000
0000
0000
0000
0000
0000
0000
0000
3000
0000
0000
0000
0000
0000
0000
0000
0000
0000
0000
0000
2000
0000
0000
0000
3000
0000
0000
0000
0000
0000
0000
0000
0020
0000
0000
0000
0000
0000
0030
0000
0000
0000
0000
0000
,
0201
0000
0000
0000
0000
0000
0000
0000
0000
0000
0000
0000
0000
0000
0000
0000
0000
0000
0000
0000
0000
0000
0000
0000
0302
0000
0000
0000
0000
0000
0003
0000
0000
0000
0000
0000
0020
0000
0000
0000
0030
0000
0000
0000
0000
0000
0000
0000
2001
0000
0000
0000
0000
0000
0000
0000
0000
0000
0000
0000
0000
0000
0000
0000
0000
0000
0000
0000
0000
0000
0000
0000
3000
0000
0000
0000
0000
0000
0000
0000
0000
0000
0000
0000
0000
0000
0000
0000
0000
0000
0000
0000
0000
0000
0000
0000
0011
0000
0000
0000
0000
0000
0000
0000
0000
0000
0000
0000
0011
0000
0000
0000
0000
0000
0000
0000
0000
0000
0000
0000
1100
0000
0000
0000
0000
0000
0000
0000
0000
0000
0000
0000
0000
0000
0000
0000
0000
0000
0000
0000
0000
0000
0000
0000
0011
0000
0000
0000
0000
0000
0000
0000
0000
0000
0000
0000
0011
0000
0000
0000
0000
0000
0000
0000
0000
0000
0000
0000
1100
0000
0000
0000
0000
0000
0000
0000
0000
0000
0000
0000
0000
0000
0000
0000
0000
0000
0000
0000
0000
0000
0000
0000
,
0002
0000
0000
0000
0000
0000
0000
0000
0000
0000
0000
0000
0000
0000
0000
0000
0000
0000
0003
0000
0000
0000
0000
0000
0000
0000
0000
0000
2000
0000
0000
0000
0000
0000
0000
0000
0000
0000
0000
0000
3000
0000
0000
0000
0000
0000
0000
0000
0000
0000
0000
0000
0000
0000
0000
0000
0200
0000
0000
0000
0000
0000
0000
0000
0000
0000
0000
0000
0000
0000
0000
0000
0300
0000
0000
0000
0000
0000
0000
0000
0002
0000
0000
0000
0000
0000
0000
0000
0000
0000
0000
0000
0000
0000
0000
0000
0203
0000
0000
0000
0000
0000
0000
0000
0000
0000
0000
0000
0000
0000
0000
0000
0000
0000
0000
0000
0000
0000
0000
0000
0000
0000
0000
0000
0000
0000
0000
0000
0000
0000
0000
0000
0000
0000
0000
0000
0000
0000
0000
0000
0000
0000
0000
0000
0000
0000
0000
0000
0000
0000
0000
0000
0000
0000
0000
0000
0000
0000
0000
0000
0000
0000
0000
0000
0000
0000
0000
0000
0000
0000
0000
0000
0000
0000
0000
0000
0000
0000
0000
0000
0000
0000
0000
0000
0000
0000
0300
0000
0000
0000
0000
0000
,
0000
0000
0000
0000
2000
0000
3000
0000
0200
0000
0300
0000
1020
0000
1030
0000
1002
0000
0000
0000
0000
0000
1000
0000
0000
0000
0003
0000
1002
0003
0020
0030
,
0200
0000
0000
0300
2000
0000
3000
0000
0200
0000
0000
0000
0000
0000
0000
0000
0000
0000
0000
0000
0000
0000
0000
0000
0000
0000
0000
0000
0300
0000
0200
0000
0000
0300
0000
0000
0020
0000
0000
0030
0000
0000
0002
0000
0000
0003
0000
0000
,
0001
1000
0100
0010
1002
1000
1000
0003
1001
1001
0100
0100
1001
1001
0100
0100
,
2100
0000
0002
0003
0002
3003
0210
0300
0200
0300
2002
3000
2000
3000
0020
0033
,
2010
0000
0002
0003
3002
0003
1020
0030
0020
0030
0202
0300
0020
0033
2000
3000
,
0110
0000
0000
0000
0000
0000
0002
0003
0000
0000
0000
0000
0202
0303
0000
0000
0000
0000
2000
3000
0000
0000
0000
0000
2001
3000
0000
0000
0000
0000
0020
0030
0000
0000
0000
0000
0202
0303
0000
0000
0000
0000
2000
3000
0000
0000
0000
0000
,
1001
0000
1000
0000
0001
0000
0010
0000
0100
0000
1000
0000
,
0010
0000
1000
0000
0001
0000
0010
0000
0100
0000
0001
0001
,
2002
0000
0000
3003
0000
0000
0000
0000
0001
0000
0000
0000
0000
0000
0000
0000
1000
0000
0000
0000
0000
0000
0000
0000
0010
0000
0000
0000
0000
0000
0000
0000
0100
0000
0000
0000
0000
0000
0000
0000
0010
0000
0000
0000
0000
0000
0000
0000
,
1001
0000
1010
0000
0101
0000
1010
0100
1001
0001
0110
0001
,
2000
0000
0000
0000
0000
0000
0000
0000
0000
0000
3000
0000
0200
0300
0020
0030
0002
0000
0000
0000
0000
0000
0000
0000
0000
0000
0003
0000
0020
0030
0200
0300
,
2000
0000
3000
0000
0200
0300
0020
0030
0002
0000
0000
0000
0010
0000
0000
0003
0010
0000
0000
0000
0002
0000
0013
0000
2000
0000
3000
0000
0210
0000
0300
0000
,
0020
0000
0000
0000
0000
0000
0000
0000
0000
0000
0030
0000
2000
3000
0200
0300
0002
0000
0000
0000
0000
0000
0000
0000
0000
0000
0003
0000
2000
3000
0200
0300
,
0020
0000
0030
0000
2000
3000
0200
0300
0002
0000
0000
0000
0000
0000
0000
0000
0010
0000
0010
0000
1000
0000
0003
0000
0010
0000
0010
0000
0000
0000
0000
0000
,
0020
0000
0000
0000
0000
0000
0000
0000
0000
0000
0030
0000
0020
0030
0200
0300
2000
0000
0000
0000
0000
0000
0000
0000
0000
0000
3000
0000
2000
3000
0200
0300
,
0020
0000
0030
0000
0020
0030
0200
0300
2000
0000
0000
0000
0100
0000
0000
3000
0100
0000
0000
0000
2000
0000
3100
0000
0002
0000
0003
0000
0120
0000
0030
0000
,
2000
0000
0000
0000
0000
0000
0000
0000
0000
0000
3000
0000
0200
0300
0020
0030
0002
0000
0000
0000
0010
0000
0000
0000
0100
0000
0003
0000
1020
0030
0200
0300
,
2000
0000
0000
0000
0000
0000
0000
0000
0000
0000
0000
0000
3000
0000
0000
0000
0000
0000
0000
0000
0000
0000
0000
0000
0200
0000
0000
0000
0000
0000
0300
0000
0001
0000
0000
0000
0020
0000
0000
0000
0000
0000
0030
0000
0000
0000
0000
0000
0002
0000
0000
0000
0000
0000
0000
0000
0000
0000
0000
0000
0000
0000
0000
0000
0010
0000
0000
0000
0000
0000
0000
0000
0000
0000
0000
0000
0000
0000
0000
0000
0000
0000
0000
0000
0000
0000
0000
0000
0000
0000
0000
0000
0000
0000
0000
0000
0100
0000
0000
0000
0000
0000
0000
0000
0000
0000
0000
0000
0000
0000
0000
0000
0000
0000
0000
0000
0000
0000
0000
0000
0000
0000
0000
0000
0000
0000
0000
0000
1000
0000
0000
0000
0003
0000
0000
0000
0000
0000
0000
0000
0000
0000
0000
0000
0000
0000
0000
0000
0000
0000
0000
0000
0000
0000
0000
0000
0000
0000
0000
0000
0000
0000
0000
0000
0000
0000
0000
0000
0100
0000
0000
0000
0000
0000
0000
0000
0000
0000
0000
0000
0000
0000
0000
0000
0000
0000
0000
0000
0000
0000
0000
0000
,
1010
0000
0000
0000
0000
0000
0001
0000
0010
0000
0100
0000
0011
0000
0000
0100
0000
0000
1000
0000
0000
0100
0000
0000
1010
0000
0000
0000
0000
0000
0001
0000
0010
0000
0100
0000
0011
0000
0000
0100
0000
0000
1000
0000
0000
0100
0000
0000
,
0011
1000
0010
1100
0011
0100
1010
0001
1010
0100
0001
1010
0101
0010
0101
1000
,
0110
0000
0000
0000
0000
0000
0010
0000
1000
0000
0100
0000
0011
0000
0000
1000
0000
0000
0010
0000
0000
1000
0000
0000
0110
0000
0000
0000
0000
0000
0010
0000
1000
0000
0100
0000
0011
0000
0000
1000
0000
0000
0010
0000
0000
1000
0000
0000
,
0101
0010
1100
0001
1010
0100
0011
1000
0101
0100
0011
1000
0011
0010
1001
0100
,
1010
0000
0000
0000
0000
0000
0001
0000
0010
0000
0100
0000
0011
0000
0000
0100
0000
0000
1000
0000
0000
0100
0000
0000
1010
0000
0000
0000
0000
0000
0001
0000
0010
0000
0100
0000
0011
0000
0000
0100
0000
0000
1000
0000
0000
0100
0000
0000
,
0011
1000
0010
1100
0011
0100
1010
0001
1010
0100
0001
1010
0101
0010
0101
1000
,
0020
0000
0000
0000
0000
0000
0000
0000
0000
0000
0000
0000
0000
0000
0000
0000
0000
0000
0000
0000
0000
0000
0000
0000
0030
0000
0000
0000
0000
2000
0000
0000
0000
0000
0000
0000
3000
0000
0000
0200
0000
0300
0000
0020
0000
0030
0000
0000
,
0200
0000
0000
0000
0000
0000
0001
0001
0301
0000
2000
3001
0200
0300
0021
0030
,
0002
0000
0000
0000
0003
0000
0200
0000
0000
0000
0000
0300
0020
0000
0000
0030
,
0001
0010
2000
3000
0011
0100
0100
0000
0101
0101
1000
1000
0101
0101
1000
1000
,
0001
0000
0000
1000
0000
0000
0100
0000
0000
0010
0000
0000
1001
0000
0000
1000
0000
0000
0200
0300
0000
1000
0000
0000
0001
0000
0000
1000
0000
0000
0200
0300
0000
0010
0000
0000
1001
0000
0000
1000
0000
0000
0200
0300
0000
1000
0000
0000
,
0001
0000
0000
1000
0000
0000
0200
0300
0000
0010
0000
0000
1001
0000
0000
1000
0000
0000
0200
0300
0000
1000
0000
0000
0001
0000
0000
1000
0000
0000
0200
0300
0000
0010
0000
0000
1001
0000
0000
1000
0000
0000
0200
0300
0000
1000
0000
0000
,
0202
0000
0000
0000
0000
0000
0303
0000
0202
0000
0000
0000
0000
0000
0303
0000
0001
0010
0100
1000
0001
0010
0100
1000
0001
0010
0100
1000
0001
0010
0100
1000
,
0011
0000
0000
0000
0011
0000
0000
0000
0011
0000
0000
0000
0011
0000
0000
0000
0000
0000
0100
0000
0001
0000
0100
0000
0001
0000
0000
0000
0000
0000
2002
0000
0000
3003
0000
0000
2020
0000
0000
3030
0000
0000
2200
0000
0000
3300
0000
0000
,
1002
0000
0000
0000
0000
0000
0003
0000
0000
0000
0000
0000
0000
0000
0000
0000
1000
0000
0000
0000
0000
0000
0000
0000
0200
0000
0000
0000
0302
0000
0000
0000
2003
0000
0000
0000
3020
0000
0000
0000
0030
0000
0000
0000
0000
0000
0000
0000
2000
0000
0000
0000
0000
0000
0000
0000
0000
0000
0000
0000
3000
0000
0000
0000
0000
0000
0000
0000
0000
0000
0000
0000
0020
0000
0000
0000
0000
0000
0000
0000
0000
0000
0000
0000
0030
0000
0000
0000
0000
0000
0000
0000
0000
0000
0000
0000
0200
0000
0000
0000
0000
0000
0302
0000
0000
0000
0000
0000
0023
0000
0000
0000
0000
0000
0000
0000
0000
0000
0000
0000
0230
0000
0000
0000
0000
0000
0300
0000
0000
0000
0000
0000
0200
0000
0000
0000
0300
0000
0000
0000
0000
0000
0000
0000
0020
0000
0000
0000
0030
0000
0000
0000
0000
0000
0000
0000
0002
0000
0000
0000
0003
0000
0000
0000
0000
0000
0000
0000
0020
0000
0000
0000
0030
0000
0000
0000
0000
0000
0000
0000
0200
0000
0000
0000
0300
0000
0000
0000
0000
0000
0000
0000
,
2020
0000
0000
3030
0000
0000
1000
0000
0000
2020
0000
0000
3030
0000
0000
1000
0000
0000
2020
0000
0000
3030
0000
0000
2000
3200
0320
0030
0000
0000
2020
0000
0000
3030
0000
0000
0100
0000
0001
0000
0100
0000
0001
0000
0010
0000
1000
0000
,
0201
0000
0000
0000
0000
0000
2300
3002
0023
0230
0300
0000
0020
0030
0000
0000
0000
0000
0002
0003
0000
0000
0000
0000
0201
0300
0000
0000
0000
0000
2000
3000
0000
0000
0000
0000
0200
0300
0000
0000
0000
0000
0102
0003
0000
0000
0000
0000
,
0002
0000
0000
0000
0003
0000
2000
0000
0000
0000
0000
0000
3020
0000
0000
0000
0000
0000
0230
0000
0000
0000
0000
0000
0302
0000
0000
0000
0000
0000
0000
0000
0000
0000
0000
0000
0100
0000
0000
0000
0000
0000
0000
0000
0000
0000
0000
0000
0023
0000
0000
0000
0000
0000
0000
0000
0000
0000
0000
0000
0000
0000
0000
0000
0000
0000
0000
0000
0000
0000
0000
0000
0230
0000
0000
0000
0300
0000
0000
0000
0000
0000
0000
0000
0001
0000
0000
0000
0000
0000
0000
0000
0000
0000
0000
0000
2020
0000
0000
0000
0030
0000
0000
0000
0000
0000
0000
0000
0000
0000
0000
0000
0000
0000
0000
0000
0000
0000
0000
0000
3002
0000
0000
0000
0000
0000
0000
0000
0000
0000
0000
0000
0010
0000
0000
0000
0000
0000
0000
0000
0000
0000
0000
0000
0003
0000
0000
0000
0000
0000
0000
0000
0000
0000
0000
0000
0100
0000
0000
0000
0000
0000
0000
0000
0000
0000
0000
0000
1001
0000
0000
0000
0000
0000
0000
0000
0000
0000
0000
0000
0000
0000
0000
0000
0000
0000
0000
0000
0000
0000
0000
0000
,
1001
0000
0000
0000
0000
0000
0000
0000
0000
0000
0000
0000
0000
0000
0000
0000
0000
0000
0000
0000
0000
0000
0000
0000
0200
0000
0000
0000
0302
0000
0000
0000
2003
0000
0000
0000
3020
0000
0000
0000
0030
0000
0000
0000
0000
0000
0000
0000
0200
0000
0000
0000
0300
0000
0000
0000
0000
0000
0000
0000
0000
0000
0000
0000
0000
0000
0000
0000
0000
0000
0000
0000
2000
0000
0000
0000
3000
0000
0000
0000
0000
0000
0000
0000
0000
0000
0000
0000
0000
0000
0000
0000
0000
0000
0000
0000
0002
0000
0000
0000
0003
0000
2000
0000
0000
0000
0000
0000
3200
0000
0000
0000
0000
0000
0302
0000
0000
0000
0000
0000
0023
0000
0000
0000
0030
0000
0000
0000
0000
0000
0000
0000
0000
0000
0000
0000
0000
0000
0000
0000
0000
0000
0000
0000
2100
0000
0000
0000
3000
0000
0000
0000
0000
0000
0000
0000
0100
0000
0000
0000
0000
0000
0000
0000
0000
0000
0000
0000
1020
0000
0000
0000
0030
0000
0000
0000
0000
0000
0000
0000
0010
0000
0000
0000
0000
0000
0000
0000
0000
0000
0000
0000
,
0002
0023
0230
1300
0001
0000
0010
0000
0100
0000
1000
0000
0001
0000
0010
0000
0100
0000
1000
0000
0100
0000
0010
0000
2000
3200
0320
0031
1000
0000
0010
0000
0100
0000
0001
0000
0010
0000
0100
0000
1000
0000
0001
0000
1000
0000
0010
0000
,
0202
0303
0000
0020
0030
0000
0200
0300
0000
0100
0000
0000
2002
3003
0000
0200
0300
0000
0020
0030
0000
0010
0000
0000
0202
0303
0000
0020
0030
0000
0002
0003
0000
0001
0000
0000
2020
3030
0000
0002
0003
0000
0200
0300
0000
0100
0000
0000
,
0022
0000
0000
0000
0033
0000
0000
0000
0000
0000
0000
0000
0000
0000
0000
0000
0000
0000
0000
0000
0000
0000
0000
0000
0000
0000
0000
0000
0000
0000
0000
0000
0000
0000
0000
0000
0000
0000
0000
0000
0000
0000
0000
0000
0000
0000
0000
0000
1001
0000
0000
0000
0000
0000
0000
0000
0000
0000
0000
0000
0000
0000
0000
0000
0000
0000
0000
0000
0000
0000
0000
0000
0200
0000
0000
0000
0300
0000
0000
0000
0000
0000
0000
0000
0000
0000
0000
0000
0000
0000
0000
0000
0000
0000
0000
0000
0012
0000
0000
0000
0000
0000
0100
0000
0000
0000
0000
0000
1000
0000
0000
0000
0000
0000
0010
0000
0000
0000
0000
0000
0100
0000
0000
0000
0000
0000
1000
0000
0000
0000
0000
0000
0010
0000
0000
0000
0000
0000
0100
0000
0000
0000
0000
0000
1000
0000
0000
0000
0000
0000
0000
0000
0000
0000
0000
0000
0000
0000
0000
0000
0000
0000
0000
0000
0000
0000
0000
0000
0000
0000
0000
0000
0000
0000
0000
0000
0000
0000
0000
0000
0003
0000
0000
0000
0000
0000
0000
0000
0000
0000
0000
0000
,
2020
3030
0000
0000
0000
0000
0000
0000
0000
0000
0000
0000
0000
0000
0000
0000
0000
0000
0000
0000
0000
0000
0000
0000
0000
0000
0000
0000
0000
0000
0000
0000
;
