#TITLE:So Fabulous!!;
#SUBTITLE:;
#ARTIST:HHH (Ryu* & Dai);
#TITLETRANSLIT:;
#SUBTITLETRANSLIT:;
#ARTISTTRANSLIT:;
#CREDIT:;
#BANNER:SoFabulous-bn.png;
#BACKGROUND:SoFabulous-bg.png;
#LYRICSPATH:;
#CDTITLE:Type MARS.png;
#MUSIC:So Fabulous!!.mp3;
#OFFSET:1.156;
#SAMPLESTART:42.341;
#SAMPLELENGTH:12.900;
#SELECTABLE:YES;
#BPMS:0.000=149.010,169.000=37.250,173.000=149.010;
#STOPS:52.000=1.220
,204.000=0.200
,205.500=0.200
,207.000=0.200
,209.500=0.200
;
#BGCHANGES:-0.550=So Fabulous!!.avi=1.000=1=1=0,
99999=-nosongbg-=1.000=0=0=0 // don't automatically add -songbackground-
;
// cache tags:
#FIRSTBEAT:4.000;
#LASTBEAT:275.000;
#SONGFILENAME:Songs/Definitive Keyboard Megapack/So Fabulous!!(typeMARS)/So Fabulous!!.sm;
#HASMUSIC:1;
#HASBANNER:1;
#MUSICLENGTH:119.204;
// end cache tags

//---------------dance-single - ----------------
#NOTES:
     dance-single:
     :
     Challenge:
     11:
     1.000,1.000,1.000,0.898,0.965,653.000,164.000,107.000,2.000,2.000:
0000
0000
0000
0000
,
2001
0000
0010
0000
3001
0000
0120
0000
0031
0020
1000
0030
0120
0000
1030
0000
,
1010
0000
0100
0010
1000
0010
0100
0000
0101
0000
1002
0000
0123
0000
1000
0030
,
2001
0000
0100
0000
3001
0000
0120
0000
1030
0020
0001
0030
0120
0000
0031
0000
,
1010
0000
0000
0000
0000
0000
0010
0000
0000
0100
0000
0000
0001
0000
0000
0000
0000
0000
0001
0000
0000
0010
0000
0000
0001
0000
0000
0000
0010
0000
0000
0000
0100
0000
0000
0000
2001
0000
0000
0000
0000
0000
3000
0000
0000
0000
0000
0000
,
0101
0010
0000
0010
1000
0010
0100
0000
0101
0000
0100
1000
0010
2000
3000
2000
,
3100
0000
0002
0003
1020
0030
0200
0000
0010
0000
2300
0000
3002
0000
0000
0000
,
1003
0100
0000
0100
0001
0100
0010
0000
0110
0000
0010
0001
1000
0002
0003
0002
,
0103
0000
0000
0000
0000
0000
0020
0000
0000
0030
0000
0000
0201
0000
0000
0300
0000
0000
2000
0000
0000
3000
0000
0000
0100
0000
0000
0000
0010
0000
0000
0000
0001
0000
0000
0000
0210
0000
0000
0000
0000
0000
0000
0000
0000
0000
0000
0000
,
0310
1000
0000
1000
0100
1000
0001
0000
0011
0000
0001
0010
1000
0200
0300
2000
,
3001
0000
0020
0030
1200
0300
0002
0000
0100
0000
0023
0000
0230
0000
0000
0000
,
2300
3010
0000
0010
0001
0010
0100
0000
1100
0000
0100
0001
0010
0001
0000
0002
,
0103
0000
0000
0000
0000
0000
0010
0000
0000
0000
0000
0000
0201
0000
0000
0300
0000
0000
1000
0000
0000
0000
0000
0000
0010
0000
0000
0000
0100
0000
0000
0000
0011
0000
0000
0000
2100
0000
0000
0000
0000
0000
0000
0000
3000
0000
0000
0000
,
2002
3003
0000
0000
0000
0000
0000
0000
0000
0000
0000
0000
0000
0000
0000
0000
0001
0000
0000
0000
1000
0000
0000
0000
0000
0000
0000
0000
0001
0000
0000
0000
0000
0000
0000
0000
1000
0000
0000
0000
0100
0000
0000
0000
0000
0000
0000
0000
0010
0000
0000
0000
0000
0000
0000
0000
0001
0000
0000
0000
0100
0000
0000
0000
,
0000
0010
0000
1000
0000
0000
0010
0000
0100
0000
0002
0000
0000
0000
0000
0000
,
0100
0000
0003
0000
0010
0100
0000
0010
0000
0100
0001
0000
0010
0000
0100
1000
,
0000
0010
0000
0100
0000
0000
0001
0000
0010
0000
0200
0000
0000
0000
2300
3000
,
0012
0000
0000
0000
0103
0010
0000
0100
0000
0010
1000
0000
0100
0000
0010
0001
,
0000
0100
0000
0010
0000
1000
0001
0000
0010
0100
0010
0002
0000
0013
1000
0010
,
0100
0001
0010
1000
0100
1000
0000
0001
0000
1000
0100
0000
0010
0000
0001
0010
,
0000
0000
0000
0100
0000
0000
0000
0000
0000
1000
0000
0000
0000
0000
0000
0100
0000
0000
0010
0000
0000
0000
0000
0000
0100
0000
0000
0000
0000
0000
0002
0000
0000
0000
0000
0000
1003
0000
0000
0000
0010
0000
0000
0000
0100
0000
0000
0000
,
1001
0000
0000
0000
0000
0000
0000
0000
0000
0000
0000
0000
2001
0000
0000
3000
0000
0000
0001
0000
0000
0000
0000
0000
0010
0000
0000
0000
0000
0000
0200
0000
0000
0000
0000
0000
1300
0000
0000
0000
0001
0000
0000
0000
0100
0000
0000
0000
,
1010
0000
0000
0000
2001
3000
0001
0000
0010
0000
0200
0300
2010
3000
0001
0000
,
0010
0000
0000
0000
0000
0000
0200
0000
0000
0300
0000
0000
2010
0000
0000
3001
0000
0000
0010
0000
0000
0100
0000
0000
2010
0000
0000
3001
0000
0000
0010
0000
0000
0100
0000
0000
1000
0000
0000
0000
0001
0000
0000
0000
1010
0000
0000
0000
,
0101
0000
1001
0000
0100
0010
0000
0100
0000
0010
0001
0000
0010
0000
0100
1000
,
0000
0010
0000
0100
0000
0000
0002
0003
0020
0030
0200
0000
0000
0000
23MM
0000
,
3002
0000
0000
0003
1001
0010
0000
0100
0001
0010
0100
0000
1010
0000
0100
1000
,
0100
2000
3000
0002
0103
0000
0020
0030
1200
0300
2000
0000
0010
0000
0000
0000
,
0010
0000
3000
0000
1001
0100
0000
1000
0010
0100
0010
0000
1100
0000
0010
0001
,
0100
0002
0003
0200
0310
0000
0020
0030
2100
3000
0002
0000
1000
0000
0023
0000
,
0230
0000
0000
0000
0310
0001
0000
0010
0100
0001
0010
0000
1001
0000
0010
0100
,
0001
2000
3000
0002
0103
0010
0100
0000
1001
0010
0100
0002
0010
0003
1000
0000
,
0101
0000
0010
0000
0101
0010
0000
0001
1000
0010
0100
0000
0011
0000
0100
1000
,
0010
0000
0000
0100
0000
0000
0000
0000
0000
2000
0000
0000
3001
0000
0000
0000
0000
0000
0010
0000
0000
0000
0000
0000
1200
0000
0000
0300
0000
0000
0001
0000
0000
0000
0000
0000
1001
0000
0000
0000
0110
0000
0000
0000
1001
0000
0000
0000
,
1002
0000
0000
0000
2013
3000
0100
0010
0000
0010
0100
0000
1001
0000
0001
0100
,
0000
0100
0001
0000
1010
0000
0100
1000
0000
1000
0100
0000
0011
0000
0210
0300
,
0110
0000
1200
0300
1001
0000
0010
0100
0000
0100
0010
0000
2100
3000
0100
0001
,
0000
0001
0100
0000
2100
3000
0010
0001
0000
0001
0010
0000
1200
0300
0201
0300
,
1002
0000
0003
0000
1100
0000
0010
1000
0000
1000
0010
0000
0110
0000
0001
1000
,
0000
1000
0001
0000
0110
0000
0100
1000
0000
1000
0100
0000
1010
0000
0021
0030
,
1100
0000
0201
0300
1001
0000
0010
0100
0000
0100
0010
0000
2010
3000
0100
0001
,
0000
0000
0000
0001
0000
0000
0100
0000
0000
0000
0000
0000
1020
0000
0000
0030
0000
0000
0100
0000
0000
1000
0000
0000
0000
0000
0000
1000
0000
0000
0100
0000
0000
0000
0000
0000
0110
0000
0000
0000
0001
0000
0010
0000
1000
0000
0000
0000
,
0201
0000
0000
0000
0000
0000
0000
0000
0000
0000
0000
0000
0000
0000
0000
0000
0300
0000
0000
0000
0000
0000
0000
0000
0000
0000
0000
0000
0000
0000
0000
0000
0000
0000
0000
0000
0000
0000
0000
0000
0000
0000
0000
0000
0000
0000
0000
0000
2002
0000
0000
0000
0000
0000
0000
0000
0000
0000
0000
0000
0000
0000
0000
0000
0000
0000
0000
0000
0000
0000
0000
0000
0000
0000
0000
0000
0000
0000
0000
0000
0000
0000
0000
0000
0000
0000
0000
0000
0000
0000
0000
0000
0000
0000
0000
0000
0000
0000
0000
0000
0000
0000
0000
0000
0000
0000
0000
0000
3000
0000
0000
0000
0000
0000
0000
0000
0000
0000
0000
0000
0000
0000
0000
0000
0000
0000
0000
0000
0000
0000
0000
0000
0000
0000
0000
0000
0000
0000
0000
0000
0000
0000
0000
0000
0203
0000
0000
0000
0000
0000
2300
0000
0000
0000
0000
0000
0000
0000
0000
0000
0000
0000
3020
0000
0000
0000
0000
0000
0230
0000
0000
0000
0000
0000
0000
0000
0000
0000
0000
0000
0000
0000
0000
0000
0000
0000
0000
0000
0000
0000
0000
0000
,
0000
0000
0000
0000
1300
0000
0100
0010
1001
0010
0100
0000
1000
0000
0001
0100
,
1010
0100
0001
0000
0010
0000
0100
1000
0011
1000
0100
0000
0110
0000
0110
0000
,
0101
0000
1100
0011
1100
0000
0010
0100
1001
0100
0010
0000
0001
0000
0100
0001
,
1010
0001
0100
0000
0010
0000
0010
0001
1100
0001
0010
0000
1100
0000
0101
0000
,
0120
0000
1000
0001
0130
0000
0010
1000
0101
1000
0010
0000
0100
0000
0001
0010
,
1100
0010
0001
0000
0010
0000
0100
1000
0110
1000
0100
0000
1010
0000
0011
0000
,
1001
0000
0101
0000
0100
0000
0010
1000
0001
1000
0010
0000
0100
0000
0001
1000
,
0010
0000
0000
1000
0000
0000
0001
0000
0000
0000
0000
0000
0010
0000
0000
0000
0000
0000
0100
0000
0000
1000
0000
0000
0010
0000
0000
1000
0000
0000
0100
0000
0000
1000
0000
0000
0110
0000
0000
0000
0001
0000
0010
0000
1000
0000
0000
0000
,
0101
0000
0000
1100
0000
0010
1000
0100
0000
0011
0000
0000
0011
0000
0100
0001
1010
0000
0101
0000
0000
1001
0000
0010
,
0000
0000
0101
0000
0000
0000
0010
0000
0000
0000
1001
0000
0000
0000
0110
0000
0000
0000
0120
0000
0030
0000
0000
0000
0200
0000
0000
0000
0000
0000
0000
0000
0000
0000
0300
0000
1001
0000
0000
0000
0000
0000
0100
0000
0000
0010
0000
0000
,
0000
0010
0100
0000
1010
0000
0001
0100
0000
0100
0001
0000
1010
0000
0100
1000
,
0000
1000
0100
0000
0011
0000
0110
0000
0110
0000
1100
0000
1001
0000
0010
0100
,
0000
0100
0010
0000
1010
0000
0100
0001
0000
0001
0100
0000
1100
0000
0010
0001
,
0000
0000
0000
0001
0000
0000
0010
0000
0000
0000
0000
0000
1200
0000
0000
0300
0000
0000
0201
0000
0000
0300
0000
0000
0120
0000
0000
0000
0000
0000
0000
0000
0030
0000
0000
0000
0201
0000
0000
0300
0000
0000
0010
0000
0000
1000
0000
0000
,
0000
1000
0010
0000
0110
0000
0001
1000
0000
1000
0001
0000
1010
0000
0100
0010
,
0000
0010
0100
0000
1001
0000
2010
3000
1100
0000
2001
3000
0101
0000
0010
0100
,
0000
0100
0010
0000
0102
0003
1000
0010
0000
0010
1000
0000
0012
0003
1000
0100
,
0000
0000
0000
0100
0000
0000
1000
0000
0000
0000
0000
0000
0011
0000
0000
0000
0100
0000
0010
0000
0001
0000
0000
0000
2100
0000
0000
0000
0000
0000
0000
0000
3000
0000
0000
0000
1001
0000
0000
0000
0000
0000
0010
0000
0000
0100
0000
0000
,
0000
0100
0010
0000
0101
0000
1000
0010
0000
0010
1000
0000
0101
0000
0010
0001
,
0000
0001
0010
0000
0101
0000
0110
0000
1010
0000
0011
0000
1001
0000
0100
0010
,
0000
0010
0100
0000
0101
0000
0010
1000
0000
1000
0010
0000
0101
0000
0100
1000
,
0000
0000
0000
1000
0000
0000
0100
0000
0000
0000
0000
0000
0011
0000
0000
0000
0000
0000
1010
0000
0000
0000
0000
0000
0210
0000
0000
0000
0000
0000
0000
0000
0300
0000
0000
0000
0110
0000
0000
0000
0000
0000
0100
0000
0000
0001
0000
0000
,
0000
0001
0100
0000
1010
0000
1000
0001
0000
0001
1000
0000
0110
0000
0010
0001
,
0000
0001
0010
0000
0101
0000
1100
0000
1001
0000
1010
0000
0101
0000
0100
0010
,
0000
0010
0100
0000
1001
0000
0010
1000
0000
1000
0010
0000
1100
0000
0010
0001
,
0000
0000
0000
0001
0000
0000
0010
0000
0000
0000
0000
0000
0101
0000
0000
0000
1010
0000
0000
0000
1010
0000
0000
0000
1002
0000
0000
0000
0000
0000
0000
0000
0000
0000
0000
0000
0003
0000
0000
0000
0000
0000
0000
0000
0000
0000
0000
0000
;

//---------------dance-single - ----------------
#NOTES:
     dance-single:
     :
     Hard:
     9:
     0.609,0.606,0.101,0.193,0.617,473.000,12.000,23.000,0.000,0.000:
0000
0000
0000
0000
,
0000
0000
0000
0000
,
0000
0000
0000
0000
,
0000
0000
0000
0000
,
0000
0000
0000
0000
,
0001
0000
0000
0010
0000
0000
0100
0000
0010
0000
0100
0000
0000
1000
0000
1000
,
0100
0001
0010
0100
0000
2000
0002
3003
,
1000
0000
0000
0100
0000
0000
0010
0000
1000
0000
0010
0000
0000
0001
0000
0001
,
0000
0000
0000
0010
0000
0000
0100
0000
0000
1000
0000
0000
0100
0000
0001
0000
0100
0000
0020
0000
0000
0000
0000
0000
,
0130
0000
0000
1000
0000
0000
0001
0000
0010
0000
0001
0000
0000
0100
0000
0100
,
0000
0010
0100
0002
0000
0013
0100
0000
,
1000
0001
0000
0010
0000
0010
0100
0000
1000
0000
0001
0100
0000
0001
0000
0001
,
0100
0000
0000
0010
0000
0000
0100
0000
0000
1000
0000
0000
0010
0000
1000
0000
0010
0000
0100
0000
0000
0000
0000
0000
,
0220
0330
0000
0000
0000
0000
0000
0000
0000
0000
0000
0000
0000
0000
0000
0000
0001
0000
0000
0000
0000
0000
0000
0000
0000
0000
0000
0000
0001
0000
0000
0000
0000
0000
0000
0000
0000
0000
0000
0000
0010
0000
0000
0000
0000
0000
0000
0000
0100
0000
0000
0000
0000
0000
0000
0000
1000
0000
0000
0000
0000
0000
0000
0000
,
0000
0010
0000
1000
0000
0000
0010
0000
0100
0000
0002
0000
0000
0000
0000
0000
,
0000
0000
0003
0000
0010
0000
0000
0010
0000
0000
0001
0000
0010
0000
0100
0000
,
0000
0010
0000
0100
0000
0000
0001
0000
0010
0000
0200
0000
0000
0000
2300
0000
,
3002
0000
0003
0000
0100
0000
0000
0010
0000
0000
1000
0000
0100
0000
0010
0000
,
0000
0100
0000
1000
0000
0000
0001
0000
0010
0100
0000
1000
0000
0010
0100
0000
,
0100
0000
0010
0000
0100
0000
0000
1000
0000
0000
0100
0000
0010
0000
0001
0000
,
0000
0000
0000
0010
0000
0000
0000
0000
0000
0100
0000
0000
0000
0000
0000
0000
0000
0000
0010
0000
0000
0000
0000
0000
0100
0000
0000
0000
0000
0000
1000
0000
0000
0000
0000
0000
0010
0000
0000
0000
0100
0000
0000
0000
0010
0000
0000
0000
,
0100
0000
0000
0000
0000
0000
1001
0000
0000
0001
0000
0000
0010
0000
0000
0000
0000
0000
1000
0000
0010
0000
1000
0000
,
0010
0000
1001
0001
0010
0100
0110
0010
,
0001
0000
0000
0000
0000
0000
0100
0000
0000
0000
0000
0000
1000
0000
0000
0010
0000
0000
1000
0000
0000
0000
0000
0000
1000
0000
0000
0100
0000
0000
1000
0000
0000
0000
0000
0000
0001
0000
0000
0000
0100
0000
0000
0000
0010
0000
0000
0000
,
1000
0000
0001
0000
0100
0000
0000
0100
0000
0000
0001
0000
0010
0000
0100
0000
,
0000
0010
0000
0100
0000
0000
0001
0000
0010
0000
0200
0000
0000
0000
1300
0000
,
0001
0000
0000
0000
0001
0000
0000
0100
0000
0010
0100
0000
1000
0000
0100
0010
,
0000
0001
0000
0100
0000
0000
0010
0000
0100
0000
1000
0000
0010
0000
0000
0000
,
1010
0000
0000
0000
1000
0000
0000
1000
0000
0100
0010
0000
0100
0000
0001
0100
,
0000
0010
0000
1000
0000
0000
0010
0000
1000
0000
0001
0000
0000
0000
0010
0000
,
1010
0000
0000
0000
0010
0000
0000
0100
0000
0100
0010
0000
0001
0000
0010
1000
,
0000
0001
0000
0100
0000
0010
0100
0000
1000
0000
0100
0001
0000
0010
1000
0000
,
0100
0000
0010
0000
0001
0100
0000
0001
0000
0010
0100
0000
0010
0000
0100
1000
,
0000
0000
0000
0100
0000
0000
0000
0000
0000
1000
0000
0000
0001
0000
0000
0000
0000
0000
0010
0000
0000
0000
0000
0000
0100
0000
0000
0000
0000
0000
0001
0000
0000
0000
0000
0000
0010
0000
0000
0000
0100
0000
0000
0000
0001
0000
0000
0000
,
2000
0000
0000
0000
3001
0000
0100
0000
0000
0010
0000
0000
1000
0000
0001
0000
,
0000
0010
0000
0000
0100
0000
1000
0000
0000
0010
0000
0000
0100
0000
0001
0000
,
1000
0000
0010
0000
0100
0000
0000
0001
0000
0000
1000
0000
0100
0000
0000
0010
,
0000
0000
0001
0000
1000
0000
0000
0010
0000
0000
0100
0000
0010
0000
1000
0000
,
0002
0000
0000
0000
0013
0000
0100
0000
0000
0010
0000
0000
1000
0000
0001
0000
,
0000
0010
0000
0000
0100
0000
1000
0000
0000
0010
0000
0000
0100
0000
0001
0000
,
1000
0000
0010
0000
0100
0000
0000
0001
0000
0000
1000
0000
0100
0000
0000
0010
,
0000
0000
0001
0000
1000
0000
0000
0010
0000
0000
0100
0000
0010
0000
1000
0000
,
0202
0303
2002
0000
0000
0000
3003
0000
,
0000
0000
0000
0000
0001
0000
0100
0000
0000
0010
0000
0000
1000
0000
0001
0000
,
0000
0010
0000
0000
0100
0000
1000
0000
0000
0010
0000
0000
0100
0000
0001
0000
,
1000
0000
0010
0000
0100
0000
0000
0001
0000
0000
1000
0000
0100
0000
0000
0010
,
0000
0000
0001
0000
1000
0000
0000
0010
0000
0000
0100
0000
0010
0000
1000
0000
,
0002
0000
0000
0000
0013
0000
0100
0000
0000
0010
0000
0000
1000
0000
0001
0000
,
0000
0010
0000
0000
0100
0000
1000
0000
0000
0010
0000
0000
0100
0000
0001
0000
,
1000
0000
0010
0000
0100
0000
0000
0001
0000
0000
1000
0000
0100
0000
0000
0010
,
0000
0000
0001
0000
1000
0000
0000
0010
0000
0000
0100
0000
0010
0000
1000
0000
,
0100
0010
0001
1000
0010
0100
0001
1000
,
0001
0000
0000
0000
0000
0000
0010
0000
0000
0000
0100
0000
0000
0000
1000
0000
0000
0000
0020
0000
0030
0000
0000
0000
0000
0000
0000
0000
0000
0000
0000
0000
0000
0000
0000
0000
0001
0000
0000
0000
0000
0000
0100
0000
0000
1000
0000
0000
,
0000
0010
0100
0000
1000
0000
0001
1000
0000
0010
1000
0000
0100
0000
1000
0001
,
0000
0010
0001
0000
0100
0000
0001
0000
1000
0000
0010
0000
0100
0000
0010
0001
,
0000
1000
0100
0000
0001
0000
1000
0010
0000
1000
0001
0000
0100
0000
0001
1000
,
0000
1000
0001
0000
0010
0000
1000
0000
1002
0000
0000
0000
0013
0000
0100
1000
,
0000
0010
0100
0000
1000
0000
0001
0100
0000
0010
1000
0000
0100
0000
1000
0100
,
0000
0010
0100
0000
0100
0000
0001
0000
1000
0000
0010
0000
0100
0000
1000
0001
,
0000
0001
1000
0000
0100
0000
0001
0010
0000
0100
0001
0000
1000
0000
0100
0010
,
0000
0010
0100
0000
0010
0000
1000
0000
0120
0000
0000
0000
1030
0000
0100
1000
,
0000
0010
0100
0000
1000
0000
0001
1000
0000
0010
1000
0000
0001
0000
1000
0100
,
0000
0010
0001
0000
0010
0000
1000
0000
0001
0000
0100
0000
1000
0000
0100
0001
,
0000
0001
0100
0000
1000
0000
0100
0010
0000
0001
0100
0000
1000
0000
0100
0010
,
0000
0010
0100
0000
0010
0000
1000
0000
1002
0000
0000
0000
1003
0000
0100
0010
,
0000
0010
0001
0000
1000
0000
0001
0010
0000
0010
0100
0000
1000
0000
1000
0100
,
0000
0010
0100
0000
1000
0000
0001
0000
1000
0000
0010
0000
0100
0000
1000
0001
,
0000
0001
1000
0000
0100
0000
0010
0100
0000
0100
0001
0000
1000
0000
0010
0100
,
0000
0000
0000
0001
0000
0000
1000
0000
0000
0000
0000
0000
0010
0000
0000
0000
1000
0000
0000
0000
0100
0000
0000
0000
0102
0000
0000
0000
0000
0000
0000
0000
0000
0000
0000
0000
0003
0000
0000
0000
0000
0000
0000
0000
0000
0000
0000
0000
;

//---------------dance-single - ----------------
#NOTES:
     dance-single:
     :
     Beginner:
     1:
     0.159,0.172,0.050,0.008,0.000,126.000,6.000,1.000,0.000,0.000:
0000
0000
0000
0000
,
0000
0000
0000
0000
,
0000
0000
0000
0000
,
0000
0000
0000
0000
,
0000
0000
0000
0000
,
0010
0000
1000
0000
,
0100
0000
0000
0000
,
0010
0000
0001
0000
,
0100
0000
0000
0000
,
0010
0000
1000
0000
,
0001
0000
0000
0000
,
0100
0000
1000
0000
,
0010
0000
0100
0000
,
0110
0000
0000
0001
,
0000
0100
0000
0000
,
0000
1000
0000
0010
,
0000
0100
0000
0000
,
0000
0010
0000
1000
,
0000
0001
0000
0100
,
0000
0010
0000
1000
,
0000
0001
0000
0100
,
0000
0110
0000
0000
,
0000
1001
0000
0001
,
0000
1000
0000
1001
,
0000
0100
0000
0010
,
0000
1000
0000
0000
,
0000
0001
0000
0100
,
0000
1000
0000
1000
,
0000
0100
0000
0001
,
0000
0100
0000
0100
,
0000
1000
0000
0010
,
0000
0001
0000
0100
,
0000
1000
0000
0010
,
0000
0100
0000
0001
,
0001
0100
0000
1000
,
0000
0010
0000
0100
,
0100
0001
0000
1000
,
0000
0010
0000
0010
,
0010
1000
0000
0100
,
0000
1000
0000
0010
,
0000
0100
0001
0100
,
0000
1000
0000
0010
,
0010
0200
0000
0300
,
0000
0010
0000
0000
,
0000
0010
0000
0000
,
0000
0100
0000
0000
,
0000
0100
0000
0000
,
0000
0001
0000
0000
,
0000
0001
0000
0000
,
0000
1000
0000
0000
,
0000
1000
0000
1000
,
1000
0000
0000
0100
0000
0000
0010
0000
,
0000
0000
0000
0110
0000
0000
1000
0000
,
0000
0100
0000
1000
,
0000
0010
0010
0100
,
0000
0001
0000
0100
,
0000
0010
0001
0100
,
0000
1000
0000
0001
,
0000
0100
1000
0100
,
0000
0010
0000
0100
,
0000
0001
0001
1000
,
0000
0100
0000
1000
,
0000
0010
0010
0100
,
0000
0001
0000
0100
,
0000
0010
1000
0001
,
0000
0100
0000
0010
,
0000
0100
0001
1000
,
0000
0010
0000
0100
,
0000
0001
1001
0000
;

//---------------dance-single - ----------------
#NOTES:
     dance-single:
     :
     Easy:
     4:
     0.326,0.402,0.193,0.059,0.000,242.000,23.000,7.000,0.000,0.000:
0000
0000
0000
0000
,
0000
0000
0000
0000
,
0000
0000
0000
0000
,
0000
0000
0000
0000
,
0000
0000
0000
0000
,
0010
1000
0100
1000
,
0010
0000
0001
0100
0000
2000
3000
0000
,
0010
0100
0001
1000
,
0010
0000
0100
0001
0000
0200
0300
0000
,
0010
1000
0001
0010
,
0001
0000
0100
0010
0000
2000
3000
0000
,
0001
0100
0010
0100
,
1000
0000
0001
0100
0000
0010
0010
0000
,
0110
0001
0000
0100
,
0000
1000
0100
0010
,
0000
0001
0000
0010
,
0000
1000
0010
0100
,
0001
0100
0000
1000
,
0000
0010
0010
0100
,
0001
1000
0000
0010
,
0000
0100
0000
0001
,
1001
1000
0000
0010
,
0110
0100
0001
1001
,
1000
0110
0010
1001
,
1001
0010
0100
0001
,
1000
0000
0010
0000
0200
0300
0000
0020
,
0030
1000
0001
0100
,
0010
0100
1000
0100
,
0100
0001
0010
1000
,
0100
0010
0001
0100
,
0100
0010
1000
0001
,
0100
0010
0010
1000
,
0001
0100
0001
1000
,
0010
0100
0001
1001
,
1001
0100
0100
1000
,
1000
0010
0010
0100
,
0001
1000
1000
0001
,
0001
0100
0100
0010
,
0110
0100
0100
0001
,
0001
1000
1000
0001
,
0100
0001
0100
1000
,
0100
0001
0100
0010
,
0110
2002
0000
3003
,
0000
0010
0100
1000
,
0100
0001
1000
0001
,
1001
0010
0001
0100
,
1000
0001
0100
1000
,
1001
0010
0001
0100
,
0010
1000
0100
0001
,
1001
0100
0100
1000
,
1000
0001
0001
0100
,
0110
0001
0000
1001
0100
0000
0110
1000
,
0000
0001
0000
1001
0000
0000
0010
0000
,
0100
0001
1000
0010
,
0010
0100
0100
0001
,
1000
0010
0100
0001
,
0001
0100
0100
0010
,
1000
0100
0001
0010
,
0010
0100
0100
1000
,
0010
0001
0100
1000
,
1000
0001
1001
0010
,
0100
0001
0100
0010
,
1000
0001
0100
0010
,
0100
0001
1000
0100
,
1000
0010
0110
0100
,
0001
0100
1000
0010
,
1000
0010
0001
0100
,
0001
0100
0010
1000
,
0001
1001
1001
0000
;

//---------------dance-single - ----------------
#NOTES:
     dance-single:
     :
     Medium:
     6:
     0.434,0.460,0.193,0.017,0.197,337.000,23.000,2.000,0.000,0.000:
0000
0000
0000
0000
,
0000
0000
0000
0000
,
0000
0000
0000
0000
,
0000
0000
0000
0000
,
0000
0000
0000
0000
,
0010
1000
0100
0001
,
0100
0010
0100
0010
0000
1000
0100
0000
,
0001
0100
0010
1000
,
0001
0100
0001
0100
0000
0010
1000
0000
,
0100
0001
1000
0010
,
1000
0001
1000
0001
0000
0100
0001
0000
,
0010
0100
0001
1000
,
0010
0000
0100
0000
0001
1000
0001
0000
,
1001
0010
0100
0001
,
0100
0000
0010
0000
1000
0100
0000
0000
,
0010
0100
0001
0100
,
0010
0000
0100
0000
1000
0001
0000
0100
,
0010
1000
0100
0010
,
0001
0000
0100
0000
0010
1000
0000
0100
,
1000
0100
0010
0000
0100
0000
0001
0000
,
0100
1000
0010
0110
,
0110
0001
1000
1001
,
1001
0101
1000
1100
,
0010
0011
1010
1100
,
0101
1001
0010
0001
,
0100
0000
0010
1000
0010
1000
0000
0100
,
0001
0010
0100
1000
,
0001
0000
0010
1000
0010
1000
0000
0000
,
0110
0001
0100
0010
,
0100
0000
1000
0001
1000
0010
0000
1000
,
1000
0010
0100
0001
,
0100
0000
0010
1000
0010
0100
0000
0001
,
1000
0001
0100
0000
0010
0000
0100
0000
,
0001
0000
1000
0010
1000
0010
0100
0000
,
0110
0000
0000
0000
0001
0000
0000
0010
0000
0000
0001
0000
0100
0000
0000
1000
,
0000
0000
0010
0000
0100
0000
0000
0001
0000
0000
0100
0000
0010
0000
0000
0000
,
0110
0000
0000
0000
1000
0000
0000
0001
0000
0000
0100
0000
1000
0000
0000
0010
,
0000
0000
0100
0000
0001
0000
0000
0100
0000
0000
0010
0000
1000
0000
0001
0000
,
0100
0000
0000
0000
0001
0000
0010
0000
0000
0100
0000
0000
1000
0000
0010
0000
,
0000
0100
0000
0000
0001
0000
1000
0000
0000
0100
0000
0000
0010
0000
0000
0000
,
1010
0000
0000
0000
1000
0000
0001
0000
0000
0100
0000
0000
0010
0000
1000
0000
,
0000
0100
0000
0000
1000
0000
0010
0000
0000
0100
0000
0000
0001
0000
0010
0000
,
0100
2002
0000
3003
,
0000
0000
0000
0000
0010
0000
0000
1000
0000
0000
0100
0000
1000
0000
0000
0010
,
0000
0000
0100
0000
0001
0000
0000
0010
0000
0000
0001
0000
0100
0000
0000
0000
,
0101
0000
0000
0000
0001
0000
0000
0100
0000
0000
0010
0000
1000
0000
0000
0100
,
0000
0000
1000
0000
0010
0000
0000
0100
0000
0000
0001
0000
1000
0000
0001
0000
,
1000
0000
0000
0000
0100
0000
0010
0000
0000
1000
0000
0000
0100
0000
1000
0000
,
0000
0001
0000
0000
0100
0000
0010
0000
0000
1000
0000
0000
0100
0000
0000
0000
,
0110
0001
0101
1000
,
1100
0000
0010
0000
0110
0000
0001
0100
,
1000
0001
0010
1000
0001
0100
1000
0010
,
1000
0000
0001
0000
0100
0000
0010
0000
0000
0000
0000
0000
1000
0000
0000
0010
,
0000
0000
0100
0000
0001
0000
0000
0010
0000
0000
0100
0000
1000
0000
0000
0010
,
0000
0100
0001
0100
0001
0000
1000
0010
,
0000
0100
0000
0000
0001
0000
0100
0000
0000
0010
0000
0000
1000
0000
0001
0000
,
0000
0100
0000
0000
0010
0000
1000
0000
0100
0000
0000
0000
0001
0000
0000
0010
,
0000
0000
0100
0000
0001
0000
0000
0100
0000
0000
1000
0000
0010
0000
0000
1000
,
0000
0100
1000
0010
0100
0000
0001
0010
,
0000
0001
0000
0000
0100
0000
0010
0000
0000
1000
0000
0000
0100
0000
1000
0000
,
0000
0010
0000
0000
0100
0000
0001
0000
1000
0000
0000
0000
0010
0000
0001
0000
,
0000
0100
0000
0000
0010
0000
1000
0000
0000
0100
0000
0000
0010
0000
0100
0000
,
0000
0001
0000
0000
1000
0000
0010
0000
0100
0000
0010
0000
1000
0000
0100
0000
,
0000
0001
0000
0000
0010
0000
0001
0000
0000
0100
0000
0000
0010
0000
1000
0000
,
0000
0100
0000
0000
0001
0000
1000
0000
1001
0000
0000
0000
0010
0000
0001
0000
,
0000
0100
0000
0000
0010
0000
1000
0000
0000
0100
0000
0000
0001
0000
0100
0000
,
0000
0010
0000
0000
1000
0000
0001
0000
0100
0000
0010
0000
1000
0000
0001
0000
,
0000
0100
0000
0000
0010
0000
0100
0000
0000
1000
0000
0000
0001
0000
0100
0000
,
0000
0000
0000
0010
0000
0000
0000
0000
0000
0000
0000
0000
1000
0000
0000
0000
0001
0000
0000
0000
1000
0000
0000
0000
0010
0000
0000
0000
0000
0000
0000
0000
0000
0000
0000
0000
0000
0000
0000
0000
0000
0000
0000
0000
0000
0000
0000
0000
;
