#TITLE:Procrastination on a Paper;
#SUBTITLE:;
#ARTIST:KgZ;
#TITLETRANSLIT:;
#SUBTITLETRANSLIT:;
#ARTISTTRANSLIT:;
#CREDIT:;
#BANNER:Procrastination on a Paper-banner.png;
#BACKGROUND:Procrastination on a Paper-bg.png;
#LYRICSPATH:;
#CDTITLE:moches-cdtitle.png;
#MUSIC:Procrastination on a Paper.mp3;
#OFFSET:-0.058;
#SAMPLESTART:93.200;
#SAMPLELENGTH:11.600;
#SELECTABLE:YES;
#BPMS:0.000=165.010;
#STOPS:;
#BGCHANGES:;
// cache tags:
#FIRSTBEAT:0.000;
#LASTBEAT:304.000;
#SONGFILENAME:Songs/KBU/Procrastination on a Paper (moches)/Procrastination on a Paper.sm;
#HASMUSIC:1;
#HASBANNER:1;
#MUSICLENGTH:112.091;
// end cache tags

//---------------dance-single - ----------------
#NOTES:
     dance-single:
     :
     Hard:
     12:
     1.000,1.000,1.000,0.071,1.000,891.000,225.000,8.000,0.000,0.000:
1000
0010
0100
0001
1000
0010
0100
0001
1000
0010
0100
0001
1000
0010
0100
0001
,
1000
0010
0100
0001
1000
0010
0100
0001
1000
0010
0100
0001
1000
0010
0100
0001
,
1000
0001
0100
0010
1000
0001
0100
0010
1000
0001
0100
0010
1000
0001
0100
0010
,
1000
0100
0010
0001
1000
0100
0010
0001
1100
0000
0000
0000
1100
0000
0000
0000
,
1001
0100
0010
0001
0010
0000
1001
0100
0010
0001
0010
0000
1100
0000
0010
0000
,
0101
0010
0000
0010
0000
0010
0101
1010
,
0101
0010
0100
1000
0100
0000
0101
0010
0100
1000
0100
0000
0011
0000
1000
0000
,
0110
0000
0010
0000
0011
0000
0001
0000
0101
0010
0100
0000
1100
0001
1000
0000
,
1010
0100
0010
0100
1000
0000
1010
0100
0010
0100
1000
0000
1001
0000
0100
0000
,
1010
0001
0000
0001
0000
0001
1010
0101
,
0110
0001
0010
0100
0010
0000
0110
0001
0010
0100
0010
0000
1010
0000
0001
0000
,
0110
0000
0100
0000
0101
0000
0001
0000
1001
0000
0000
0110
0000
0000
0101
0000
,
0110
1000
0001
0100
0001
0000
0110
1000
0001
0100
0001
0000
1010
0000
0001
0000
,
1100
0000
0001
0010
0001
0000
0001
0010
0001
0000
0001
0010
1100
0000
0011
0000
,
0110
0001
1000
0010
1000
0000
0110
0001
1000
0010
1000
0000
0101
0000
0010
0000
,
1001
0000
0001
0000
0101
0000
0100
0000
1100
0010
1000
0000
1010
0001
0010
0000
,
0110
1000
0001
1000
0010
0000
0110
1000
0001
1000
0010
0000
0101
0000
1000
0000
,
0011
0000
0100
1000
0100
0000
0100
1000
0100
0000
0100
1000
0011
0000
1100
0000
,
1001
0100
0001
1000
0001
0000
1001
0100
0001
1000
0001
0000
0011
0000
0100
0000
,
1001
0000
1000
0000
1100
0000
0100
0000
0110
0000
0000
1001
0000
0000
1100
0000
,
1001
0100
1000
0010
0100
0010
0100
0001
0010
0001
0010
0100
0001
0010
0001
0100
,
0010
0100
0010
1000
0100
1000
0100
0010
1000
0100
1000
0010
0100
0010
0100
0001
,
0010
0001
0010
0100
0001
0010
0001
0100
0010
0100
0010
1000
0100
1000
0100
0010
,
1000
0100
1000
0010
0100
0010
0100
0001
1000
0100
1000
0010
0100
0010
0100
0001
,
0110
1000
0010
1000
0110
0001
0010
0001
1100
0001
0100
0001
1100
0010
0100
0010
,
0101
0010
0001
0010
0101
1000
0001
1000
0110
1000
0100
1000
0110
0001
0100
0001
,
1100
0010
1000
0010
1100
0001
1000
0001
0110
0001
0100
0001
0110
1000
0100
1000
,
0101
0010
0001
0010
0101
0010
0001
0010
1100
0010
0100
0010
1100
0010
0100
0010
,
1100
0001
0100
0010
0100
0000
1100
0001
0100
0010
0100
0000
0101
0000
0010
0000
,
0101
0010
0000
0010
0000
0010
1100
0011
,
1001
0100
0001
0010
1000
0000
1001
0100
0001
0010
1000
0000
1001
0000
0010
0000
,
1100
0000
0100
0000
0110
0000
0010
0000
0011
0100
0001
0000
1001
0100
1000
0000
,
0101
0010
0001
1000
0001
0000
0101
0010
0001
1000
0001
0000
0101
0000
1000
0000
,
0011
1000
0000
1000
0000
1000
0101
1010
,
0110
0001
0010
1000
0100
0000
0110
0001
0010
1000
0100
0000
0110
0000
1000
0000
,
0101
0000
0001
0000
1001
0000
1000
0000
1010
0000
0000
0110
0000
0000
0101
0000
,
1001
0100
0010
0001
0000
0001
1010
0100
2000
0000
0000
0000
0000
0000
0000
3000
,
1001
0010
0100
1000
0101
1000
0100
0010
1100
0000
0101
0000
1001
0010
0100
0010
,
0101
0010
0100
1000
0000
1000
0011
0100
0020
0000
0000
0000
0000
0000
0000
0030
,
0011
0100
0010
0001
1010
0100
1000
0100
0011
0000
0020
0000
0000
0000
0030
0000
,
0011
0100
0010
0001
0000
0001
1100
0010
0002
0000
0000
0000
0000
0000
0000
0003
,
1001
0100
0010
0001
0110
1000
0100
0010
1100
0000
0101
0000
1001
0010
0100
1000
,
0101
0010
0100
1000
0000
1000
0011
0100
0020
0000
0000
0000
0000
0000
0000
0030
,
0011
0100
0010
0001
0110
1000
0100
0010
1001
0000
0001
0000
0010
0000
0100
0000
,
0101
0010
0000
0001
0010
0000
0101
0010
0000
0001
0110
0000
0001
0000
0110
0000
,
0100
0000
0110
0001
0000
0110
0001
0000
0110
0001
0010
0000
0011
1000
0001
0000
,
1001
0100
0000
1000
0100
0000
1001
0100
0000
1000
0101
0000
1000
0000
0101
0000
,
0001
0000
0011
0100
0000
0011
0100
0000
0101
0010
0001
0000
0011
1000
0010
0000
,
0110
1000
0000
0010
1000
0000
0110
1000
0000
0010
1100
0000
0010
0000
1100
0000
,
0010
0000
0101
0010
0000
0101
0010
0000
0011
0100
0001
0000
1001
0010
1000
0000
,
1010
0001
0000
0010
0001
0000
1010
0001
0000
0010
1001
0000
0010
0000
1001
0100
,
1000
0000
1001
0110
0000
0110
1001
0000
0011
1100
0000
0101
0000
0101
0000
0101
,
1010
0000
0000
0001
0100
0000
0101
0000
0000
0000
0100
0000
0101
0000
0000
0000
,
0011
1000
0010
1000
0110
0000
0110
0000
0110
0000
0010
0001
0010
0001
0110
0000
,
0100
0000
0101
0010
0100
0011
0100
0010
0001
0000
0101
0010
0100
0011
0100
0010
,
1000
0100
0010
0001
1000
0100
0010
0001
0110
1000
0100
0010
0101
0010
0100
1000
,
0011
0100
1000
0100
0010
0000
0011
0100
1000
0100
0010
0000
1001
0000
0010
0000
,
1100
0001
0000
0001
0000
0001
1010
0101
,
1010
0001
0010
0100
1000
0000
1010
0001
0010
0100
1000
0000
1010
0000
0001
0000
,
0110
0000
0100
0000
1100
0000
1000
0000
1010
0001
0010
0000
0011
0100
0001
0000
,
0011
0100
0010
0001
0010
0000
0011
0100
0010
0001
0010
0000
0011
0000
0100
0000
,
1010
0001
0000
0001
0000
0001
0110
1001
,
0110
0001
0010
0100
1000
0000
0110
0001
0010
0100
1000
0000
0101
0000
0010
0000
,
0011
0000
0001
0000
0101
0000
0100
0000
0110
0000
0000
0011
0000
0000
1010
0000
,
1001
0100
0010
0001
0110
1000
0100
0010
1100
0010
0100
1000
0101
0010
0001
0010
,
1000
0010
0100
0010
1000
0010
0100
0010
1000
0010
0100
0010
1000
0010
0100
0010
,
1001
0010
0100
1000
0101
1000
0100
0010
1100
0010
0100
1000
0110
0001
0100
0010
,
0001
0100
0001
1000
0001
0100
0001
1000
0001
0100
0001
1000
0001
0100
0001
1000
,
0110
0001
0010
0100
1010
0001
0010
0100
0011
0100
0010
0100
1010
0001
1000
0100
,
0010
0001
0010
1000
0010
0001
0010
1000
0010
0001
0010
1000
0010
0001
0010
1000
,
0011
0100
1000
0100
1010
0100
0010
0001
0110
1000
0100
0010
0101
0010
0100
1000
,
0100
0010
0100
0001
0100
0010
0100
0001
1100
0000
0000
0110
0000
0000
0101
0000
,
0110
0001
1000
0010
0100
0001
1000
0010
0100
0001
1000
0010
0100
0001
1000
0010
,
0101
1000
0010
0100
0001
1000
0010
0100
0001
1000
0010
0100
0001
1000
0010
0100
,
1001
0100
0001
0010
1000
0100
0001
0010
1000
0100
0001
0010
1000
0100
0001
0010
,
2002
0000
0000
0000
0000
0000
0000
3000
0200
0000
0000
0000
0000
0000
0000
0000
,
0303
0000
0000
0000
;
