#TITLE:I;
#SUBTITLE:;
#ARTIST:Chroma;
#TITLETRANSLIT:;
#SUBTITLETRANSLIT:;
#ARTISTTRANSLIT:;
#CREDIT:Owem;
#BANNER:../banner.png;
#BACKGROUND:../bg.png;
#LYRICSPATH:;
#CDTITLE:../cdtitleowem.png;
#MUSIC:Chroma - I.ogg;
#OFFSET:-0.897;
#SAMPLESTART:90.489;
#SAMPLELENGTH:25.598;
#SELECTABLE:YES;
#BPMS:0.000=225.019;
#STOPS:;
#BGCHANGES:;
// cache tags:
#FIRSTBEAT:0.000;
#LASTBEAT:446.167;
#SONGFILENAME:Songs/Owem's Simfiles 08 - 1.2/I - [Braeden & Owem] v1.0.0/I.sm;
#HASMUSIC:1;
#HASBANNER:1;
#MUSICLENGTH:120.450;
// end cache tags

//---------------dance-single - 3 (Braeden)----------------
#NOTES:
     dance-single:
     3 (Braeden):
     Beginner:
     3:
     0.205,0.273,0.141,0.017,0.000,154.000,17.000,2.000,0.000,0.000:
0000
0000
0000
0000
,
1000
0000
0000
0000
,
0001
0000
0000
0000
,
0100
0000
0000
0000
,
1001
0000
0000
0000
,
0001
0000
0000
0000
,
1000
0000
0000
0000
,
0010
0000
0000
0000
,
1001
0000
0000
0000
,
0100
0000
0000
0000
,
0010
0000
0000
0000
,
1000
0000
0000
0000
,
0100
0000
0000
0000
,
0000
0000
0000
0000
,
0001
0000
0000
0000
,
1000
0000
0000
0000
,
1001
0000
0000
0000
,
0000
0000
0000
0000
,
0110
0000
0000
0000
,
0000
0000
0000
0000
,
1001
0000
0000
0000
,
0000
0000
0000
0000
,
1001
0000
0000
0000
,
0000
0000
0000
0000
,
1000
0000
0001
0000
,
0100
0100
0100
0000
,
0010
0000
1000
0000
,
0100
0100
0100
0000
,
0010
0000
0001
0000
,
0100
0100
0100
0000
,
0010
0000
1000
0000
,
0100
0100
0100
0000
,
0010
0000
0001
0000
,
1000
0000
0010
0000
,
0100
0000
0001
0000
,
0010
0000
0001
0000
,
0100
0000
0010
0000
,
1000
0000
0100
0000
,
0010
0000
0100
0000
,
1000
0000
0001
0000
,
0000
0000
0000
0000
,
1001
0000
0001
0000
,
0001
0000
0100
0000
,
0010
0000
1000
0000
,
0100
0000
0010
0000
,
0001
0000
0100
0000
,
0010
0000
1000
0000
,
0001
0000
1000
0000
,
0001
0000
0000
0000
,
1000
1000
1000
0000
,
0010
0000
0000
0000
,
0100
0100
0100
0000
,
0001
0000
1000
0000
,
0010
0000
1000
0000
,
0001
0000
0000
0000
,
1000
0000
0000
0000
,
1001
0000
0000
0000
,
0001
0000
0000
0000
,
0100
0000
0000
0000
,
0010
0000
0000
0000
,
1000
0000
0000
0000
,
0100
0000
0000
0000
,
0010
0000
0000
0000
,
0001
0000
0000
0000
,
0100
0000
0000
0000
,
0010
0000
0000
0000
,
1000
0000
0000
0000
,
0001
0000
0000
0000
,
1000
0000
0000
0000
,
0010
0000
0000
0000
,
0100
0000
0000
0000
,
0001
0000
0000
0000
,
1000
0000
0000
0000
,
0001
0000
0000
0000
,
1000
0000
0010
0000
,
0100
0000
0001
0000
,
1000
0000
0010
0000
,
0100
0000
0001
0000
,
1000
0000
0001
0000
,
0100
0000
0000
0000
,
1001
0000
0000
0000
,
0000
0000
0000
0000
,
0001
0000
0000
0000
,
0000
0000
0000
0000
,
1001
0000
0000
0000
,
1001
0000
0000
0000
,
1000
0000
0001
0000
,
0100
0000
0010
0000
,
1000
0000
0100
0000
,
0010
0000
0001
0000
,
0100
0000
0010
0000
,
1000
0000
0001
0000
,
1001
0000
0100
0000
,
0010
0000
1000
0000
,
0100
0000
0010
0000
,
0100
0000
1000
0000
,
0010
0000
0100
0000
,
0001
0000
0001
0000
,
0100
0000
0100
0000
,
0010
0000
1000
0000
,
1001
0000
0000
0000
,
1001
0000
0000
0000
,
0110
0000
0000
0000
,
0110
0000
0000
0000
,
0001
0000
0000
0000
,
1000
0000
0000
0000
,
0001
0000
0010
0000
,
0100
0000
1000
0000
,
2002
0000
0000
0000
,
0000
0000
3003
0000
;

//---------------dance-single - 6+ (Braeden)----------------
#NOTES:
     dance-single:
     6+ (Braeden):
     Easy:
     6:
     0.457,0.535,0.315,0.125,0.029,332.000,38.000,15.000,0.000,0.000:
0000
0000
0000
0000
,
0100
0000
0000
0000
,
0010
0000
0000
0000
,
1000
0000
0000
0000
,
0001
0100
0010
0000
,
1000
0010
0100
0000
,
0001
0200
0310
0000
,
2000
3010
0100
0000
,
1001
0000
0000
0001
0000
0000
1000
0000
,
0010
0100
0001
1000
,
0010
0000
0000
0100
0000
0000
0001
0000
,
0010
0001
0100
0010
,
2000
0000
3010
0000
,
2000
0000
3100
0000
,
0010
0000
0000
0001
0000
0000
0100
0000
,
0000
0010
0000
0000
0000
0000
0000
0000
,
1001
0000
0000
0110
0000
0000
1001
0000
,
0000
0101
0000
0000
0000
0000
0000
0000
,
1010
0000
0000
1010
0000
0000
0101
0000
,
0000
0101
0000
0000
0000
0000
0000
0000
,
0011
0000
0000
1100
0000
0000
0011
0000
,
0000
1100
0000
0000
0000
0000
0000
0000
,
0101
0000
0000
1010
0000
0000
0101
0000
,
0001
1000
0001
0000
0100
0000
0000
0000
,
0001
1000
0001
1000
,
0010
0100
0001
1000
,
0100
0010
0100
1000
,
0001
0100
0010
0100
,
0001
1000
0010
1000
,
0001
0010
0001
1000
,
0010
0100
1000
0100
,
0010
0100
0001
0100
,
1001
0100
0010
1000
,
0100
0010
0001
0100
,
0010
0100
0001
1000
,
0010
0100
0001
0010
,
0100
0010
0001
0100
,
0010
0100
0001
1000
,
0010
0100
0001
1000
,
1001
0000
0000
1001
0000
0000
0001
0100
,
0000
0000
0001
1000
0001
0000
1000
0000
,
0001
0200
0301
0100
,
0001
1000
0100
1000
,
0001
0100
0010
1000
,
0001
0010
0100
0010
,
0001
1000
0010
0100
,
0001
1000
0001
0000
1000
0010
1000
0000
,
0001
0000
0000
0000
0100
0000
0000
0010
0000
0000
0100
0000
0000
0000
0000
0000
,
1000
0100
0010
0100
,
1000
0010
0100
0010
,
1000
0010
0100
0001
,
1000
0100
1000
0001
,
0010
0000
0000
1000
0000
0000
0010
0000
,
0000
0100
0000
0000
0010
0000
0000
0000
,
1000
0001
0100
0010
,
1000
0010
0100
0010
,
1001
0000
0020
0000
,
2030
0000
3020
0000
,
0230
0000
0000
0000
,
0000
0000
0300
0002
,
2003
0000
0000
0000
,
0000
0000
0000
0000
,
3200
0000
0000
0000
,
0310
0001
0100
0000
,
0110
0000
0010
0000
,
1000
0000
0001
1000
0000
0000
0000
1001
,
0000
1001
0000
0000
0000
0000
1000
0001
,
1000
0000
0000
1001
0000
0000
1000
0000
,
0000
0001
0000
0000
0100
0010
0100
0000
,
0010
0000
0010
0000
0000
0100
0000
0000
,
0010
0000
0000
0100
0000
0000
0001
0000
,
0000
0000
0000
0000
,
1001
0001
0100
0010
,
1010
1000
0001
0100
,
0110
0010
1000
0010
,
1001
0001
0100
0010
,
0110
0010
1000
0001
,
1001
0010
0100
0010
,
0100
0001
0100
0010
,
0100
0000
0000
0000
,
0000
0000
0000
0000
,
0000
0000
0000
0000
,
0000
0000
0000
0000
,
0000
0000
0000
0000
,
1001
0001
0100
0010
,
0100
0001
0100
0010
,
0100
0010
1000
0010
,
0100
0001
0010
0100
,
0010
0001
0100
0010
,
0100
0001
1000
0010
,
0100
0001
1000
0010
,
0100
0001
0010
0100
,
0010
0001
1000
0010
,
0100
0001
0100
0010
,
0100
0001
0010
0001
,
1000
0010
0100
0001
,
1000
0010
0100
0001
,
0010
0001
1000
0100
,
0010
0001
0100
0010
,
0100
0001
1000
0001
,
1001
0000
1001
0000
,
1001
0000
0110
0000
,
1001
0000
1001
0000
,
0110
0000
0000
0000
0000
0000
0001
0000
1000
0000
0001
0000
,
2000
0000
0000
0000
0000
0000
3001
0000
1000
0000
0100
0000
,
2000
0000
0000
0000
0000
0000
3010
0000
0100
0000
0001
0000
,
0100
0010
0100
0001
,
0002
0000
0003
0000
;

//---------------dance-single - 9+ (Braeden)----------------
#NOTES:
     dance-single:
     9+ (Braeden):
     Medium:
     9:
     0.651,0.948,0.448,0.224,0.291,468.000,54.000,27.000,0.000,0.000:
0000
0000
0000
0000
,
1000
0001
0100
0010
,
1000
0000
0002
0200
0303
0000
0010
0000
,
1000
0010
0100
0001
,
1001
0000
0000
0010
0000
0000
0100
0000
,
0000
0001
0000
0000
0100
0000
0100
0000
,
0010
0000
0000
1000
0000
0000
0010
0000
,
0000
0100
0000
0000
0001
0000
0100
0000
,
0110
0000
0010
0100
0000
0000
1000
0001
,
1000
0000
0010
0000
0100
0001
0100
0000
,
0010
0000
1000
0001
0000
0000
1000
0010
,
0100
0000
0001
0000
1000
0010
0100
0000
,
0001
0000
0010
0000
0100
1000
0100
0000
,
0010
0000
0001
0000
1000
0001
1000
0000
,
0001
0000
0100
0010
0000
1000
0100
0000
,
0010
0001
0000
0100
0010
0000
0000
0000
,
1001
0000
0000
1010
0000
0000
0110
0000
,
0000
0101
0000
0000
0000
0000
0000
0000
,
1001
0000
0000
0101
0000
0000
1100
0000
,
0000
1001
0000
0000
0000
0000
0000
0000
,
0011
0000
0000
1001
0000
0000
1100
0000
,
0000
0011
0000
0000
0000
0000
0000
0000
,
1001
0000
0000
0110
0000
0000
0101
0000
,
0010
1000
0010
1000
0100
0000
0000
0000
,
1001
0001
0100
0010
,
1010
1000
0100
0010
,
0011
0001
0100
0010
,
1010
1000
0100
0010
,
0001
0001
0100
0010
,
0010
0000
1000
0000
0010
0000
1000
0001
,
0010
0000
0100
1000
0000
0000
0100
1000
,
0010
0100
0001
0010
0100
0010
0001
0000
,
0101
0100
0100
0010
,
1010
0100
0100
0001
,
1000
0000
0020
0030
0100
0000
0001
0000
,
0002
0000
0000
0003
0000
0000
1000
0000
0000
0000
0000
0000
0010
0000
0000
0000
0000
0000
0100
0000
0010
0000
0100
0000
,
0010
1000
0001
0100
,
0010
0000
0020
0030
0100
0000
0001
0010
,
0001
0100
0020
0030
1000
0000
0010
0000
,
1010
0000
0000
0011
0000
0000
0100
0100
,
0000
0000
0010
1000
0100
1000
0001
0000
,
0100
0000
0020
0030
1000
0000
0100
0000
,
0010
0000
0002
0003
0100
0000
0010
0000
,
0020
0000
0000
0030
0000
0000
0100
0000
0000
0000
0000
0000
0001
0000
0000
0000
0000
0000
1000
0000
0000
0000
1000
0000
,
0001
0100
0010
1000
,
0100
0000
0020
0030
0100
0000
0001
0100
,
0010
0000
1000
0010
0100
0000
0001
0100
,
0010
0000
1000
0000
0010
0000
0000
0100
0000
0000
0010
0000
0000
0000
0000
0000
,
1010
1000
0001
0100
,
1010
0000
0200
0300
0001
0000
0100
0000
,
1010
1000
0100
0010
,
0022
0033
0001
0000
0100
0000
0010
1000
,
0100
0000
0010
0001
0000
0100
0010
0000
,
1000
0001
0000
0100
0010
0000
1000
0000
,
0001
0100
0010
0100
0001
1000
0100
0010
,
0001
0100
0010
0100
0001
1000
0100
0000
,
1000
0000
0020
0000
,
0230
0000
0302
0000
,
2003
0000
0000
0000
,
0000
0000
0000
0000
3000
0000
0010
0100
,
0002
0000
0000
0000
,
0000
0000
0000
0003
,
0200
0000
0000
0000
,
0300
0000
0000
0000
0000
0000
0000
0000
0010
0000
0000
0100
0000
0000
0001
0000
,
0020
0000
0000
0000
0000
0000
0031
0100
,
0010
0000
1000
0001
0000
0000
0000
0110
,
0000
0110
0000
0000
0000
0000
1000
0001
,
0020
0000
0030
0110
0000
0000
1001
0000
,
2000
3010
0000
0000
0010
0100
0001
1000
,
0100
0000
1100
0000
0000
1001
0000
0000
,
0110
0000
0000
1001
0000
0000
0101
0000
,
0010
1000
0100
0010
,
0001
0000
0001
0100
0000
0000
0010
0000
0010
1000
0000
0000
,
0001
0000
0001
1000
0000
0000
0010
0000
0010
0100
0000
0000
,
0001
1000
0001
1000
0000
0000
0010
0100
0010
0100
0000
0000
,
0010
0000
0001
0010
0000
0000
0001
0000
1000
0001
0000
0000
,
1000
0000
0000
0001
0010
0001
0010
0000
0000
0100
1000
0100
,
1000
0000
0000
0001
0100
0001
0100
0000
0000
0010
1000
0010
,
1000
0100
0010
0001
,
0200
0000
0000
0300
,
0000
0000
0000
0000
,
0000
0000
0000
0000
,
0000
0000
0000
0000
,
0000
0000
0000
0000
,
1000
0000
1000
0100
0000
0100
0010
0000
0010
0001
0000
0000
,
1000
0000
1000
0010
0000
0010
0100
0000
0100
0001
0000
0000
,
0010
0000
0010
0100
0000
0100
1000
0000
1000
0100
0000
0000
,
0010
0000
0001
0100
0000
0001
0010
0000
0001
0100
0000
0000
,
0010
0000
1000
0100
0000
1000
0001
0000
1000
0001
0000
0000
,
1000
0000
0010
0100
0000
0001
0100
0000
0010
1000
0000
0000
,
1000
0001
1000
0001
1000
0001
0100
0010
0100
0010
0100
0010
,
2000
3001
1001
0101
,
1001
0000
0000
1000
0000
0010
0100
0000
0000
0001
0000
0000
,
1001
0000
0000
0010
0000
0100
0001
0000
0000
0010
0000
0000
,
1001
0000
0000
1000
0000
0010
0100
0000
0000
0001
0000
0000
,
0011
0000
0000
0001
0000
0100
0010
0000
0000
0100
0000
0000
,
0101
0000
0000
0001
0000
0100
0010
0000
0000
1000
0000
0000
,
1001
0000
0000
0001
0000
0100
0010
0000
0000
1000
0000
0000
,
0001
1000
0001
1000
0001
1000
0010
0100
0010
0100
0010
0100
,
0002
0000
0000
1003
0000
0001
1000
0000
0000
0000
0000
0000
,
1001
0001
0101
0100
,
0110
0010
1010
1000
,
1001
0001
0101
0100
,
0110
0000
0000
0010
0000
0000
0010
0000
1000
0000
0001
0000
,
1000
0000
0000
0010
0000
0000
0100
0000
0000
0001
0000
0000
1000
0000
0000
0000
0010
0000
0000
0000
1000
0000
0000
0000
,
0001
0000
0000
0010
0000
0000
0001
0000
0000
0100
0000
0000
0010
0000
0000
0000
0010
0000
0000
0000
0010
0000
0000
0000
,
0100
0001
0010
0001
,
1000
0010
0100
0001
,
0220
0000
0000
0330
;

//---------------dance-single - 14 (Braeden)----------------
#NOTES:
     dance-single:
     14 (Braeden):
     Hard:
     14:
     1.000,1.000,0.565,0.457,1.000,933.000,68.000,55.000,0.000,8.000:
1000
0010
0400
0301
2000
3100
1000
0010
,
0100
0000
0001
1000
0001
0010
0400
0000
1300
0010
1000
0001
0200
0000
0320
0000
,
1030
0000
0001
0000
0010
0100
1000
0000
0002
0000
0103
0000
0010
0000
1000
0000
,
0001
0010
0100
1000
0001
1000
0040
0000
0130
0001
1000
0010
0200
0000
0302
0000
,
1003
0000
0100
0000
0010
0000
0001
1000
0010
0100
0001
1000
0100
0000
0010
0000
,
0001
0000
2000
0000
3040
0000
0130
0000
0001
0000
1000
0000
0010
0100
0001
0100
,
0010
1000
0002
0103
0010
1000
0010
0100
,
0002
4003
3010
0100
0001
0100
0010
1000
,
1001
0001
1000
0100
0020
0031
1000
0010
,
4000
0000
3001
0100
0001
1000
0040
0000
0130
0001
1000
0100
2000
0000
3020
0000
,
0130
0000
0001
0000
1000
0100
0010
0000
0004
0000
1003
0000
0010
0000
0100
0000
,
0004
0000
1003
0010
0100
0001
0400
0000
0310
1000
0001
0010
0200
0000
2300
0000
,
3001
0010
0001
0100
0010
0000
1000
0001
1000
0100
0010
0001
0200
0000
0020
0300
,
1030
0001
1000
0100
0010
0001
1000
0000
0010
0100
0010
1000
0002
0000
0013
0100
,
1000
0001
0100
0010
1000
0001
0100
0001
0010
0100
1000
0001
0010
0001
0100
0010
,
1000
0001
0100
0010
1000
0001
0100
0001
1000
0000
0000
0000
0000
0000
0000
0000
,
1110
0000
0000
1011
0000
0000
1110
0000
,
0000
1011
0000
0000
0000
0000
0000
0000
,
1101
0000
0000
1110
0000
0000
0111
0000
,
0000
1011
0000
0000
0000
0000
0000
0000
,
1100
0000
0000
0110
0000
0000
0011
0000
,
0000
1001
0000
0000
0000
0000
0000
0000
,
1010
0000
0000
0110
0000
0000
0101
0000
,
1000
0100
0010
0001
1000
0001
0100
0010
1000
0000
0002
0003
0100
0010
4000
0000
,
3001
0100
0001
0100
0001
0100
0001
0100
,
0010
1000
0010
1000
0010
1000
0010
1000
,
0010
0100
0010
0100
0010
0100
0010
0100
,
0001
1000
0001
1000
0001
1000
0001
1000
,
0001
0010
0100
1000
0001
0010
0100
1000
,
0100
0000
0010
0000
0001
0000
1000
0000
0100
0000
0010
0000
0100
1000
0001
0100
,
0001
0010
0001
0100
0000
0000
0010
1000
,
0100
0000
1000
0000
0001
0010
0100
1000
0000
0010
0100
0001
1000
0000
0010
0000
,
1000
0100
1000
0010
0100
0001
0100
0010
,
0100
0000
0001
0000
0002
0000
0013
0000
0100
0000
1000
0010
0100
0000
0001
0000
,
1000
0001
0020
0031
0010
0100
1000
0001
,
0100
0000
0010
0000
2000
0000
3100
0000
0010
0000
0001
0000
1000
0010
1000
0010
,
1000
0010
0100
0001
1000
0100
0010
0001
,
1000
0000
0010
0000
0200
0000
0301
0000
1000
0000
0010
0000
0100
0001
0100
0000
,
0010
1000
0010
0000
2000
0000
3100
0000
0010
0001
0010
0001
1000
0100
0010
0001
,
1000
0000
0010
0110
0000
0100
1000
1000
,
0000
0000
0000
0000
1000
0010
1000
0001
0100
0000
0010
0000
1000
0100
1000
0000
,
0001
0100
0001
0000
0020
0000
0130
0000
0010
0001
0010
0100
1000
0001
0100
0010
,
1000
0100
0010
0000
0002
0000
0103
0000
0010
1000
0100
0000
0010
0000
0001
0000
,
0002
0000
0103
0000
0010
0000
1000
0100
1000
0000
0001
0000
0100
0010
1000
0000
,
0001
0010
0100
0000
1000
0100
1000
0000
0001
0100
0001
0000
1000
0100
0010
0000
,
0001
0100
0010
0000
1000
0000
0100
0000
0010
0001
0010
0000
0100
0001
1000
0001
,
0010
0100
1000
0000
0020
0000
0130
0001
1000
0001
0100
0000
0020
0000
1030
0001
,
1000
0000
0000
0100
0000
0000
0010
0000
0000
0000
0000
0000
0011
0000
0000
0000
0000
0000
0000
0000
1001
0000
0000
0000
0000
0000
0000
0000
1010
0000
0000
0000
0000
0000
0000
0000
1000
0000
0000
0000
0000
0000
0000
0000
0000
0000
0000
0000
,
0101
0000
0000
0000
1010
0000
0000
0000
1000
0100
1000
0000
0001
0000
0000
0000
,
1000
0010
1000
0000
0100
0000
0000
0000
0010
0001
0010
0000
0001
0000
0000
0000
,
1000
0001
1000
0000
0001
0000
0000
0000
0001
1000
0001
0000
1000
0000
0000
0000
,
0004
0000
0000
0000
1003
0000
0000
0000
0100
0000
0000
0000
0010
0001
1000
0000
,
1001
0000
0010
0110
0000
0001
1001
0000
,
1000
1010
0000
0100
0001
1000
0010
1000
,
0010
1000
0001
0100
0010
1000
0001
0100
0001
0010
0100
1000
0001
0010
0001
0100
,
0010
1000
0010
0100
0001
0100
0010
1000
0001
1000
0100
0010
0001
0000
0000
0000
,
1001
1000
0010
0100
0002
1003
0100
1000
,
0002
0013
0001
0100
0040
1030
0001
0100
,
0020
0130
0001
1000
0100
0010
0001
1000
,
0100
1000
0001
0100
0010
1000
0002
0203
,
0302
0013
0100
1000
0001
0010
0001
1000
,
0400
0310
0001
1000
0100
1000
0010
1000
,
0004
0103
0010
0100
0004
1003
0100
0010
,
0001
0000
1000
0000
0020
0000
0230
0000
0302
0000
2003
0000
3100
0000
0020
0030
,
0021
0030
0001
0000
1000
0000
0010
0000
0100
0000
0001
0000
1000
0100
0010
0001
,
0200
0310
1010
1001
0000
0000
0000
1100
,
0000
1010
0000
0000
0000
0000
1100
0110
,
0000
0000
0000
1010
0000
0000
0101
0000
,
0000
0000
1010
0000
0000
0000
0000
0000
0101
0000
0001
1000
0010
1000
0001
0010
,
0200
0000
1300
0000
1010
0000
0000
0000
0000
0000
0101
0000
0001
1000
0100
1000
,
0020
0030
0000
1001
0000
0000
0110
0010
,
0001
1000
0010
0100
0020
2030
3002
2003
,
3100
0010
0001
1000
0001
0100
0010
1000
0001
0100
0001
0010
,
0100
1000
0001
0010
0001
1000
0100
1000
0001
0100
0010
1000
,
0001
0010
0001
1000
0100
0010
0001
1000
0100
1000
0010
0100
,
0001
1000
0100
1000
0001
0100
0001
0010
0100
1000
0001
1000
,
0010
0100
0010
0100
0001
1000
0010
0100
0010
1000
0001
0100
,
0010
1000
0010
0100
0001
1000
0100
0010
0100
1000
0001
1000
,
0100
0010
0001
1000
0001
0100
0010
1000
0001
0100
0001
1000
,
0040
0000
0000
0000
,
0130
0000
0100
0000
,
0000
0000
0000
0000
,
0000
0000
0000
0000
,
0000
0000
0000
0000
,
0001
0010
0001
1000
0010
1000
0001
0010
0001
1000
0010
1000
,
0001
0010
0100
1000
0100
0010
0001
1000
0010
0100
0001
0010
,
0100
1000
0001
0100
0010
0100
0001
0010
0001
1000
0100
0010
,
0001
1000
0010
0100
0001
0010
0100
1000
0001
0100
0010
0100
,
0001
0010
0001
1000
0100
0010
0001
0010
0100
1000
0001
0100
,
0010
0100
0001
0010
0001
1000
0100
0010
0001
1000
0010
0100
,
0001
1000
0010
1000
0001
0010
0100
1000
0001
1000
0010
0100
,
0001
1000
0100
0010
0001
1000
0010
0100
0010
1000
0100
1000
,
0001
0000
0000
1000
0100
1000
0001
0010
0001
1000
0010
1000
,
0001
0100
0001
1000
0100
0010
0001
0100
0001
1000
0010
1000
,
0001
0010
0001
1000
0100
0010
0001
1000
0001
0100
0010
0100
,
0001
1000
0001
1000
0100
0010
0001
1000
0001
1000
0100
1000
,
0001
0010
0001
1000
0100
0010
0001
1000
0100
0010
0100
1000
,
0001
0100
0010
1000
0100
0010
0100
1000
0001
0100
0010
1000
,
0001
0010
0100
1000
0001
1000
0010
0100
0001
0100
0010
1000
,
0001
0100
0001
1000
0010
1000
0002
0000
0000
0000
0000
0000
,
1003
0100
0010
0001
1000
0001
0100
0010
1000
0001
0100
0001
,
0010
0100
1000
0001
0010
0001
0100
0010
1000
0001
0100
0010
,
0100
0001
1000
0100
0010
0001
1000
0100
1000
0001
0100
0010
,
0100
0001
1000
0010
1000
0001
1000
0000
1001
0000
1001
0000
,
0020
0000
0000
0000
0000
0000
0031
0000
0101
0000
0011
0000
,
0020
0000
0000
0000
0000
0000
0031
0000
0110
0000
1010
0000
,
1000
0001
1000
0010
0100
0001
1000
0100
1000
0001
0010
0001
0100
0010
1000
0001
,
0020
0030
0210
0300
2100
3000
1002
0003
,
2000
0000
0000
0000
,
0000
0000
0000
0000
,
0000
0000
0000
0000
,
0000
3000
0000
0000
0000
0000
0000
0000
;

//---------------dance-single - 17 (Owem)----------------
#NOTES:
     dance-single:
     17 (Owem):
     Challenge:
     17:
     1.000,1.000,0.423,0.349,1.000,1269.000,51.000,42.000,15.000,0.000:
1000
0010
0400
0301
2000
3100
1000
0010
,
0100
0000
0001
1000
0001
0010
0400
0000
1300
0010
1000
0001
0200
0000
0320
0000
,
1030
0000
0001
0000
0010
0100
1000
0000
0002
0000
0103
0000
0010
0000
1000
0000
,
0001
0010
0100
1000
0001
1000
0040
0000
0130
0001
1000
0010
0200
0000
0302
0000
,
1003
0000
0100
0000
0010
0000
0001
1000
0010
0100
0001
1000
0100
0000
0010
0000
,
0001
0000
0000
0000
0000
0000
1000
0000
0010
0000
1000
0000
0040
0000
0000
0000
0000
0000
0130
0000
0000
0000
0000
0000
0001
0000
0000
0000
0000
0000
1000
0000
0000
0000
0000
0000
0010
0000
0000
0100
0000
0000
0001
0000
0000
0100
0000
0000
,
0010
0000
0000
1000
0000
0000
0001
0100
0001
0100
0000
0000
0010
0000
0000
1000
0000
0000
0010
0000
0000
0100
0000
0000
,
0001
1000
0001
4000
0000
0000
3010
0000
0000
0100
0000
0000
0001
0000
0000
0100
0000
0000
0010
0000
0000
1000
0000
0000
,
1M01
0001
1000
0100
0020
0031
1000
0010
,
4000
0000
3001
0100
0001
1000
0040
0000
0130
0001
1000
0100
2000
0000
3020
0000
,
0130
0000
0001
0000
1000
0100
0010
0000
0004
0000
1003
0000
0010
0000
0100
0000
,
0004
0000
1003
0010
0100
0001
0400
0000
0310
1000
0001
0010
0200
0000
2300
0000
,
3001
0010
0001
0100
0010
0000
1000
0001
1000
0100
0010
0001
0200
0000
0020
0300
,
1030
0001
1000
0100
0010
0001
1000
0000
0010
0100
0010
1000
0002
0000
0013
0100
,
1000
0001
0100
0010
1000
0001
0100
0001
0010
0100
1000
0001
0010
0001
0100
0010
,
1000
0000
0000
0001
0000
0000
0100
0000
0000
0010
0000
0000
1000
0000
0000
0001
0000
0000
0100
0000
0000
0001
0000
0000
1000
0000
0000
0000
0000
0000
0000
0000
0000
0000
0000
0000
0000
0000
00M0
0000
0000
0000
0000
0000
000M
0000
0000
0000
,
1000
0100
1000
0000
0010
0000
0100
0001
0100
0000
0010
0000
1000
0001
1000
0000
,
0100
0000
0010
0001
1000
0000
0000
0000
00M0
0M00
00M0
0M00
00M0
0M00
00M0
0000
,
0001
0100
0010
0000
1000
0000
0001
0010
0100
0000
1000
0000
0010
1000
0001
0000
,
1000
0000
0000
0000
0000
0000
0100
0000
0000
0010
0000
0000
0001
0000
0000
0000
0000
0000
0100
0000
0000
0000
0000
0000
0010
0000
0000
0000
0000
0000
0000
0000
0000
0000
0000
0000
0000
0000
000M
0000
0000
0000
0000
0000
00M0
0000
0000
0000
,
1000
0100
1000
0000
0001
0000
0100
0010
1000
0000
0001
0000
0010
0100
1000
0000
,
0001
0000
1000
0010
1000
0000
0100
0000
0010
0001
1000
0000
0001
0000
0100
0000
,
0010
1000
0010
0000
0100
0000
0001
1000
0001
0000
0010
0000
0100
1000
0001
0000
,
1000
0100
0010
0001
1000
0001
0100
0010
1000
0000
0002
0003
0100
0010
4000
0000
,
3001
0100
0010
1000
0001
0100
0010
0100
0001
1000
0010
1000
0001
1000
0100
0010
,
0100
1000
0001
0100
0010
1000
0001
0100
0010
0100
0001
1000
0100
0010
0001
1000
,
0100
1000
0001
0100
0001
1000
0010
0100
0001
1000
0100
1000
0001
0100
0001
0010
,
0100
1000
0001
1000
0100
0010
0001
1000
0100
1000
0001
0100
0010
1000
0001
1000
,
0100
0010
0001
1000
0100
1000
0001
0010
0001
1000
0001
0100
0010
0100
0001
1000
,
0100
0010
0100
1000
0001
0010
0001
1000
0010
0100
0001
1000
0100
1000
0001
0100
,
0001
0010
0100
1000
0001
0010
0001
0100
0010
1000
0001
1000
0100
0010
0001
1000
,
0010
1000
0001
0100
0010
1000
0001
0100
0001
0010
0100
1000
0001
1000
0001
0100
,
0010
1000
0001
0100
0010
0100
0001
1000
0100
1000
0001
0100
0001
1000
0100
0010
,
0001
1000
0001
0100
0010
0100
0001
0010
0001
1000
0100
1000
0001
0100
0010
1000
,
0001
0010
0001
1000
0100
0010
0001
1000
0010
1000
0001
0100
0010
1000
0001
0100
,
0001
0010
0100
1000
0100
0010
0001
1000
0100
1000
0010
1000
0001
0100
0010
0100
,
0001
1000
0100
0010
0001
1000
0100
1000
0001
0100
0010
1000
0001
0100
0001
0010
,
0100
1000
0001
1000
0010
0100
0001
1000
0100
1000
0001
0100
0001
1000
0100
0010
,
0100
1000
0001
0010
0001
1000
0100
1000
0001
0100
0010
1000
0001
0100
0001
1000
,
0100
0000
0010
0001
1000
0000
0011
0000
0100
1000
0010
0000
0101
0000
0110
0000
,
0000
0000
0000
0000
1000
0010
1000
0001
0100
0000
0010
0000
1000
0100
1000
0001
,
0100
0010
1000
0001
0010
0001
1000
0100
1000
0001
0100
0010
1000
0001
0010
0001
,
1000
0100
0010
0001
1000
0010
1000
0001
0100
0001
1000
0100
1000
0001
1000
0010
,
0100
0001
1000
0100
0010
0001
1000
0100
1000
0001
0010
0001
0100
0010
1000
0001
,
0100
0001
0010
0100
1000
0100
0010
0100
1000
0001
0010
0001
0100
0010
1000
0001
,
0100
0010
0100
0001
1000
0100
1000
0001
0010
0001
1000
0010
0100
0001
1000
0001
,
0010
0100
1000
0000
0020
0000
0130
0001
1000
0001
0100
0000
0020
0000
1030
0001
,
1000
0000
0000
0100
0000
0000
0010
0000
0000
0000
0000
0000
0011
0000
0000
0000
0000
0000
0000
0000
1001
0000
0000
0000
0000
0000
0000
0000
1010
0000
0000
0000
0000
0000
0000
0000
1000
0000
0000
0000
0000
0000
0000
0000
0000
0000
0000
0000
,
0001
0100
0010
1000
0001
0100
0001
0010
0100
1000
0001
0010
0001
1000
0100
1000
,
0001
1000
0010
0100
0001
1000
0100
1000
0001
0010
0001
0100
0010
1000
0001
0100
,
0010
0100
0001
1000
0100
0010
0001
1000
0100
1000
0001
0010
0001
0100
0010
1000
,
0001
0100
0001
1000
0100
0010
0100
1000
0001
0010
0001
1000
0010
0100
0001
1000
,
0100
0010
0001
0000
1100
0000
0010
0100
0001
0000
1010
0000
0100
0001
1000
0000
,
0110
0000
0001
1000
0010
0000
0101
0000
0010
1000
0100
0000
0010
0001
0400
0000
,
0310
1000
0001
0100
0010
1000
0001
0100
0001
0010
0100
1000
0001
0010
0001
0100
,
0010
1000
0010
0100
0001
0100
0010
1000
0001
1000
0100
0010
0001
0000
0000
0000
,
1001
1000
0010
0100
0002
1003
0100
1000
,
0002
0013
0001
0100
0040
1030
0001
0100
,
0020
0130
0001
1000
0100
0010
0001
1000
,
0100
1000
0001
0100
0010
1000
0002
0203
,
0302
0013
0100
1000
0001
0010
0001
1000
,
0400
0310
0001
1000
0100
1000
0010
1000
,
0004
0103
0010
0100
0004
1003
0100
0010
,
0001
0000
1000
0000
0020
0000
0230
0000
0302
0000
2003
0000
3100
0000
0020
0030
,
0021
0030
0001
0000
1000
0000
0010
0000
0100
0000
0001
0000
1000
0100
0010
0001
,
0200
0310
1010
1001
0001
0010
0100
1100
,
1000
1010
0010
0100
0001
1000
1100
0110
,
0010
0001
1000
1010
0010
0100
0101
0001
,
1000
0000
1010
0000
0010
0000
0100
0000
0101
0000
0001
1000
0010
1000
0001
0010
,
0200
0000
1300
0000
1010
0000
0010
0000
0100
0000
0101
0000
0001
1000
0100
1000
,
0020
0130
0001
1001
1000
0100
0110
0010
,
0001
1000
0010
0100
0020
2030
3002
2003
,
3100
0010
0001
1000
0001
0100
0010
1000
0001
0100
0001
0010
,
0100
1000
0001
0010
0001
1000
0100
1000
0001
0100
0010
1000
,
0001
0010
0001
1000
0100
0010
0001
1000
0100
1000
0010
0100
,
0001
1000
0100
1000
0001
0100
0001
0010
0100
1000
0001
1000
,
0010
0100
0010
0100
0001
1000
0010
0100
0010
1000
0001
0100
,
0010
1000
0010
0100
0001
1000
0100
0010
0100
1000
0001
1000
,
0100
0010
0001
1000
0001
0100
0010
1000
0001
0100
0001
1000
,
0040
0000
0000
0000
,
0130
0000
0100
0000
,
0000
0000
0000
0000
,
0000
0000
0000
0000
,
0000
0000
0000
0000
,
0001
0010
0100
1000
0001
1000
0010
0100
0001
1000
0100
1000
0010
0100
0001
1000
,
0001
0010
0100
1000
0001
0010
0001
0100
0010
1000
0001
0100
0010
0100
0001
1000
,
0100
0010
0001
1000
0100
1000
0010
1000
0001
0100
0010
1000
0001
0100
0001
0010
,
0100
1000
0001
1000
0010
0100
0001
1000
0100
1000
0001
0100
0010
1000
0001
0100
,
0010
0100
0001
1000
0100
1000
0010
1000
0001
0100
0010
1000
0001
0010
0001
1000
,
0100
1000
0001
1000
0010
0100
0001
1000
0100
0010
0100
1000
0001
1000
0010
0100
,
0001
1000
0010
1000
0001
0010
0100
1000
0001
1000
0010
0100
,
0001
1000
0001
1000
0100
0000
0010
0000
0001
0000
1000
0000
0010
0000
0100
0000
0010
0000
1000
0000
0100
0000
1000
0000
,
0M01
0010
0001
1000
0010
0100
0001
1000
0100
1000
0001
0100
0010
1000
0001
0100
,
0010
0100
0001
1000
0100
1000
0001
1000
0010
0100
0001
0100
0010
1000
0001
0010
,
0001
1000
0001
0100
0010
0100
0001
1000
0100
0010
0100
1000
0001
1000
0010
0100
,
0001
0100
0010
1000
0001
0100
0001
1000
0100
0010
0001
1000
0100
1000
0001
0010
,
0001
0100
0010
1000
0001
0100
0010
0100
0001
1000
0100
0010
0001
1000
0100
1000
,
0001
0100
0010
0100
0001
1000
0100
0010
0100
1000
0001
0010
0001
0100
0010
1000
,
0001
0010
0100
1000
0001
1000
0010
0100
0001
0100
0010
1000
,
0001
0000
0000
0100
0000
0000
0001
0000
0000
0000
0000
0000
1000
0000
0000
0000
0010
0000
0000
0000
1000
0000
0000
0000
0002
0000
0000
0000
0000
0000
0000
0000
0000
0000
0000
0000
0000
0000
0000
0000
0000
0000
0000
0000
0000
0000
0000
0000
,
1003
0100
0010
0001
1000
0001
0100
0010
1000
0001
0100
0001
,
0010
0100
1000
0001
0010
0001
0100
0010
1000
0001
0100
0010
,
0100
0001
1000
0100
0010
0001
1000
0100
1000
0001
0100
0010
,
0100
0000
0001
0000
1000
0000
0010
0000
1000
0000
0001
0000
0100
0000
0010
1000
0010
0000
0100
0001
0100
0000
0001
1000
,
0001
0000
0000
0000
0000
0000
0000
0000
0000
0000
0010
0000
0000
0000
0000
0000
0000
0000
0000
0100
0000
0000
0000
0000
0000
0000
0000
0000
0000
1000
0000
0000
0000
0000
0000
0000
0000
0000
0001
0000
0000
0000
0000
0000
0000
0000
0000
0000
1000
0000
0000
0000
0000
0000
0000
0000
0000
0000
0010
0000
0000
0000
0000
0000
0000
0000
0000
0100
0000
0000
0000
0000
0000
0000
0000
0000
0000
0001
0000
0000
0000
0000
0000
0000
0000
0000
1000
0000
0000
0000
0000
0000
0000
0000
0000
0000
0010
0000
0000
0000
0000
0000
0000
0000
0000
0000
0000
0000
0000
0000
0000
0000
0000
0000
0000
0000
0000
0000
0000
0000
0000
0000
0000
0000
0000
0000
0000
0000
0110
0000
0000
0000
0000
0000
0000
0000
0000
0000
0000
0000
0000
0000
0000
0000
0000
0000
0000
0000
0000
0000
0000
0000
0000
0000
0000
0000
0000
0000
0000
0000
0101
0000
0000
0000
0000
0000
0000
0000
0000
0000
0000
0000
0000
0000
0000
0000
0000
0000
0000
0000
0000
0000
0000
0000
0000
0000
0000
0000
0000
0000
0000
0000
,
0001
0000
0000
0000
0000
0000
0000
0000
0000
0000
1000
0000
0000
0000
0000
0000
0000
0000
0000
0010
0000
0000
0000
0000
0000
0000
0000
0000
0000
1000
0000
0000
0000
0000
0000
0000
0000
0000
0001
0000
0000
0000
0000
0000
0000
0000
0000
0000
0100
0000
0000
0000
0000
0000
0000
0000
0000
0000
0010
0000
0000
0000
0000
0000
0000
0000
0000
0100
0000
0000
0000
0000
0000
0000
0000
0000
0000
0001
0000
0000
0000
0000
0000
0000
0000
0000
1000
0000
0000
0000
0000
0000
0000
0000
0000
0000
0010
0000
0000
0000
0000
0000
0000
0000
0000
0000
0000
0000
0000
0000
0000
0000
0000
0000
0000
0000
0000
0000
0000
0000
0000
0000
0000
0000
0000
0000
0000
0000
0110
0000
0000
0000
0000
0000
0000
0000
0000
0000
0000
0000
0000
0000
0000
0000
0000
0000
0000
0000
0000
0000
0000
0000
0000
0000
0000
0000
0000
0000
0000
0000
1010
0000
0000
0000
0000
0000
0000
0000
0000
0000
0000
0000
0000
0000
0000
0000
0000
0000
0000
0000
0000
0000
0000
0000
0000
0000
0000
0000
0000
0000
0000
0000
,
1000
0001
1000
0010
0100
0001
1000
0100
1000
0001
0010
0001
0100
0010
1000
0001
,
0020
0030
0210
0300
2100
3000
1002
0003
,
2000
0000
0000
0000
,
0000
0000
0000
0000
,
0000
0000
0000
0000
,
0000
0000
0000
3000
0000
0000
0000
0000
0000
0000
00M0
0000
0000
0M00
0000
0000
0000
0000
0000
0000
0000
0000
0000
0000
;
