#TITLE:They Call Me Sonic;
#SUBTITLE:;
#ARTIST:Arcade;
#TITLETRANSLIT:;
#SUBTITLETRANSLIT:;
#ARTISTTRANSLIT:;
#CREDIT:owenviau1;
#BANNER:;
#BACKGROUND:;
#LYRICSPATH:;
#CDTITLE:;
#MUSIC:They Call Me Sonic.ogg;
#OFFSET:-0.480;
#SAMPLESTART:80.999;
#SAMPLELENGTH:29.999;
#SELECTABLE:YES;
#BPMS:0.000=166.914;
#STOPS:;
#BGCHANGES:;
// cache tags:
#FIRSTBEAT:4.000;
#LASTBEAT:288.000;
#SONGFILENAME:Songs/owenviau1 Simfiles 07_final/They Call Me Sonic - [Braeden47] v1.0/They Call Me Sonic.sm;
#HASMUSIC:1;
#HASBANNER:0;
#MUSICLENGTH:303.523;
// end cache tags

//---------------dance-single - ----------------
#NOTES:
     dance-single:
     :
     Challenge:
     14:
     0.408,0.403,0.016,0.013,0.600,857.000,5.000,4.000,0.000,0.000:

0000
0000
0000
0000
,
0001
0001
0000
0000
0000
0100
0010
1000
,
0010
0100
0001
0010
0000
0100
1000
0100
,
0010
0100
1000
0100
0010
0000
0000
0000
,
0000
0001
0100
0010
,
1000
0010
0000
0000
0000
0000
0001
1000
,
0001
0100
0001
0010
0000
0000
0000
0001
,
0100
0001
1000
0001
0000
0000
0000
0000
,
0010
0010
0000
0100
0000
1000
0000
0100
,
0010
0100
0000
0010
0000
0001
0000
0100
,
0010
1000
0000
0001
0000
0100
0000
0010
,
1000
0010
0100
0001
0000
0010
0000
0100
,
1000
0000
0100
0000
0000
0000
0010
0000
0001
0100
0010
1000
0001
0010
0100
1000
,
0001
0100
0010
1000
0100
0010
0100
1000
0001
0100
0010
1000
0001
0010
0100
1000
,
0001
0100
0010
0100
0001
0010
0100
1000
0100
0010
0001
0100
0010
1000
0001
0100
,
1001
0000
0001
0000
1000
0010
0100
0001
,
1000
0001
0100
0010
1000
0100
0010
0100
1000
0001
0010
0100
1000
0001
0100
0010
,
1000
0100
0010
0001
0010
0100
1000
0001
0100
0010
1000
0100
0010
0001
0010
0100
,
1000
0001
0100
0010
0100
0001
0010
0001
1000
0100
1000
0001
0100
0010
1000
0001
,
0010
0100
1000
0100
0010
0001
1000
0010
0100
0001
0100
0001
1000
0010
1000
0001
,
0100
0010
0100
0001
0010
0100
1000
0100
0010
0001
0100
0010
0100
0001
0010
0100
,
1000
0100
0010
0001
0010
0100
1000
0001
0100
0010
1000
0100
0010
0001
0100
0010
,
1000
0001
0010
0100
1000
0001
0100
0010
0100
0001
0010
0100
1000
0100
0010
0001
,
0100
0010
0100
0001
0010
0100
1000
0001
0100
0010
0100
0001
0010
0100
1000
0001
,
1001
0000
0001
0000
0000
0100
0000
0100
,
0000
0100
0000
0010
1000
0010
1000
0010
,
1000
0000
0001
0000
0000
0001
0000
0001
,
0000
0001
0000
0100
0110
1000
0001
0100
,
0010
1000
0100
0010
0100
0010
0001
0100
0010
1000
0001
0010
0100
1000
0100
0010
,
0001
0100
0010
0100
0001
0010
0100
1000
0100
0010
0001
0100
0010
0100
0001
0010
,
0100
1000
0100
0010
0001
0010
0100
0010
0001
0010
0100
1000
0001
0100
0010
1000
,
0001
0010
0001
1000
0100
1000
0001
0100
0001
1000
0010
1000
0001
0100
0010
1000
,
0100
0010
0001
0010
0100
1000
0001
0100
0010
1000
0100
0010
0100
1000
0001
0010
,
0100
1000
0001
0100
0010
1000
0100
0010
0100
1000
0001
0100
0010
1000
0001
0100
,
0010
1000
0001
0010
0001
1000
0100
0010
0100
1000
0001
0100
0010
1000
0100
0010
,
0100
1000
0001
0010
0100
1000
0100
0010
0001
0100
0010
1000
0100
0010
0001
0010
,
0100
1000
0001
0100
0010
1000
0010
0100
0001
1000
0001
0100
0010
1000
0001
0010
,
0100
1000
0001
0100
0001
0100
0010
1000
0100
0010
0001
0010
0100
1000
0001
0100
,
0010
1000
0100
0010
0100
1000
0001
0010
0100
1000
0100
0010
0100
1000
0001
0100
,
0010
0100
0001
0010
0100
1000
0001
0010
0001
1000
0010
0100
0001
0100
0010
1000
,
0100
0010
0100
1000
0001
0100
0010
1000
0001
0010
0100
1000
0100
0010
0001
0100
,
0010
1000
0001
1000
0010
1000
0001
1000
0001
1000
0010
1000
0001
1000
0010
1000
,
0001
0100
0001
1000
0010
1000
0100
0010
0001
0100
0010
1000
0001
0100
0010
1000
,
0100
0010
0100
1000
0001
0010
0100
1000
0001
0100
0010
1000
0100
0010
0100
1000
,
0001
0100
0010
1000
0100
0010
0001
0010
0100
1000
0001
0100
0010
1000
0001
0010
,
0100
1000
0100
0010
0001
0100
0010
1000
0001
0100
0010
0100
0001
1000
0100
1000
,
0001
0100
0010
0100
0001
0010
0100
1000
0001
0100
0010
1000
0100
0010
0001
0100
,
0010
1000
0001
0100
0010
1000
0001
0100
0010
1000
0100
0010
0001
0010
0100
1000
,
1001
0020
0230
0302
,
0013
0100
0000
0000
0000
1000
0001
0100
,
0001
1000
0001
0100
0000
0010
1000
0010
,
0100
0001
0010
0002
0000
0000
0000
0000
,
0103
0010
1000
0100
0010
0001
0010
0100
1000
0001
0100
0010
1000
0100
0010
0100
,
1000
0001
0010
0100
1000
0100
0010
0100
1000
0001
0100
0010
1000
0100
0010
0100
,
1000
0001
0100
0010
0100
0001
0010
0100
1000
0100
0010
0100
1000
0001
0100
0010
,
1000
0010
0100
0001
,
1000
0010
0100
0001
1000
0100
0010
0001
0010
0100
1000
0001
0100
0010
1000
0100
,
0010
0100
1000
0001
0010
0100
1000
0100
0010
0001
0100
0010
0100
0001
1000
0010
,
1000
0100
1000
0001
0100
0010
0100
0001
0010
0100
1000
0100
0010
0001
0100
0010
,
0100
0001
0100
0010
1000
0100
0010
0100
1000
0001
0100
0010
1000
0001
0010
0100
,
1000
0100
0010
0100
1000
0001
0100
0010
0100
0001
0010
0001
0100
0010
0100
0001
,
0010
0100
1000
0100
0010
0100
1000
0001
0100
0010
1000
0100
0010
0001
0010
0100
,
1000
0001
0100
0010
1000
0100
0010
0001
0100
0010
1000
0001
0010
0100
1000
0100
,
0010
0001
0100
0010
1000
0100
0010
0001
0100
0010
0100
0001
0100
0010
0100
0001
,
1001
0010
0000
0100
0000
0001
0000
0010
,
0001
0010
0000
0001
0000
0100
0000
0010
,
1000
0010
0000
0100
0000
0001
0000
0010
,
0001
0100
0001
0010
0000
0001
0000
1000
,
0001
0010
0100
1000
0100
0010
0001
0100
0010
1000
0100
0010
0100
1000
0001
0010
,
0100
1000
0001
0100
0010
0100
0001
0010
0100
1000
0100
0010
0100
1000
0001
0010
,
0100
1000
0100
0010
0001
0100
0010
0100
0001
0010
0100
1000
0100
0010
0001
0100
,
0010
0100
0001
0010
0100
1000
0100
0010
0001
0100
0010
0100
0001
0010
0100
1000
,
0100
0000
0000
0000
;
