#TITLE:Tainted Lovers;
#SUBTITLE:;
#ARTIST:COIL;
#TITLETRANSLIT:;
#SUBTITLETRANSLIT:;
#ARTISTTRANSLIT:;
#CREDIT:;
#BANNER:Tainted Lovers-banner.png;
#BACKGROUND:Tainted Lovers-bg.jpg;
#LYRICSPATH:;
#CDTITLE:nemesis-cdtitle.png;
#MUSIC:COIL - Tainted Lovers.mp3;
#OFFSET:-4.862;
#SAMPLESTART:26.500;
#SAMPLELENGTH:12.000;
#SELECTABLE:YES;
#BPMS:0.000=220.000;
#STOPS:;
#BGCHANGES:;
// cache tags:
#FIRSTBEAT:3.500;
#LASTBEAT:870.000;
#SONGFILENAME:Songs/Community Keyboard Megapack - Volume 1/(Darth Nemesis) Tainted Lovers/Tainted Lovers.sm;
#HASMUSIC:1;
#HASBANNER:1;
#MUSICLENGTH:244.062;
// end cache tags

//---------------dance-single - ----------------
#NOTES:
     dance-single:
     :
     Hard:
     9:
     0.657,0.757,0.455,0.160,0.014,972.000,111.000,39.000,0.000,0.000:
0000
0000
0000
0000
,
1100
0101
1010
0110
,
0000
0000
0000
0000
,
0000
0000
1000
0001
0000
0001
0100
0000
,
1010
0000
0101
0000
0001
0010
0100
1000
,
0100
0000
0010
0001
0000
0100
0010
0000
,
1001
0000
1100
0000
0010
0001
0100
0010
,
1000
0000
0010
0100
0000
0001
0100
0000
,
0110
0000
1100
0000
1000
0010
0100
0010
,
0100
0000
1000
0001
0000
0100
0010
0000
,
1010
0000
0011
0000
0010
0100
1000
0000
,
0100
0110
0001
1001
,
0110
0000
1000
0000
0001
0010
0100
1000
,
0001
0000
0100
0010
0000
1000
0001
0000
,
0110
0000
1001
0000
0100
0010
1000
0001
,
0010
0000
0100
1000
0000
0001
0100
0000
,
0101
0000
0110
0000
1000
0100
0010
0001
,
0010
0000
0100
0010
0000
0100
1000
0000
,
0101
0000
1010
0000
,
1100
0000
0000
0001
1000
0001
1000
0010
,
0110
0000
1000
0001
0010
0100
1000
0001
,
0100
0010
1000
0001
0010
0000
0100
1000
,
0000
0000
0001
0100
0010
1000
0001
0010
,
0100
1000
0001
0100
0010
1000
0001
0010
,
0000
0000
0001
0000
1000
0000
0010
1000
,
0100
0000
0100
0000
0010
0001
0010
0000
,
1000
0100
0001
0000
0100
0001
0010
0000
,
0001
0010
1000
0000
0010
0001
0100
0010
,
1000
0000
0001
0010
0100
0000
1000
0000
,
0001
0000
0100
0010
1000
0000
0001
0000
,
0100
1010
1100
0001
,
1000
0100
0010
0001
1000
0100
0000
0100
,
0000
0001
0010
0100
1000
0000
0110
0000
,
0110
0000
1000
0001
0010
0000
1100
0000
,
1100
0002
0023
0230
,
2300
0000
0000
0000
3020
0000
0000
0100
,
0030
0001
1000
0100
,
0010
0001
0100
0010
,
1000
0001
0010
0100
,
0010
0000
0001
0000
0100
0010
0100
0000
,
0010
1000
0001
0010
,
0100
1000
0001
0010
,
0100
1000
0001
0010
0100
1000
0001
0100
,
0010
0000
1000
0001
0010
0001
0000
1100
,
0000
0000
0000
1000
0101
0000
0000
0000
,
0010
1000
0000
1000
0001
0000
0000
0000
,
0010
0100
0000
0100
1000
0000
0001
0000
,
0200
0000
0300
0020
0000
0030
2000
0000
,
3002
0000
0003
0010
0100
0000
0000
0000
,
1000
0100
0000
0100
0010
0000
1000
0001
,
0010
0100
0000
0100
1000
0000
0010
1000
,
0001
0001
0001
0001
,
2010
0000
3000
0002
0000
0003
0020
0000
,
0230
0000
0300
2000
0000
3000
0002
0000
,
0203
0000
0300
0020
0000
0030
2000
0000
,
3002
0000
0003
0020
0000
0030
0200
0000
,
2300
0000
3100
0000
0010
0000
0000
0001
,
0010
0001
0000
0001
0010
0000
0000
0001
,
1000
0100
1000
0100
1000
0100
1000
0100
,
0010
0001
0010
0001
0010
0100
1000
0100
,
1000
0001
0100
0010
,
1000
0001
0010
0100
,
1000
0001
0100
0010
,
0001
0000
1000
0000
0100
0010
0000
0010
,
0000
0100
0001
1000
,
0100
0010
0001
0100
,
0010
1000
0001
0010
,
0100
0000
1000
0000
0001
0100
0000
0100
,
0000
0000
1000
0001
0010
0000
0010
0100
,
1000
0000
1000
0001
0100
0000
0100
0010
,
1000
0000
1000
0100
0010
0000
0010
0001
,
0100
0000
0100
0010
1000
0001
0010
0100
,
1000
0000
1000
0001
0010
0000
0010
0000
,
0100
0000
1000
0001
0100
0000
0010
0000
,
0100
0000
0001
1000
0010
0000
0100
0000
,
0010
1000
0001
0010
0000
0100
0000
1000
,
0000
0001
0100
0010
,
1000
0001
0010
0100
,
1000
0001
1000
0100
,
0010
0001
0011
0100
,
0110
1000
0001
0010
,
0110
1000
0001
0100
,
0010
0000
0000
1000
0000
0000
1000
0000
0001
0000
0100
0000
,
0010
0000
0000
0000
1000
0000
0000
0000
0001
0000
0000
0000
0100
0000
0000
0000
0000
0000
0000
0000
0000
0101
0000
0000
,
0000
1000
0001
0010
,
0100
1000
0001
0010
,
0001
1000
0010
1000
,
0001
0000
0100
0000
0010
0000
1000
0001
,
1000
1000
0001
0010
,
0010
1000
0001
0010
,
0100
1000
0001
0010
0100
0010
0001
1000
,
0100
0000
0010
0001
0010
0000
0102
0000
,
0000
0000
0003
0000
0100
0001
0200
0000
,
0000
0000
0000
0000
0300
0000
0010
1000
,
0020
0000
0000
0000
,
2030
0000
0000
3002
0000
0000
0203
0000
,
0310
0000
0000
1000
0010
0000
0000
0000
,
0010
0100
0000
0100
0001
0000
0000
0001
,
0100
0010
1000
0001
,
0100
0000
1000
0000
0010
0000
0100
0010
,
1000
0001
0010
0100
1000
0001
0100
0010
,
1000
0001
0010
0100
1000
0100
0010
0100
,
1000
0000
0000
0001
0100
0000
0010
1000
,
0010
1000
0000
0001
1000
0000
0010
0100
,
0010
0000
0000
1000
0001
0000
0000
0000
,
0100
0010
0000
0010
1000
0000
0000
1000
,
0001
0010
0100
1000
0100
0010
0001
0100
,
0010
1000
0100
0010
0100
1000
0001
0000
,
0101
1000
0001
0010
,
0100
1000
0001
0100
,
0010
1000
0001
0100
,
0010
1000
0001
0100
,
1010
0000
0001
1000
0001
0000
0010
0000
,
0100
0000
1000
0001
0000
0001
0100
0000
,
0101
0000
1000
0000
,
0110
0000
0001
0000
,
0100
0000
0001
0001
0200
0000
0300
0000
,
0010
0010
2000
0000
3000
0000
0100
0000
,
0002
0000
0000
0000
0003
0000
0000
0001
,
0010
0100
1000
0001
0100
0010
1000
0000
,
1001
0000
0000
0110
0000
0000
1100
0000
,
0001
1000
0010
0100
,
2002
0000
0000
0000
,
3003
0000
0100
0000
0010
0100
0010
0000
,
1000
0010
1000
0001
0100
0010
1000
0001
,
0010
0001
1000
0000
0001
0000
1000
0000
,
0001
0000
0010
0100
0010
0000
1000
0000
,
0001
0000
0100
0000
0000
0100
0010
0100
,
0000
0001
1000
0010
,
0100
0000
1000
0001
1000
0001
0100
0010
,
1000
0001
0010
0100
,
1000
0000
0000
0000
0000
0000
0000
0000
0000
0000
0000
0000
0000
0000
0001
0000
0000
0100
0000
0000
0001
0000
0000
0000
,
1000
0001
1000
0000
0010
0000
0100
0001
,
0100
0000
0010
1000
0010
0000
0100
0010
,
0100
1000
0100
0010
,
0001
0000
0100
0000
0010
0000
1000
0001
,
0100
0010
0100
1000
,
0001
0100
0000
0000
0010
0000
0000
0000
,
1000
0001
0100
0000
0010
1000
0010
0000
,
0100
0001
0100
0000
1010
1000
0000
0000
,
0101
1000
1100
1000
,
0011
0001
1100
0100
,
0110
0000
0100
0000
1000
0001
0010
0100
,
1000
0001
0100
0010
1000
0010
0100
0020
,
0000
0000
0000
0030
1000
0000
0001
0100
,
0000
0000
0000
0000
0010
1000
0010
1000
,
0000
0001
0100
0002
0000
0000
0000
0000
,
1003
0010
0100
0001
,
1100
1000
1000
1000
,
0011
0001
0001
0001
,
0101
0100
0100
0100
,
1010
0010
0010
0010
,
1000
1100
0001
0011
,
0100
0101
0010
1010
,
1000
0001
0100
0010
1000
0001
0010
0100
,
1000
0001
0100
0010
1000
0001
0010
0000
,
0001
1000
0000
1000
0001
0000
0001
0100
,
0000
0100
0010
0000
0010
0000
0000
0000
,
0010
1000
0000
1000
0001
0000
0001
0010
,
0000
0010
0100
0000
0100
0000
1000
0000
,
1001
0001
0100
0010
,
1000
0000
0011
0000
0000
0110
0000
0000
,
1100
0000
0000
1001
0000
0000
0000
0000
,
0001
1000
0001
0010
,
1100
1100
1001
0000
,
0100
0010
0000
0010
1000
0000
0000
0000
,
0001
0010
0110
0000
,
0100
0010
0000
0010
0001
0000
0000
0000
,
1000
0010
0101
0000
,
0001
1000
0000
1000
0010
0000
0100
0000
,
0001
1100
1100
1100
,
1100
1100
1100
1001
,
0001
0100
0010
1000
0100
0010
0100
0010
,
0001
0010
0100
0010
0100
1000
0100
1000
,
0001
0010
0100
1000
0100
0010
0001
1000
,
0100
0010
0001
0000
0100
0000
0001
0000
,
0101
0000
1100
0000
,
0100
0000
0010
0000
0001
0010
0001
0000
,
0100
1000
0001
0100
,
0010
0000
1000
0000
0010
0100
0010
0000
,
1000
0000
0001
0000
0010
0000
0100
1000
,
0000
0001
0100
0010
,
1000
0001
0101
0000
,
1010
1000
0001
0010
,
0011
0000
0110
0000
,
1001
0000
0101
0000
,
1010
1000
0001
1000
,
0000
0000
0100
0000
1000
0001
1000
0000
,
0010
1000
0010
1000
0010
1000
0010
0000
,
0001
0100
0001
1000
0001
0010
0001
0000
,
0001
1000
0010
1000
0100
1000
0100
0000
,
0001
0100
0010
1000
0010
1000
0010
0000
,
0001
0010
0100
0000
1000
0001
0100
0000
,
0010
1000
0001
0000
0010
0100
1000
0000
,
0001
0100
0010
0000
1000
0001
0010
0000
,
0100
1000
0001
0000
0100
0010
1000
0000
,
1001
1000
0110
0000
,
0101
0000
1100
0000
,
1001
0010
0110
0000
,
0101
0000
1010
0000
,
1100
0000
0010
0001
1000
0000
1000
0010
,
0000
0001
0100
0000
0010
1000
0000
0001
,
0010
0000
0100
1000
0000
0001
0100
0000
,
1000
1100
0001
0101
,
1000
0000
0001
1000
0001
0000
1010
0000
,
1010
0000
0100
0001
0100
0000
0011
0000
,
0011
0000
0010
0001
0010
0000
0101
0000
,
0101
0000
1000
0010
1000
0000
0001
0000
,
0110
0000
1001
0000
,
0110
0000
1001
0000
,
0110
0000
1100
0000
,
0110
0000
1001
0000
,
0220
0000
0000
0000
,
0000
0000
0000
0000
,
0000
0000
0000
0000
0000
0030
0000
0002
,
0000
0000
0000
0000
,
0000
0300
0000
0000
0000
0000
0000
2000
,
0000
0000
3003
0000
;

//---------------dance-single - ----------------
#NOTES:
     dance-single:
     :
     Challenge:
     10:
     1.000,1.000,0.770,0.623,0.608,1392.000,188.000,152.000,0.000,1.000:
0000
0000
0000
0000
0000
0000
0000
0000
0000
0000
0000
0000
0000
0000
1000
0001
,
1000
0000
0110
0010
1100
0001
0110
0000
,
0000
0000
0000
0100
0001
0010
0000
1000
0010
0100
0001
0010
,
0100
0000
1000
0000
0010
0000
0101
0000
0010
0000
1100
0000
0000
0000
0000
0001
0000
0000
0110
0000
0000
0000
0000
0000
,
1001
0000
1000
1000
0010
0001
1000
0010
,
0101
0000
0001
1100
0000
1000
0101
0000
,
0011
0000
0100
0100
1000
0001
0010
0100
,
1100
0000
0001
0101
0000
1000
1010
0000
,
1010
0000
0001
0001
0010
1000
0100
0001
,
1100
0000
1000
0011
0000
0010
1001
0000
,
0110
0000
0100
0100
0001
1000
0010
0100
,
0001
0010
0100
1000
0000
0000
1000
0100
0010
0001
0000
0000
,
1001
0000
0001
0010
0001
0010
0100
1000
,
0110
0000
1000
0101
0000
0001
1100
0000
,
0101
0000
0001
0010
0100
1000
0001
0100
,
1010
0000
1000
0011
0000
0001
1100
0000
,
1001
0000
0001
0100
0010
1000
0001
0010
,
1100
0000
0010
0101
0000
1000
0110
0000
,
0001
0010
0100
1000
0100
0010
0001
0010
0100
1000
0100
0010
,
1001
0000
0000
0000
0000
0001
1000
0000
0001
0000
0100
0000
0010
0000
1000
0000
,
0110
0000
1000
0001
0100
0010
1000
0001
,
0010
0100
2000
3002
0203
0300
0020
2030
,
3000
0000
0001
0100
0001
0100
0010
1000
,
0100
0010
0001
0010
0200
2300
3002
0203
,
0000
0000
0000
0000
0000
0000
0001
0000
0000
0000
0000
0000
0010
0000
0000
0300
0000
0000
0010
0000
1000
0000
0001
0000
,
0020
0000
0001
0000
1000
0001
1030
0000
,
1000
0001
0010
0100
1000
0001
0100
0010
1000
0001
0010
0100
,
1000
0100
0010
0100
1000
0001
0010
0100
0010
0100
1000
0100
,
0010
0001
0100
0001
0100
0000
1010
0000
,
0000
0001
0010
0100
0001
0000
0101
0000
,
0000
0110
1100
0011
,
0100
1000
0010
0001
0010
0100
0000
1000
,
0000
0100
0001
0100
0020
0000
0100
0000
,
0130
0000
0000
1000
0001
0010
0200
0000
0000
0010
0000
0000
,
0310
1001
0110
1001
,
0022
0000
0033
0000
0220
0330
0000
2100
,
0000
0001
0100
0001
,
0010
0000
0001
0000
0100
0000
0010
3000
,
0001
0010
0100
1000
,
0010
0100
0001
0100
,
1000
0001
0100
0010
1000
0001
0100
0010
,
1000
0001
0100
0010
1000
0001
0100
0010
,
1000
0100
0010
0001
1000
0000
0001
0010
,
0100
1001
0010
1001
0100
1001
0000
0102
,
0000
0000
0000
0100
0010
0100
1000
0000
0000
0000
0000
0000
,
1000
0100
0000
0100
1000
0000
0000
0000
,
1000
0010
0000
0010
0100
0000
0100
0003
,
0200
0301
1000
0100
0020
0130
1000
0001
0010
0200
1300
0010
,
0002
0000
0000
0000
0000
0100
1000
0000
0000
0000
0000
0000
,
0010
1000
0000
1000
0100
0000
0010
0100
,
2003
0000
0000
0100
0000
0000
3000
0000
0000
0002
0000
0000
1000
0000
0000
0003
0000
0000
0200
0000
1000
0300
0010
0000
,
0002
0010
0100
1003
0200
0010
0001
0310
1000
0002
1000
0010
,
0203
0000
0300
0020
0001
0030
2000
0100
,
3002
0010
0003
0200
0010
0300
2000
0000
,
3020
0000
0030
2000
0100
3000
0002
0000
,
0023
0100
0030
0200
1000
0300
2000
0100
,
3020
0000
0000
0100
1000
0000
0000
0000
,
0001
0100
0000
0100
1000
0000
0000
0100
,
1000
0100
0001
0100
1000
0100
0001
0100
,
1000
0000
0100
0000
1000
0000
0001
0000
0000
0100
0000
0000
1000
0000
0000
0100
0000
0000
0031
0000
0000
0100
0000
0000
,
1001
0101
1100
0011
,
0101
1010
1100
0101
,
1010
0110
1001
0110
,
1001
0000
0110
0000
1001
1001
0000
0101
,
0000
0101
1010
1100
,
0011
1100
0101
1010
,
1001
0110
1001
0110
,
1100
0000
0011
0000
1100
0110
0000
0110
,
0000
0000
1000
0100
0001
0100
1000
0010
,
0200
0001
0010
0001
1000
0010
0001
1000
,
0320
0001
0100
1000
0001
0100
1000
0100
,
0001
0100
1030
0100
2000
0100
0010
3002
,
0100
0003
2000
0010
,
3020
0100
0230
0001
,
0302
0100
0103
1010
,
1000
0000
0010
0000
0001
0000
0100
0000
0000
1000
0000
0000
0000
0000
0000
1000
0000
0000
0000
0000
0000
0002
0000
0000
,
0000
0000
0023
0000
,
0230
0000
0320
0000
,
2030
3002
0023
0230
,
2300
0000
3002
0000
,
0103
1000
0100
0010
0100
1000
0100
0010
0001
0010
0100
0010
,
0002
0010
0100
1000
,
0100
0000
0000
0010
0000
0003
2000
0000
3002
0000
0203
0000
,
0320
0000
0000
0000
2030
0000
0000
0000
3002
0000
0000
0000
0023
0000
0000
0000
0000
0000
0000
0000
0000
0200
0030
0000
,
0000
0000
0010
0000
0001
0000
0010
0300
,
1000
1001
0100
0011
,
0100
1010
0001
0110
,
1000
0000
0101
0000
0100
0000
0010
0001
,
0100
0110
0001
1010
,
0100
0011
1000
0101
,
0001
0010
0100
1000
0100
0001
0010
0001
,
1000
0010
0100
0010
0100
0000
2002
0000
,
0000
0000
3003
0100
1001
0000
0000
0000
,
0001
1000
0000
0100
0001
0100
0010
0000
,
1000
0000
0000
1000
0011
0000
0000
0000
,
1100
0000
0000
0000
0001
0010
1000
0100
0011
0000
0000
0000
0000
0000
0000
0000
,
1001
0000
0000
0001
0100
0000
0000
0000
,
0100
0010
0000
0010
0100
0001
0100
1001
,
1001
0000
0000
0000
0000
0000
0000
0000
0000
0000
0000
0000
0000
0000
0000
0000
0000
0000
1000
0000
0000
0001
0000
0000
0110
0000
0000
0000
0000
0000
0000
0000
0000
0000
0000
0000
0010
0000
0000
0000
0100
0000
0000
0000
1000
0000
0000
0000
,
0010
0001
0010
0100
1000
0100
0010
0001
1000
0010
0100
0001
,
1000
0010
0100
0001
0010
0100
1000
0100
,
1000
0000
0100
0000
0010
0000
0100
0000
0001
1000
0001
1000
0010
0100
0010
0100
,
0010
1000
0001
0000
0000
0100
0010
0100
1001
0000
0000
0000
0000
0000
0000
0000
,
1010
0100
0000
0010
0101
0000
0011
0100
,
1001
0000
0000
0100
0011
0000
0000
0000
,
1100
0001
0000
0010
0101
0000
0000
0001
,
1000
0001
1000
0010
0100
0010
0100
0001
,
1000
0000
0010
0100
1000
0000
0001
0000
0100
0000
0001
0000
0100
0000
0010
0000
,
1001
0100
0110
1000
,
2001
3010
0110
1000
,
1100
0010
0011
0001
,
0101
0100
1010
1000
,
1100
0000
0001
0100
0010
1000
0001
0010
,
0200
0000
1300
0001
0000
0100
0001
0000
,
1001
0000
0000
0010
0001
0100
1000
0000
0000
0000
0000
0000
,
2002
3003
0101
0000
,
1001
0000
0010
0010
0200
0000
0300
0000
,
1000
1000
0002
0000
0003
0000
0200
0000
,
0020
0000
0000
0000
0330
0000
0000
1000
,
0001
0010
0100
1000
0001
0100
0010
1000
,
0001
0100
0001
0000
0000
1000
0100
1000
0000
0000
0001
0100
0001
0000
0000
0000
,
0100
0001
1000
0010
0100
0001
0010
0100
1000
0001
0100
0010
,
2000
0001
0100
0001
,
3100
0000
1010
0000
0100
0001
1000
0100
,
0010
0001
0100
0010
0001
0010
1000
0100
0001
0010
0100
1000
,
0001
0100
0010
2000
0000
0000
0001
0000
0000
0010
0000
0000
,
3001
0000
0000
1000
0100
0001
0020
0000
0000
0100
0000
0000
,
0230
0000
0001
0300
0000
0100
0001
0200
,
0010
1000
0010
0001
,
1300
0000
0000
0000
0000
0000
0010
0000
1000
0000
0001
0000
0100
0000
0000
0001
0000
0000
0010
0000
0000
0100
0000
0000
,
1000
0001
0100
0010
,
2000
0000
0000
0000
0000
0000
0000
0000
0000
3000
0000
0000
0000
0000
0010
0000
0000
1000
0000
0000
0010
0000
0000
0000
,
0101
0101
0101
0000
1010
0000
0011
0011
,
0011
0000
1100
1100
1100
0000
1001
1001
,
1001
0000
1000
0001
0100
0001
0010
0001
,
0100
0000
0000
0001
0000
0000
1000
0000
0000
0100
0000
0000
0010
0000
0000
0000
0000
0000
0100
0000
0000
0000
0001
0000
,
1000
0001
0010
0100
1000
0001
0100
0010
1000
0001
0010
0100
,
1000
0000
0001
0000
0100
0000
0010
0000
0100
0000
0001
0000
2000
0000
0000
0000
0000
0000
0010
0000
0000
0001
0000
0000
,
0010
0001
3000
0000
0010
0100
0010
0000
,
0001
0100
0001
0000
0011
1100
0000
0000
,
0002
1003
0020
1030
,
0002
1003
0020
1030
,
0002
0000
1003
0000
0001
0010
0100
1000
,
0001
0100
0010
1000
0010
0100
0010
2002
,
0000
0003
0000
0000
3010
0000
0110
2020
,
0000
0000
3030
0000
1000
0001
0010
0200
,
0300
1000
0010
0200
0001
0010
0301
0000
,
0001
0000
0100
0001
0100
0000
0001
0000
0010
0000
0100
0000
1000
0000
0100
0000
,
0010
0000
0001
0000
0010
0000
0001
0000
0010
0000
0001
0000
0010
0001
0010
0000
,
0100
0000
0010
0000
0100
0000
0010
0000
0100
0000
0010
0000
0100
0010
0001
1000
,
0100
0000
1000
0000
0100
0000
1000
0000
0100
0000
1000
0000
0100
1000
0100
0000
,
1000
0000
0001
0000
0100
0000
0001
0000
0100
0000
0001
0000
1000
0100
0010
0001
,
1000
0000
0001
0000
0100
0010
1000
0000
0001
0000
0010
0000
0100
0001
0100
0000
,
0010
0000
0001
0000
1000
0001
0100
0000
0001
0010
0100
1000
0000
0000
0000
0000
,
0001
0010
0100
1000
0001
0100
0010
1000
0001
0010
0100
1000
,
0001
1000
0100
1000
0001
0010
0100
0010
0001
1000
0000
0000
,
0101
0101
0000
1100
1100
0000
0011
0011
,
0000
1100
1100
0000
0220
0330
0000
0000
,
0101
0101
0000
1010
1010
0000
0101
0101
,
0000
1100
1100
0000
0011
0000
0011
0000
,
1001
0000
0001
0010
0100
1000
0001
0100
0010
1000
0001
0010
,
0100
0000
1000
0000
0010
0000
0101
0000
0010
0000
0100
0000
0000
0000
0000
1001
0000
0000
0100
0000
0000
0000
0000
0000
,
0011
0100
0000
1001
0100
0000
0000
0000
,
0100
0010
0100
0010
1000
0001
0010
0100
,
1001
1100
0101
0000
,
1000
0001
0000
0001
0100
0000
0000
0000
,
0001
0010
0100
0000
,
0100
0000
0000
0001
0100
0001
0100
0000
0000
0000
0000
0000
,
1100
0011
1010
0000
,
0010
1000
0000
0100
1000
0000
0011
0000
,
1000
0110
0110
0110
,
0110
0110
0110
0110
,
1001
0010
0100
0010
1000
0001
0010
0100
1000
0001
0100
0010
,
1000
0001
0010
0100
0010
0001
0010
0100
1000
0100
0010
0001
,
1000
0100
1000
0001
0010
0100
0010
0001
0010
0100
1000
0100
,
0010
0000
0001
0000
0020
0000
0000
0000
0000
0000
0000
0000
0001
0000
0000
1000
0000
0000
0100
0000
0000
0000
0000
0000
,
0230
0302
1000
0010
,
0010
0100
2003
0100
0010
0001
0100
0000
,
0001
0010
0100
0000
0001
0010
0100
0010
,
0001
0010
3200
0000
0001
1000
0001
0000
,
2300
0010
0001
0010
3200
0001
0320
0032
,
0100
1000
0010
0100
1000
0010
0100
1000
,
0100
0010
0100
1000
0023
0100
0001
0100
,
2030
0001
0010
0001
0100
0010
0001
0010
,
3200
0010
0001
1000
0320
0001
0100
1000
,
0230
0001
0010
0001
2300
0010
0100
0010
,
3002
0010
0100
1000
0010
0100
1000
0100
,
0013
1000
0020
0000
1000
0001
1000
0031
,
2000
0001
0100
0010
0001
0100
3010
0000
,
0200
1000
0010
0001
0010
0301
1000
0000
,
0020
0100
1000
0100
0001
0100
1030
0000
,
0002
0010
0100
1000
0010
0100
1003
0000
,
1000
0100
0010
0001
0010
0100
1000
0001
0010
0001
1000
0100
,
0010
0001
0010
0100
0010
0001
0010
0100
1000
0100
0010
0100
,
1000
0001
0100
0010
1000
0001
0010
0100
1000
0001
0100
0010
,
1000
0001
0010
0001
1000
0100
1000
0100
0010
0001
0010
0100
,
2000
0100
0001
0100
3020
1000
0001
0100
,
2030
0001
0100
0010
3002
0100
0010
1000
,
0203
0010
0001
1000
0302
1000
0010
0100
,
2003
0100
0010
0001
3020
0100
0001
0100
,
2030
0000
3200
0010
0001
1000
0001
0010
,
0301
1000
0002
0010
0100
1000
0010
0100
,
2003
0100
0010
0001
0100
0010
0001
3010
,
0100
0010
0001
1100
0000
0000
0001
0010
1000
0101
0000
0000
,
1010
0000
0200
0302
2003
3000
0110
0000
,
1001
0000
0000
0000
0000
0000
0020
0000
1000
0030
0100
0000
0002
0000
0000
0003
0000
0000
0101
0000
0000
0000
0000
0000
,
1010
0000
0000
0000
0000
0000
0200
0000
1000
0300
0001
0000
0020
0000
0000
0030
0000
0000
0100
0000
0000
0000
0000
0000
,
1000
0000
0000
0000
0000
0000
2000
0000
0100
3000
0010
0000
0002
0000
0000
0000
0000
0000
0000
0000
0000
0000
0000
0000
,
2003
0100
0010
0001
0000
0100
3020
0001
0100
1000
0000
0000
,
0230
1000
0010
0001
0010
1000
0302
0000
0000
0000
0000
0000
,
2003
0000
0000
0010
0100
0010
3002
0000
0000
0000
0000
0000
,
0203
0000
0000
0010
1000
0001
0320
0000
0000
0000
0000
0000
,
2030
0100
0010
0001
0100
0010
0001
0010
0100
0001
0010
0100
,
0001
0010
0100
0010
0001
0010
0100
0010
0001
0010
0100
0001
,
0000
0010
0000
0100
0010
0000
0011
0000
0000
0100
0010
0001
,
3200
0001
0010
1000
0001
0010
1000
0010
0001
1000
0010
0001
,
0010
0000
0000
0000
1000
0000
0000
0000
0010
0000
0000
0000
0001
0000
0000
0000
0000
0000
0000
0000
0000
0000
0000
0000
0000
0000
0000
0000
0000
0000
0300
0000
0000
0000
0000
0000
1000
0000
0000
0010
0000
0000
2002
0000
0000
0000
0000
0000
,
0000
0000
3003
0000
;
