#TITLE:Minute Waltz;
#SUBTITLE:;
#ARTIST:Chopin;
#TITLETRANSLIT:;
#SUBTITLETRANSLIT:;
#ARTISTTRANSLIT:;
#CREDIT:;
#BANNER:;
#BACKGROUND:;
#LYRICSPATH:;
#CDTITLE:;
#MUSIC:Chopin - Minute Waltz.mp3;
#OFFSET:0.000;
#SAMPLESTART:37.440;
#SAMPLELENGTH:12.000;
#SELECTABLE:YES;
#BPMS:0.000=160.000;
#STOPS:;
#BGCHANGES:;
// cache tags:
#FIRSTBEAT:8.000;
#LASTBEAT:276.000;
#SONGFILENAME:Songs/IzzySM Keyboard Mega Pack/MinuteWaltz/MinuteW.sm;
#HASMUSIC:1;
#HASBANNER:0;
#MUSICLENGTH:106.922;
// end cache tags

//---------------dance-single - ----------------
#NOTES:
     dance-single:
     :
     Challenge:
     11:
     1.000,1.000,0.187,0.234,1.000,1037.000,20.000,25.000,0.000,0.000:  // measure 1
0000
0000
0000
0000
,  // measure 2
0000
0000
0000
0000
,  // measure 3
0100
0000
0000
0000
0000
0000
1000
0100
0010
0001
1000
0100
0010
0001
0010
0100
1000
0100
0010
0100
0001
0100
1000
0010
,  // measure 4
0100
0001
0010
0100
1000
0100
0010
0100
0001
1000
0001
0010
0100
0010
1000
0001
0000
0000
1000
0000
0000
0000
0000
0000
,  // measure 5
0000
0000
1000
0100
0010
0100
1000
0010
1000
0100
0010
0100
1000
0000
0000
0000
0000
0000
0001
0000
0000
0000
0000
0000
,  // measure 6
0000
0000
0000
1000
0100
0010
0001
0010
0100
0010
0001
0100
0001
0010
0100
0010
0001
1000
0010
0100
0010
0001
0100
0010
,  // measure 7
0001
0100
0010
1000
0100
0010
1000
0100
0010
0001
0010
0100
0001
0100
1000
0010
0001
0100
1000
0100
0001
0010
0100
0001
,  // measure 8
0010
1000
0100
1000
0100
0001
0100
0001
0100
0001
0010
0000
1001
0000
0000
0000
0000
0000
0000
0000
1000
0100
0001
0100
,  // measure 9
1000
0010
1000
0100
0001
0100
1000
0000
0000
0000
0000
1001
0000
0000
0000
0000
0000
0000
0000
1000
0100
0010
0001
0100
,  // measure 10
0010
1000
0100
0010
0001
0100
0010
1000
0100
0010
0001
0010
0100
1000
0001
0010
0100
0010
1000
0100
0001
1000
0010
0100
,  // measure 11
0001
1000
0010
0100
0001
1000
0001
0100
0010
1000
0001
0100
0010
0100
0010
1000
0001
1000
0001
0010
0001
0010
0100
0010
,  // measure 12
1000
0100
0001
0100
0010
0100
1000
0001
0010
0001
1000
0100
1000
0001
0010
0001
1000
0100
1000
0001
0010
0100
1000
0100
,  // measure 13
0010
0001
0010
0100
1000
0100
0010
0001
1000
0100
0010
0001
0001
0010
0100
1000
1000
0100
0010
0001
0010
0100
0010
0001
,  // measure 14
1000
0100
0010
0100
1000
0100
0001
0010
1000
0100
0001
0010
0100
1000
0001
0100
0010
1000
0001
1000
0100
1000
0100
1000
,  // measure 15
0100
1000
0100
1000
0001
1000
0001
1000
0001
1000
0001
0010
0001
0010
0001
0010
0001
0010
0001
0010
0100
0010
0100
0010
,  // measure 16
0100
0010
0100
1000
0010
0100
0001
0100
0010
1000
0100
0010
0001
0010
0100
1000
0010
0100
0001
0100
0010
1000
0100
0000
,  // measure 17
0000
0000
0000
0000
,  // measure 18
1000
0100
0010
0001
0010
0100
0010
0001
0010
0100
1000
0100
1000
0100
0010
0001
0010
0100
0001
0010
0100
1000
0100
0010
,  // measure 19
1000
0001
0100
0010
0001
0100
0010
0001
0010
0100
1000
0010
0100
1000
1000
0100
0010
0010
0100
1000
1000
0100
0001
0001
,  // measure 20
0100
1000
1000
0100
0010
0100
0010
0001
0010
0100
0010
0100
1000
0100
0010
0100
0001
0100
1000
0010
0001
0010
1000
0010
,  // measure 21
0001
0010
0100
1000
0001
0100
1000
0001
0100
1000
0001
0010
1000
0001
0100
0010
1000
0001
0010
1000
0100
0010
0100
0010
,  // measure 22
1000
0001
1000
0001
0100
0010
0100
0010
1000
0100
1000
0100
0001
0010
0001
0010
1000
0100
0010
0100
0001
0010
1000
0100
,  // measure 23
1000
0010
0001
0100
0001
0010
0100
1000
0100
0010
0001
0100
0010
1000
0010
0100
0001
1000
0100
0001
0010
1000
0001
0100
,  // measure 24
0000
0000
0000
0000
0000
0000
0000
0000
0000
0000
0000
0000
0000
0000
0000
0000
0000
0000
0000
1001
0000
0000
0000
0000
,  // measure 25
0000
0000
0000
0000
0000
0000
0000
0000
0000
0000
0000
1000
0000
0000
0000
0100
0000
0000
0000
0001
0000
0000
0000
1000
,  // measure 26
0000
0000
0000
0100
0000
0000
0000
0001
0000
0000
0000
1000
0000
0000
0000
0000
0000
0010
0000
0000
0000
0000
0000
0000
,  // measure 27
0000
0000
0000
0000
0010
0000
0000
0000
0000
0000
0000
0000
0000
0000
0000
0000
0000
0100
0000
0000
0000
0010
0000
0000
,  // measure 28
0000
0000
0000
0000
0000
0000
0000
0000
0000
0000
1000
0000
0000
0000
0000
0000
0000
0000
0001
0000
0000
0000
0000
0000
1000
0000
0000
0000
0000
0000
0000
0000
0000
0100
0000
0000
0000
0000
0000
0000
0000
0000
0100
0000
0000
0000
0000
0000
,  // measure 29
0000
0001
0000
0000
0010
0000
0000
0010
0000
0000
1000
0000
0000
0100
0000
0000
,  // measure 30
0010
0000
0000
0001
0000
0000
0010
0000
0000
0100
0000
0000
1000
0000
0000
0010
,  // measure 31
0000
0000
1000
0000
0000
0100
0000
0000
0001
0000
0000
0100
0000
0000
0010
0000
,  // measure 32
0000
1000
0000
0000
0100
0000
0000
0001
0000
0000
0010
0000
0000
0001
0000
0000
,  // measure 33
0100
0000
0000
1000
0000
0000
0010
0000
0000
0001
0000
0000
0100
0000
0000
0100
,  // measure 34
0000
0000
0100
0000
0000
1000
0000
0000
0100
0000
0000
0100
0000
0000
0100
0000
,  // measure 35
0000
0001
0000
0000
0010
0000
0000
0010
0000
0000
0010
0000
0000
1000
0000
0000
,  // measure 36
0010
0000
0000
0010
0000
0000
0010
0000
0000
0100
0000
0000
0001
0000
0000
0010
,  // measure 37
0000
0000
0100
0000
0000
1000
0000
0000
0100
0000
0000
0100
0000
0000
0010
0000
,  // measure 38
0000
0010
0000
0000
0001
0000
0000
0001
0000
0000
1000
0000
0000
1000
0000
0000
,  // measure 39
1001
0000
0000
1000
0000
0000
1100
0000
0000
0100
0000
0000
0110
0000
0000
0010
,  // measure 40
0000
0000
0011
0000
0000
0001
0000
0000
0101
0000
0000
0100
0000
0000
0110
0000
,  // measure 41
0000
0010
0000
0000
1010
0000
0000
1000
0000
0000
1001
0000
0000
1001
0000
0000
,  // measure 42
1001
0000
0000
2000
0000
0000
0200
0000
3000
0020
0000
0300
0002
0000
0030
0200
,  // measure 43
0000
0003
0020
0000
0300
2000
0000
0030
0200
0000
3000
0002
0000
0300
2000
0000
,  // measure 44
0003
0020
0000
3000
0002
0000
0030
0200
0000
0003
0020
0000
0300
2000
0000
0000
,  // measure 45
0000
0000
0000
3030
0000
0000
0000
0000
0000
0000
0000
0000
0000
0000
0000
0000
0000
2000
3002
2003
3002
2003
3002
2003
,  // measure 46
3002
2003
3002
0003
0100
0010
0100
0010
0100
0010
0100
0010
0100
0010
1000
0100
0010
1000
0100
0010
0001
0100
0010
0001
,  // measure 47
0100
0010
1000
0010
0100
1000
0010
0100
0001
0010
0100
0001
0010
0100
1000
0100
0001
0010
1000
0100
0010
0001
1000
0100
,  // measure 48
0001
1000
0100
0010
0001
1000
0010
0001
1000
0100
0010
0100
1000
0100
0010
0100
0001
0100
0010
0100
0001
0010
0001
0010
,  // measure 49
0001
0100
0001
0100
1000
0100
0001
0010
1000
0100
0001
1000
0100
1000
0010
1000
0100
1000
0010
1000
0100
1000
0001
1000
,  // measure 50
0100
1000
0001
0000
0000
0000
1001
0000
0000
0000
0000
0000
0000
1000
0100
0001
0010
1000
0100
0001
0010
1000
0010
0001
,  // measure 51
0100
1000
0010
0001
0100
0000
0000
0000
0000
1001
0000
0000
0000
0000
0000
0000
0010
0100
1000
0100
0010
0001
0010
0100
,  // measure 52
1000
0100
0010
0001
0010
0100
1000
0100
0001
0010
1000
0100
0001
0010
0001
0010
0001
0000
0100
1000
0010
0001
0100
0001
,  // measure 53
0100
0001
1000
0001
1000
0001
0010
0001
0010
1000
0100
1000
0010
1000
0001
1000
0100
1000
0010
1000
0001
0000
1001
0000
,  // measure 54
0000
0000
0000
0000
0000
0000
0000
1000
0100
0010
0001
0100
0010
0001
0010
0100
1000
0010
0100
0000
0000
0000
0110
0000
,  // measure 55
0000
0000
0000
0000
0000
0000
0000
1000
0100
1000
0100
1000
0100
1000
0100
0010
0001
0010
0001
0010
0001
0010
0001
1000
,  // measure 56
0010
1000
0010
0100
0001
0100
0001
0010
1000
0001
0010
0100
0010
0001
0100
0000
0001
1000
0100
0010
1000
0100
0010
1000
,  // measure 57
0001
0010
0100
0001
0100
0010
0001
0100
1000
0010
0100
0010
1000
0010
0001
0100
0010
0001
1000
0100
0001
1000
0010
0100
,  // measure 58
0001
0010
1000
0001
0100
0010
0001
1000
0100
0010
0001
1000
0010
0100
0001
1000
0100
1000
0001
0010
0001
0010
0100
0001
,  // measure 59
1000
0010
0100
0001
0010
0001
0100
0010
0001
0100
1000
0100
0010
0001
0010
1000
0010
0001
1000
0010
0001
1000
0100
0001
,  // measure 60
1000
0010
0100
0010
0001
0100
0001
1000
0100
0010
0001
1000
0100
0001
0100
0010
1000
0001
0010
0100
0001
0100
0010
1000
,  // measure 61
0100
0010
0100
0010
0100
0001
0100
0001
0100
1000
0100
1000
0100
0001
0010
1000
0100
1000
0010
0001
0100
0000
0000
0000
,  // measure 62
1001
0000
0000
0000
0000
0000
0000
0000
0000
0000
0000
0000
0000
0000
0000
0000
0000
0000
0000
0000
1000
0100
0010
1000
,  // measure 63
0100
0010
1000
0100
0010
0001
0010
0100
0001
0010
0100
0001
0010
0100
0001
0010
0100
1000
0010
0100
0001
0100
0010
1000
,  // measure 64
0100
0010
0001
0010
0100
1000
0010
1000
0100
0010
0001
0100
1000
0010
0100
0001
1000
0100
1000
0010
1000
0001
1000
0010
,  // measure 65
1000
0100
0010
1000
0010
0100
0010
0001
0010
0100
0010
1000
0100
0010
0100
0001
0100
1000
0100
0001
0100
0010
0100
0010
,  // measure 66
1000
0010
0001
0010
1000
0010
0100
1000
0001
0010
0100
1000
0100
0010
0001
1000
0100
0010
0001
0010
0100
1000
0100
0001
,  // measure 67
0100
1000
0100
0001
0100
1000
0010
0001
0010
1000
0100
0001
0010
0000
0000
0000
0000
0000
0000
0000
1000
0000
0000
0100
,  // measure 68
0010
0001
0100
1000
0100
0010
0001
0100
0010
1000
0100
0010
0100
0010
0100
0010
1000
0001
1000
0001
1000
0001
1000
0001
,  // measure 69
0100
0010
0100
0010
0100
0010
0100
0010
1000
0100
0010
0100
1000
0100
0000
1100
0000
0000
0000
0000
0000
0000
0000
0000
,  // measure 70
1010
0000
0000
0000
;
