#TITLE:Gobi's Valley;
#SUBTITLE:Banjo-Kazooie;
#ARTIST:Rareware;
#TITLETRANSLIT:;
#SUBTITLETRANSLIT:;
#ARTISTTRANSLIT:;
#CREDIT:;
#BANNER:gv.png;
#BACKGROUND:gv-bg.png;
#LYRICSPATH:;
#CDTITLE:kyka06.png;
#MUSIC:GobisValley.mp3;
#OFFSET:-0.440;
#SAMPLESTART:59.647;
#SAMPLELENGTH:12.500;
#SELECTABLE:YES;
#BPMS:0.000=130.050;
#STOPS:;
#BGCHANGES:;
// cache tags:
#FIRSTBEAT:0.000;
#LASTBEAT:264.000;
#SONGFILENAME:Songs/new/BK - Gobi's Valley/gv.sm;
#HASMUSIC:1;
#HASBANNER:1;
#MUSICLENGTH:131.560;
// end cache tags

//---------------dance-single - ----------------
#NOTES:
     dance-single:
     :
     Hard:
     9:
     0.701,0.727,0.038,0.228,0.521,611.000,5.000,30.000,0.000,0.000:
0001
0000
0100
0001
0100
0000
0010
0000
1000
0000
0001
0100
0010
0000
1000
0000
,
0010
0000
1000
0100
1000
0000
0001
0000
0010
0000
0100
1000
0001
0000
1000
0000
,
0001
0010
0100
1000
0010
0100
0020
0000
,
0130
0001
0100
0001
0100
0000
0010
0000
2000
0000
0000
0000
0000
3000
0100
0000
,
0010
0001
0100
0010
1000
0100
1000
0000
,
0010
0100
0010
0100
0001
0000
0010
0000
0100
1000
0010
0100
0001
0000
0010
0000
,
0100
1000
0010
1000
0100
1000
0010
0000
,
0100
0001
0010
0100
1000
0000
0010
0000
0200
0000
0000
0000
0000
0300
0001
0000
,
0010
0000
0100
0000
1000
0000
0010
0000
1000
0000
0100
0000
2000
0000
0000
3000
,
0010
0100
1000
0010
0100
0001
0010
0100
,
1000
0000
0010
0100
0001
0000
0001
0000
0100
0000
0010
1000
0010
0000
0100
0000
,
0010
0000
0100
1000
0010
0000
0100
0000
1000
0000
0010
0100
0001
0000
0010
0000
,
0010
1000
0001
0100
1000
0001
2000
0000
,
3001
0010
0001
0010
0001
0000
1000
0000
0200
0000
0000
0000
0000
0300
0001
0000
,
1000
0010
0001
1000
0100
0001
0100
0000
,
1000
0001
1000
0001
0010
0000
1000
0000
0001
0100
1000
0001
0010
0000
1000
0000
,
0001
0100
1000
0100
0001
0100
1000
0000
,
0001
0010
1000
0001
0100
0000
1000
0000
0002
0000
0000
0000
0000
0003
0010
0000
,
1000
0000
0001
0000
0100
0000
1000
0000
0100
0000
0001
0000
0200
0000
0000
0300
,
1000
0001
0100
1000
1000
0010
1000
0001
,
0100
1000
0010
0000
0100
0000
0001
0000
0100
0010
1000
0000
0010
0000
0100
0000
,
0001
0000
0010
0001
0010
0000
0100
1000
0100
0000
1000
0010
0100
0000
0010
0100
,
0001
0010
0100
0000
1000
0010
0100
0001
0010
0100
1000
0000
0010
0100
0001
0010
,
0200
2300
3020
0230
,
0301
0010
0100
0000
1000
0000
0010
0000
0100
0001
0010
0000
0100
0000
1000
0000
,
0010
0000
1000
0100
1000
0000
0010
0100
0001
0000
0010
0100
1000
0000
0010
0100
,
0001
0010
0100
0000
1000
0000
0010
0000
0100
0001
0010
0000
0100
0000
1000
0000
,
0010
1000
0100
0000
1000
0000
0010
0000
0100
0001
0010
0000
0100
0000
1000
0000
,
0010
0100
0002
0000
0013
0100
2000
0000
,
3000
0100
0001
0010
0100
1000
0010
0100
0001
0010
0100
1000
0010
0100
0001
1000
,
0010
0000
0100
0000
0001
0000
0010
0000
0100
0000
1000
0000
0020
0000
0000
0030
,
0100
0001
0010
0100
1000
0000
0010
0000
0200
0000
0000
0000
0000
0300
0001
0000
,
0010
0100
1000
0010
1000
0100
1000
0000
,
0100
1000
0010
0100
0001
0000
0010
0000
0100
1000
0010
1000
0100
0000
1000
0000
,
0010
0100
0001
0100
1000
0100
0010
0000
,
1000
0100
0010
0001
0100
0000
0010
0000
2000
0000
0000
0000
0000
3000
0100
0000
,
0010
0001
0100
0010
1000
0100
1000
0000
,
0002
2003
3200
0000
,
1300
0100
0010
0100
1000
0000
0010
0000
0100
0001
0010
0001
0100
0000
0010
0000
,
1000
0100
0010
0001
0100
0010
1000
0100
0010
0001
0100
0001
0010
0001
0100
0010
,
1000
0100
0001
0100
1000
0000
0100
0000
0010
0001
0100
0010
1000
0000
0100
0000
,
1010
0100
0101
0001
1001
1000
0110
0001
,
1000
0100
1000
0100
1000
0000
0001
0000
0010
0001
0010
0001
0010
0000
0001
0000
,
0100
0010
0100
0010
1000
0100
1000
0100
0010
0001
0010
0001
0100
0010
0100
0010
,
1000
0100
0010
0001
0100
0000
0010
0000
1000
0100
0010
0001
0100
0000
0010
0000
,
1000
0000
0000
0100
0010
0000
0001
0000
0100
0000
0010
0000
1000
0000
0001
0000
,
1000
0000
1000
0010
0010
0000
0100
0010
,
1000
0000
0001
0100
0010
1000
0100
1000
,
0010
1000
0001
0100
1000
0001
2000
0000
,
3001
0010
0001
0010
0001
0000
1000
0000
0200
0000
0000
0000
0000
0300
0001
0000
,
1000
0010
0001
1000
0100
0001
0100
0000
,
1000
0001
1000
0001
0010
0000
1000
0000
0001
0100
1000
0001
0010
0000
1000
0000
,
0001
0100
1000
0100
0001
0100
1000
0000
,
0001
0010
1000
0001
0100
0000
1000
0000
0002
0000
0000
0000
0000
0003
0010
0000
,
1000
0000
0001
0000
0100
0000
1000
0000
0100
0000
0001
0000
0200
0000
0000
0300
,
1000
0001
0100
1000
1000
0010
1000
0001
,
0100
1000
0010
0000
0100
0010
0001
0010
0100
0010
1000
0000
0010
0000
0100
0000
,
0001
0000
0010
0001
0010
0000
0100
1000
0100
0000
1000
0010
0100
0000
0010
0100
,
0001
0010
0100
0000
1000
0010
0100
0001
0010
0100
1000
0000
0010
0100
0001
0010
,
0200
2300
3020
0230
,
0301
0010
0100
0000
1000
0001
0010
0001
0100
0001
0010
0000
0100
0000
1000
0000
,
0010
0000
1000
0100
1000
0000
0010
0100
0001
0000
0010
0100
1000
0000
0010
0100
,
0001
0010
0100
0000
1000
0000
0010
0000
0100
0001
0010
0000
0100
0000
1000
0000
,
0010
1000
0100
0000
1000
0000
0010
0000
0100
0001
0010
0000
0100
0000
1000
0000
,
0010
0100
0002
0000
0013
0100
2000
0000
,
3000
0100
0001
0010
0100
1000
0010
0100
0001
0010
0100
1000
0010
0100
0001
1000
,
1001
0000
0000
0000
;

//---------------dance-single - ----------------
#NOTES:
     dance-single:
     :
     Medium:
     7:
     0.483,0.477,0.296,0.228,0.004,376.000,39.000,30.000,0.000,2.000:
0001
0100
0010
0000
1000
0001
0100
0000
,
1000
0100
0001
0000
0010
0100
1000
0000
,
1000
0001
0010
0001
0100
0001
0200
0000
,
0310
0000
0000
0000
0010
0000
0100
0000
0002
0000
0000
0000
0000
0003
0000
0000
,
0100
1000
0010
0000
0001
0010
0001
0000
,
0100
0001
1000
0001
0010
0001
1000
0001
,
0010
0001
0100
0000
0010
1000
0100
0000
,
0010
0000
0100
0000
0001
0000
1000
0000
0020
0000
0000
0000
0000
0030
1000
0000
,
0100
0000
0010
0000
0001
0000
0100
0000
0001
0000
0100
0000
0002
0000
0000
0003
,
1100
0011
0110
0000
,
0101
1000
0110
0100
,
1100
0100
1001
1000
,
0100
0010
1000
0010
0001
0010
0002
0000
,
1003
0000
0000
0000
1000
0000
0001
0000
0020
0000
0000
0000
0000
0030
0000
0000
,
0001
0100
1000
0000
0010
1000
0010
0000
,
0001
0010
0100
0010
1000
0010
0100
0010
,
1000
0010
0001
0000
1000
0100
0001
0000
,
1000
0000
0001
0000
0010
0000
0100
0000
2000
0000
0000
0000
0000
3000
0100
0000
,
0001
0000
1000
0000
0010
0000
0001
0000
0010
0000
0001
0000
0020
0000
0000
0030
,
0101
1010
1001
0000
,
0011
0100
1001
0001
,
0101
0001
0110
0100
,
0101
0010
0101
0001
,
0020
0032
0203
0320
,
1031
0001
0110
0010
,
0110
0001
1010
0001
,
1100
0001
0110
0010
,
0101
0001
1010
0010
,
0110
2010
3110
0102
,
0103
1000
0010
0100
1000
0001
0100
0001
,
0001
1000
0100
1000
0010
1000
0020
0000
,
0130
0000
0000
0000
0100
0000
0010
0000
2000
0000
0000
0000
0000
3000
0000
0000
,
0010
0001
0100
0000
1000
0100
1000
0000
,
0010
1000
0001
1000
0100
1000
0001
1000
,
0100
1000
0010
0000
0100
0001
0010
0000
,
0100
0000
0010
0000
1000
0000
0001
0000
0200
0000
0000
0000
0000
0300
0001
0000
,
0010
0000
0100
0000
1000
0000
0010
0000
1000
0000
0010
0000
2000
0000
0000
3000
,
0011
1100
0110
0000
,
1000
0010
0001
0000
0100
0010
0100
0000
,
0001
0100
0010
0100
1000
0100
0001
0100
,
0100
1000
0010
0000
0001
1000
0001
0000
,
0010
0001
1000
0001
0100
0001
0010
0001
,
0100
0001
0010
0000
1000
0001
1000
0000
,
0010
1000
0001
1000
0100
1000
0010
1000
,
1000
0100
0001
0000
0010
0100
0010
0000
,
0001
0000
0000
0010
0100
0000
0010
0000
1000
0000
0010
0000
0001
0000
0010
0000
,
1000
0001
1100
0010
,
0011
1000
0110
1010
,
1000
0000
0001
0000
0010
0100
0010
0000
,
0001
0010
0100
1000
0020
0000
0000
0030
,
1000
0000
0001
0000
0010
0100
0010
0000
,
0001
0010
0001
0010
0001
1000
0001
1000
,
0010
0000
0100
0000
0001
0010
0100
0000
,
1000
0010
0100
0001
0020
0000
0000
0030
,
0001
0000
1000
0000
0100
0010
0001
0000
,
1001
0110
1100
0010
,
1000
0100
0010
0000
0001
0010
0100
0000
,
1000
0010
0100
0010
0001
0010
0100
0010
,
1000
0100
0010
0000
0001
0010
0100
0000
,
0002
0023
0230
2300
,
3010
0100
0001
0000
0010
0100
1000
0000
,
0010
0100
0001
0010
0001
0100
0010
1000
,
0100
0010
0002
0000
0103
0010
2000
0000
,
3100
0010
0002
0000
0103
0010
2000
0000
,
3100
0010
0002
0000
0103
0010
2000
0000
,
3100
0010
0001
0100
0010
1000
0001
0100
,
0110
0000
0000
0000
;

//---------------dance-single - ----------------
#NOTES:
     dance-single:
     :
     Challenge:
     10:
     0.734,0.727,0.251,0.228,0.521,613.000,33.000,30.000,0.000,0.000:
0101
0000
0010
1000
0010
0000
0110
0000
1001
0000
1000
0010
0100
0000
0011
0000
,
1100
0000
0001
0010
0001
0000
1001
0000
0110
0000
0010
0001
1000
0000
0101
0000
,
1000
0100
0010
0001
0100
0010
0200
0000
,
0310
1000
0010
1000
0010
0000
0100
0000
0002
0000
0000
0000
0000
0003
0010
0000
,
0100
1000
0010
0100
0001
0010
0001
0000
,
0100
0010
0100
0010
1000
0000
0100
0000
0010
0001
0100
0010
1000
0000
0100
0000
,
0010
0001
0100
0001
0010
0001
0100
0000
,
0010
1000
0100
0010
0001
0000
0100
0000
0020
0000
0000
0000
0000
0030
1000
0000
,
0100
0000
0010
0000
0001
0000
0100
0000
0001
0000
0010
0000
0002
0000
0000
0003
,
1100
0010
0011
0100
0110
1000
0100
0010
,
0101
0000
0100
0010
1000
0000
1000
0000
0110
0000
0100
0001
0100
0000
0010
0000
,
1100
0000
0010
0001
0100
0000
0010
0000
1001
0000
0100
0010
1000
0000
0100
0000
,
0100
0001
1000
0010
0001
1000
0002
0000
,
1003
0100
1000
0100
1000
0000
0001
0000
0020
0000
0000
0000
0000
0030
1000
0000
,
0001
0100
1000
0001
0010
1000
0010
0000
,
0001
1000
0001
1000
0100
0000
0001
0000
1000
0010
0001
1000
0100
0000
0001
0000
,
1000
0010
0001
0010
1000
0010
0001
0000
,
1000
0100
0001
1000
0010
0000
0001
0000
2000
0000
0000
0000
0000
3000
0100
0000
,
0001
0000
1000
0000
0010
0000
0001
0000
0010
0000
1000
0000
0020
0000
0000
0030
,
0101
1000
1010
0001
1001
0100
0001
1000
,
0010
0001
0100
0000
0010
0000
1000
0000
0010
0100
0001
0000
0100
0000
0010
0000
,
1000
0000
0100
1000
0100
0000
0010
0001
0010
0000
0001
0100
0010
0000
0100
0010
,
1000
0100
0010
0000
0001
0100
0010
1000
0100
0010
0001
0000
0100
0010
1000
0100
,
0020
0032
0203
0320
,
1030
0100
0010
0000
0001
0000
0100
0000
0010
1000
0100
0000
0010
0000
0001
0000
,
0100
0000
0001
0010
0001
0000
0100
0010
1000
0000
0100
0010
0001
0000
0100
0010
,
1000
0100
0010
0000
0001
0000
0100
0000
0010
1000
0100
0000
0010
0000
0001
0000
,
0100
0001
0010
0000
0001
0000
0100
0000
0010
1000
0100
0000
0010
0000
0001
0000
,
0100
0010
2000
0000
3100
0010
0002
0000
,
0103
0010
1000
0100
0010
0001
0100
0010
1000
0100
0010
0001
0100
0010
1000
0001
,
0100
0000
0010
0000
1000
0000
0100
0000
0010
0000
0001
0000
0200
0000
0000
0300
,
0010
1000
0100
0010
0001
0000
0100
0000
0020
0000
0000
0000
0000
0030
1000
0000
,
0100
0010
0001
0100
0001
0010
0001
0000
,
0010
0001
0100
0010
1000
0000
0100
0000
0010
0001
0100
0001
0010
0000
0001
0000
,
0100
0010
1000
0010
0001
0010
0100
0000
,
0001
0010
0100
1000
0010
0000
0100
0000
0002
0000
0000
0000
0000
0003
0010
0000
,
0100
1000
0010
0100
0001
0010
0001
0000
,
2000
0000
0000
0000
3200
0000
0000
0000
0320
0000
0000
0000
0000
0000
0000
0030
,
0001
0010
0100
0010
0001
0000
0100
0000
0010
1000
0100
1000
0010
0000
0100
0000
,
0001
0010
0100
1000
0010
0100
0001
0010
0100
1000
0010
1000
0100
1000
0010
0100
,
0001
0010
1000
0010
0001
0000
0010
0000
0100
1000
0010
0100
0001
0000
0010
0000
,
1001
1100
0101
0110
1001
1100
0101
0011
,
0001
0010
0001
0010
0001
0000
1000
0000
0100
1000
0100
1000
0100
0000
1000
0000
,
0010
0100
0010
0100
0001
0010
0001
0010
0100
1000
0100
1000
0010
0100
0010
0100
,
0001
0010
0100
1000
0010
0000
0100
0000
0001
0010
0100
1000
0010
0000
0100
0000
,
0001
0000
0000
0010
0100
0000
1000
0000
0010
0000
0100
0000
0001
0000
1000
0000
,
1001
0000
0001
0100
1100
0000
0010
0100
,
0011
0000
1000
0010
0100
0001
0010
0001
,
0100
0001
1000
0010
0001
1000
0002
0000
,
1003
0100
1000
0100
1000
0000
0001
0000
0020
0000
0000
0000
0000
0030
1000
0000
,
0001
0100
1000
0001
0010
1000
0010
0000
,
0001
1000
0001
1000
0100
0000
0001
0000
1000
0010
0001
1000
0100
0000
0001
0000
,
1000
0010
0001
0010
1000
0010
0001
0000
,
1000
0100
0001
1000
0010
0000
0001
0000
2000
0000
0000
0000
0000
3000
0100
0000
,
0001
0000
1000
0000
0010
0000
0001
0000
0010
0000
1000
0000
0020
0000
0000
0030
,
0101
1000
1010
0001
1001
0100
0001
1000
,
0010
0001
0100
0000
0010
0100
1000
0100
0010
0100
0001
0000
0100
0000
0010
0000
,
1000
0000
0100
1000
0100
0000
0010
0001
0010
0000
0001
0100
0010
0000
0100
0010
,
1000
0100
0010
0000
0001
0100
0010
1000
0100
0010
0001
0000
0100
0010
1000
0100
,
0020
0032
0203
0320
,
1030
0100
0010
0000
0001
1000
0100
1000
0010
1000
0100
0000
0010
0000
0001
0000
,
0100
0000
0001
0010
0001
0000
0100
0010
1000
0000
0100
0010
0001
0000
0100
0010
,
1000
0100
0010
0000
0001
0000
0100
0000
0010
1000
0100
0000
0010
0000
0001
0000
,
0100
0001
0010
0000
0001
0000
0100
0000
0010
1000
0100
0000
0010
0000
0001
0000
,
0100
0010
2000
0000
3100
0010
0002
0000
,
0103
0010
1000
0100
0010
0001
0100
0010
1000
0100
0010
0001
0100
0010
1000
0001
,
0110
0000
0000
0000
;

//---------------dance-single - ----------------
#NOTES:
     dance-single:
     :
     Easy:
     3:
     0.351,0.401,0.296,0.228,0.000,254.000,39.000,30.000,0.000,2.000:
0010
1000
0100
0001
,
0100
0010
1000
0100
,
0100
1000
0001
0002
,
1003
0000
0000
0000
1000
0000
0000
0000
0020
0000
0000
0000
0000
0030
0000
0000
,
0001
1000
0010
0010
,
0001
0100
1000
0100
,
1000
0001
1000
0001
,
1000
0000
0000
0000
0010
0000
0000
0000
2000
0000
0000
0000
0000
3000
0000
0000
,
0001
0000
0000
0000
0010
0000
0000
0000
0010
0000
0000
0000
0020
0000
0000
0030
,
0101
1010
1001
0000
,
0011
0100
1001
0001
,
0101
0001
0110
0100
,
0001
0100
0010
0020
,
0130
0000
0000
0000
0100
0000
0000
0000
2000
0000
0000
0000
0000
3000
0000
0000
,
0010
0100
1000
1000
,
0010
0001
0100
0001
,
0100
0010
0100
0010
,
0100
0000
0000
0000
1000
0000
0000
0000
0200
0000
0000
0000
0000
0300
0000
0000
,
0010
0000
0000
0000
1000
0000
0000
0000
1000
0000
0000
0000
2000
0000
0000
3000
,
0011
1100
0110
0000
,
1010
0001
0110
0010
,
0011
0010
1001
0001
,
0011
1000
0011
0010
,
2000
3020
0032
2003
,
3110
0010
1001
1000
,
1001
0010
1100
0010
,
0101
0010
1001
1000
,
0011
0010
1100
1000
,
1001
1200
1301
0021
,
0031
1000
0100
0001
,
0010
0001
1000
2000
,
3001
0000
0000
0000
0001
0000
0000
0000
0200
0000
0000
0000
0000
0300
0000
0000
,
1000
0001
0100
0100
,
1000
0010
0001
0010
,
0001
1000
0001
1000
,
0001
0000
0000
0000
0100
0000
0000
0000
0002
0000
0000
0000
0000
0003
0000
0000
,
1000
0000
0000
0000
0100
0000
0000
0000
0100
0000
0000
0000
0200
0000
0000
0300
,
1010
0101
1001
0000
,
0100
0010
0001
0001
,
0010
1000
0100
0010
,
0001
1000
0010
0010
,
1000
0100
0001
1000
,
0001
1000
0100
0100
,
1000
0010
0001
1000
,
0100
0010
1000
1000
,
0010
0001
0100
0010
,
0100
0010
0101
1000
,
1010
0100
1001
1100
,
0100
0010
1000
1000
,
0010
0000
0001
0000
2000
0000
0000
3000
,
0100
0010
1000
1000
,
0010
0010
0010
0010
,
1000
0001
0010
0001
,
0100
0000
0001
0000
2000
0000
0000
3000
,
0010
0100
0001
0010
,
0110
1001
0101
1000
,
0100
1000
0010
0001
,
0100
0001
0010
0001
,
0100
1000
0010
0001
,
0020
2030
3002
0203
,
1300
0010
1000
0100
,
1000
0010
0010
1000
,
0001
0020
0031
0200
,
0301
0020
0031
0200
,
0301
0020
0031
0200
,
0301
0010
1000
0010
,
1001
0000
0000
0000
;
