#TITLE:Be Princess;
#SUBTITLE:;
#ARTIST:DJ Sharpnel;
#TITLETRANSLIT:;
#SUBTITLETRANSLIT:;
#ARTISTTRANSLIT:;
#CREDIT:;
#BANNER:../fallback - bn.png;
#BACKGROUND:Princess.png;
#LYRICSPATH:;
#CDTITLE:;
#MUSIC:Princess.ogg;
#OFFSET:-0.075;
#SAMPLESTART:43.978;
#SAMPLELENGTH:12.000;
#SELECTABLE:YES;
#BPMS:0.000=190.000;
#STOPS:;
#BGCHANGES:;
// cache tags:
#FIRSTBEAT:0.000;
#LASTBEAT:469.500;
#SONGFILENAME:Songs/Beast Aoreo BEAST!/Be Princess - [Aoreo]/Princess.sm;
#HASMUSIC:1;
#HASBANNER:1;
#MUSICLENGTH:149.812;
// end cache tags

//---------------dance-single - J. Nero----------------
#NOTES:
     dance-single:
     J. Nero:
     Challenge:
     13:
     1.000,1.000,0.774,0.080,1.000,1219.000,116.000,12.000,0.000,0.000:
1001
0000
1000
0000
1010
0000
0010
1000
0000
1000
0100
0000
0010
0000
0001
0000
,
0011
0000
0000
0000
,
0101
0000
0100
0000
0110
0000
0010
1000
0000
1000
0001
0000
0100
0000
0010
0000
,
1010
0000
0000
0000
1000
1000
1000
1000
,
1010
0000
0010
0000
0110
0000
0100
0001
1000
0001
1000
0000
0001
1000
0001
0000
,
0101
0000
0100
0000
0010
0010
0010
0000
,
0101
0000
0001
0000
1000
0000
0100
0010
0000
0010
0001
0000
0100
0000
0010
0000
,
1010
0000
1000
0000
0001
0001
0001
0100
,
0010
1000
0000
1000
0001
0000
0010
0100
1000
0001
0100
0000
0010
1000
0010
0000
,
1010
0000
1000
0000
0010
0010
0010
0100
,
0001
0010
0000
0010
0100
0000
1000
0010
0100
0001
1000
0000
0001
0010
0100
0000
,
1100
0000
1000
0000
0001
0001
0001
0100
,
0010
0100
0000
0100
0001
0000
0010
0100
1000
0100
1000
0000
0010
0100
0001
0000
,
0101
0000
0000
0000
0000
0000
0000
0000
0001
1000
0001
1000
0001
1000
0001
0100
,
0010
1000
0001
0100
0010
1000
0100
0010
0001
1000
0100
0010
0001
0010
0001
0100
,
0001
0100
0010
1000
0010
1000
0100
0010
0001
0010
0100
1000
0010
1000
0010
0100
,
0001
0000
0100
0000
0101
0000
0001
0000
1000
0001
1000
0000
1001
0000
0001
0000
,
0101
0000
0100
0000
0110
0000
0010
0000
1010
0000
1000
0000
0001
0010
0100
0000
,
1100
0000
1000
0000
1010
0000
0010
0000
0100
0001
0100
0000
0101
0000
1000
0000
,
1100
0100
0110
0010
0011
0011
0011
0101
,
0101
0000
0100
0000
0110
0000
0010
0000
1000
0001
0100
0000
0110
0000
0010
0000
,
1010
0000
1000
0000
0101
0000
0001
0000
1000
0001
1000
0000
0001
0100
0001
0000
,
0101
0000
0100
0000
1010
0000
0010
0000
0100
0001
0010
0000
0110
0000
0100
0000
,
1001
0000
0100
0000
1001
0000
0010
0000
1001
0000
1000
0001
0100
0000
0010
0000
,
0110
0000
0100
0000
0101
0000
0001
0000
1000
0001
0100
0000
0110
0000
0010
0000
,
1010
0000
1000
0000
1100
0000
0100
0010
0001
0010
0100
0000
1000
0100
1000
0000
,
1010
0000
0010
0000
0101
0000
0100
0000
0010
1000
0010
0000
1100
0000
0100
0000
,
0110
0000
0010
0000
0001
0100
0001
0000
0101
0000
0101
0000
1010
0000
1010
0000
,
1100
0000
0100
0000
0110
0000
0010
0000
0001
0010
0100
0000
0010
0100
1000
0000
,
1100
0000
0100
0000
1010
0000
0010
0000
0110
0000
0100
0000
0001
1000
0001
0000
,
1001
0000
1000
0000
1010
0000
0010
0000
0100
0001
1000
0000
0010
1000
0001
0000
,
1001
0000
0100
0000
1001
0000
0010
0000
1001
0000
0100
0001
1000
0000
0010
0000
,
0110
0100
0101
0001
1001
1000
1100
0100
,
0110
0000
0010
0000
0011
0000
0001
0000
0100
0001
0100
0000
0010
1000
0100
0000
,
1100
0000
1000
0000
1001
0000
0001
0000
0001
0010
0100
0000
0110
0000
0010
0000
,
0011
0001
0101
0100
0110
0110
1010
1010
,
1001
0000
0001
0000
0101
0000
0100
0000
0010
1000
0100
0000
1100
0000
1000
0000
,
0101
0000
0001
0000
0110
0000
0010
0000
1000
0100
1000
0000
0001
1000
0001
0000
,
1000
0001
1000
0001
1000
0001
1000
0001
1000
0001
1000
0001
1000
0001
1000
0001
,
1000
0001
1000
0001
1000
0001
1000
0001
1000
0001
1000
0001
1000
0001
1000
0001
,
1200
0300
0000
0000
,
1000
0000
0001
0000
0010
0000
0100
0000
1000
0000
0010
0100
0001
0000
1000
0000
,
0001
0000
0100
0000
0010
0000
1000
0000
0100
0000
1000
0001
1000
0000
0001
0000
,
0100
0000
0001
0000
0010
0000
0100
0000
1000
0000
0010
0100
0010
0000
0100
0000
,
0001
0000
0010
0000
0100
0000
1000
0000
0010
0000
1000
0001
1000
0001
0010
0100
,
1000
0000
0100
0000
1000
0000
0010
0000
0100
0000
0001
1000
0100
0000
0010
0000
,
0100
0000
1000
0000
0010
0000
0100
0000
0001
0000
0100
0010
1000
0000
0100
0000
,
1000
0000
0001
0000
0010
0000
0100
0000
1000
0000
0001
0100
0010
0000
0100
0000
,
0001
0000
1000
0000
0100
0000
0010
0000
0100
0000
1000
0010
0100
0001
1000
0001
,
1100
0000
0001
0000
1000
0000
0010
0000
0100
0000
0001
0010
0100
0000
1000
0000
,
0010
0000
0100
0000
0001
0000
1000
0000
0100
0000
1000
0001
0100
0000
0010
0000
,
0100
0000
0001
0000
0010
0000
0100
0000
1000
0000
0010
0100
0001
0000
0100
0000
,
0001
0000
0010
0000
0100
0000
1000
0000
0010
0000
0100
0001
0100
0010
1000
0100
,
0010
0000
0001
0000
0010
0000
0100
0000
1000
0000
0010
0100
0001
0000
1000
0000
,
0100
0000
1000
0000
0010
0000
0100
0000
0001
0000
0010
0100
1000
0000
0100
0000
,
1000
0000
0001
0000
0100
0000
0001
0000
1000
0100
1000
0100
0010
0100
0010
0001
,
0010
0001
0100
0001
0100
0010
1000
0010
1000
0010
0100
0001
0010
0100
1000
0001
,
1100
0000
0000
0000
0000
0000
0000
0000
0001
1000
0001
1000
0001
0000
1000
0000
,
0010
0000
0100
0001
0100
0000
0001
0000
0010
0100
1000
0010
0100
0000
0010
0100
,
0010
0000
0100
0001
0100
0000
0001
1000
0100
0010
0001
0100
0020
0000
0130
0000
,
0001
0000
1000
0100
1000
0000
0001
0000
0010
0100
1000
0100
0010
0000
0100
1000
,
0100
0000
1000
0010
1000
0000
0010
0100
0001
0100
0010
1000
0002
0000
0013
0100
,
1000
0000
0100
1000
0100
0000
1000
0000
0001
0100
0001
1000
0001
0000
0010
0000
,
0100
0000
1000
0010
1000
0000
0010
0100
0001
1000
0100
1000
0020
0000
0130
0000
,
0010
0000
1000
0001
1000
0000
0001
0000
1000
0010
0100
0001
1000
0000
0001
1000
,
0100
0000
1000
0010
1000
0000
0001
0100
0010
1000
0010
0100
0002
0000
1003
0001
,
2200
3300
0001
1000
0001
0000
1000
0000
0001
0010
0100
0010
0001
0000
0100
0001
,
0100
0000
0001
1000
0001
0000
1000
0100
0010
0001
0010
0100
2000
0000
3010
0000
,
0100
0000
0001
1000
0100
0000
1000
0000
0001
0100
0001
1000
0010
0000
1000
0100
,
1000
0000
0100
0010
0100
0000
0010
0001
0010
0100
1000
0100
2000
0000
3100
1000
,
0010
0000
0100
0001
0100
0000
0001
0000
0100
0001
1000
0010
0100
0000
0001
0000
,
0100
0000
0001
0010
0100
0000
1000
0010
1000
0001
0010
0100
2000
0000
3010
0000
,
0100
0000
0001
0100
0010
0000
0100
0000
0001
1000
0100
1000
0001
0000
0100
0001
,
1000
0000
0100
1000
0100
0000
1000
0000
0001
1000
0001
1000
0001
0000
0000
0000
,
1001
1000
0001
0100
0010
1000
0100
1000
,
0001
0100
0001
0010
0100
1000
0100
0010
,
0100
0000
1000
0000
0010
0000
0100
0001
0100
0000
0001
0000
0010
0000
0100
0000
,
1000
0000
0100
0000
1000
0000
0001
0000
0100
0000
0010
0000
1000
0000
0001
0100
,
0001
0100
0001
0010
0100
1000
0100
1000
,
0010
0000
0100
0000
0001
0000
0010
0000
0001
0000
0100
0000
0010
0000
1000
0010
,
0100
0010
0100
0001
1000
0100
0010
0100
,
0000
0000
0000
0000
0000
0000
1100
1100
,
1001
0000
0001
0100
0001
1000
0000
1000
,
0100
0100
0001
1000
0010
0100
0001
1000
,
0100
0100
0001
0010
0100
1000
0001
1000
,
1001
0101
1010
1100
,
0100
1000
0100
1000
0001
1000
0001
1000
0001
0010
0100
1000
0100
1000
0001
1000
,
0001
0100
0010
0100
0001
1000
0100
1000
0001
0100
0010
0100
0001
1000
0100
0010
,
0100
1000
0100
1000
0001
0100
0010
0100
0001
0010
0100
1000
0100
1000
0001
1000
,
0001
0100
0010
0100
0001
1000
0100
1000
0100
1000
0001
0100
0001
0100
0010
1000
,
0100
0010
0001
1000
0100
0010
0001
0100
0010
1000
0001
0100
0010
0100
0001
0010
,
0100
1000
0100
1000
0010
0100
0001
1000
0001
1000
0001
0100
0010
0100
0001
1000
,
0010
0100
0001
0010
0100
1000
0010
0100
0001
1000
0100
1000
0010
0100
0001
1000
,
0101
1000
0001
0010
0001
0000
0001
0000
,
0010
0100
0010
0100
1000
0100
1000
0100
0010
0100
0010
0001
0010
0100
1000
0100
,
1000
0001
0100
0001
0100
0010
1000
0100
0010
0100
1000
0010
0100
0001
1000
0001
,
1000
0001
0100
0010
1000
0001
1000
0100
1000
0100
0010
0100
0010
0001
0010
0001
,
0100
0001
0100
0010
1000
0001
1000
0010
0100
0001
0010
0100
1000
0100
1000
0001
,
0100
0010
0100
0001
0100
0010
0100
0001
0100
0010
0100
0001
0100
0010
0100
0001
,
0100
0010
1000
0100
1000
0010
1000
0100
1000
0010
1000
0100
1000
0001
1000
0001
,
1000
0100
1000
0001
0010
0100
1000
0100
0010
0001
0100
0010
1000
0001
1000
0100
,
1000
0010
0100
0001
1000
0001
0010
0100
1000
0100
1000
0010
0100
0001
1000
0001
,
1000
0001
1000
0001
0010
0100
1000
0010
,
0100
0000
0001
0000
1000
0001
1000
0000
0010
0000
0100
0000
0001
1000
0001
0000
,
1000
0100
0010
0001
0100
0001
1000
0001
,
0100
0000
0010
0000
1000
0100
1000
0000
0001
0000
0100
0000
0010
1000
0010
0000
,
0100
0010
0100
0001
0010
0100
0010
0001
0100
0010
0100
0001
0010
0100
0010
0001
,
0100
0010
1000
0100
0010
0100
1000
0010
0100
0010
1000
0100
0010
0100
1000
0010
,
0100
0010
0100
0001
1000
0010
0100
0001
1000
0001
0010
0100
1000
0100
1000
0001
,
1000
0001
0100
0010
0100
0010
1000
0001
0100
0001
0010
0100
1000
0100
0010
0100
,
1000
0000
0100
1000
0010
0100
0001
0100
,
0101
0001
1001
1000
1100
0100
0110
0010
,
0011
0001
0101
0100
1010
1000
1001
1001
,
0000
0101
0101
1010
1010
1100
0110
0110
,
0010
0000
0001
0000
0100
0000
0001
1000
0001
1000
0100
0000
1000
0000
0001
0000
,
1001
0101
1010
0110
,
0100
0001
1000
0010
,
2002
0000
0000
3003
0000
0000
0000
0000
;
