#TITLE:Hyper Hyper;
#SUBTITLE:Dragoon style;
#ARTIST:Smiley;
#TITLETRANSLIT:;
#SUBTITLETRANSLIT:;
#ARTISTTRANSLIT:;
#CREDIT:;
#BANNER:HyperHyper-bn.png;
#BACKGROUND:HyperHyper-bg.png;
#LYRICSPATH:;
#CDTITLE:dragoon cd title.png;
#MUSIC:Hyper Hyper (DDR Edit).ogg;
#OFFSET:-6.190;
#SAMPLESTART:21.760;
#SAMPLELENGTH:12.000;
#SELECTABLE:YES;
#BPMS:0.000=155.000;
#STOPS:;
#BGCHANGES:;
// cache tags:
#FIRSTBEAT:0.000;
#LASTBEAT:278.500;
#SONGFILENAME:Songs/keyboard/Dragoonhead - Hyper Hyper/Hyper Hyper.sm;
#HASMUSIC:1;
#HASBANNER:1;
#MUSICLENGTH:115.095;
// end cache tags

//---------------dance-single - ----------------
#NOTES:
     dance-single:
     :
     Challenge:
     10:
     1.000,1.000,1.000,0.478,0.782,651.000,285.000,55.000,0.000,0.000:
1001
0000
0110
0000
1001
0000
0100
0010
0000
0001
0010
0000
1001
0000
0110
0000
,
1100
0000
0011
0000
1100
0000
0001
0010
0000
1000
0100
0000
0101
0000
1010
0000
,
0101
0000
0110
0000
1001
0000
0001
1000
0000
0100
0010
0000
1001
0000
0110
0000
,
1100
0000
0101
0000
0011
0000
1000
0010
0000
0001
0100
0000
1100
0000
0101
0000
,
1001
0000
0110
0000
1001
0000
0100
0010
0000
0100
0010
0000
1100
0000
0110
0000
,
1001
0000
0101
0000
1010
0000
1000
0001
0000
1000
0001
0000
0110
0000
1001
0000
,
0011
0000
0110
0000
1100
0000
1000
0100
0000
0001
0010
0000
0011
0000
1010
0000
,
0110
0000
0011
0000
1100
0000
0001
0010
0000
1000
0100
0000
1001
0000
0110
0000
,
2001
0000
0000
0000
,
3002
0000
0000
0000
0000
0000
0003
0000
0000
0000
0000
0000
0000
0000
0000
0000
0000
0000
0000
0000
0000
1000
0001
1000
,
1001
0000
0110
0000
0011
0000
1100
0010
0000
0100
1010
0000
1001
0000
0101
0000
,
1010
0000
0110
0000
1001
0000
0100
1010
0000
0010
0101
0000
1001
0000
0110
0000
,
0011
0000
1100
0000
1010
0000
0011
0010
0010
0100
1001
0000
1001
0000
0110
0000
,
1001
0000
0200
0320
0000
0000
0032
0000
2003
0000
3020
0000
0230
0000
0302
0000
,
1003
0000
0110
0000
1001
0000
0101
0010
0000
1010
0100
0000
1100
0000
0110
0000
,
0011
0000
2000
0000
3002
0000
0013
0200
0000
0310
0002
0000
1003
0000
0100
0000
,
1001
0000
0110
0000
1001
0000
0100
0110
0000
1000
1001
0000
0110
0000
1001
0000
,
0200
0000
0000
0302
2003
0000
3020
0000
0230
0000
0302
0000
2003
0000
3020
0000
,
0130
0000
1001
0000
0110
0000
1001
1000
0100
0010
0001
1000
0110
0000
1001
0000
,
0101
0000
1010
0000
0110
0000
1001
0100
1100
0010
0001
0100
1010
0000
0101
0000
,
1001
0000
0110
0000
1001
0000
0110
0010
1000
0100
0010
0001
1100
0000
0101
0000
,
0110
0000
1100
0000
0011
0000
1001
0100
1000
0001
1000
0001
0110
0000
1001
0000
,
0110
0000
1010
0000
0011
0000
0110
1000
0100
0010
0100
0010
0110
0000
1001
0000
,
0101
0000
1010
0000
0110
0000
0011
0100
1000
0010
0001
0100
1100
0000
0011
0000
,
0101
0000
1010
0000
0101
0000
0110
0010
1001
0001
0010
0100
1010
0000
0101
0000
,
1001
0000
0110
0000
1001
0000
0101
1000
0100
0010
1001
0010
1100
0000
0101
0000
,
0021
0000
0000
0000
,
2030
3002
0023
0230
0300
2000
3002
0000
2003
0000
0000
0000
3002
0000
0000
0000
,
1003
0100
0010
0001
0100
1000
0010
0001
1000
0001
0010
0100
1000
0010
0001
0100
,
1000
0001
1000
0001
0010
0001
1000
0001
0100
1000
0010
1000
0010
0001
0100
1000
,
0001
0100
0010
0001
0100
1000
0010
0001
0100
1000
0001
0010
0100
1000
0100
0010
,
0001
0100
1000
0010
0001
1000
0010
0001
0100
0001
1000
0100
1000
0010
0101
1000
,
0100
0010
1000
0001
0010
0100
0010
1000
0001
0100
0010
1000
0001
0100
0010
1000
,
0001
1000
0100
0010
0100
0001
0010
0001
1000
0100
1000
0010
0001
0100
1000
0010
,
0001
0100
1000
0001
0100
0010
0001
0100
1000
0010
0001
0010
1000
0100
0001
0010
,
1001
0000
0000
0100
0000
0000
0010
0000
0000
1001
0000
0000
0100
0000
0000
1000
0000
0000
0100
0000
0000
0010
0000
0000
1001
0000
0000
0100
0000
0000
0010
0000
0000
0100
0000
0000
1001
0000
0000
0100
0000
0000
0010
0000
0001
0000
0010
0000
,
1001
0110
1001
0000
1010
0000
0101
0011
,
0000
0000
0101
0000
1010
0000
0000
0000
1001
0000
0000
0000
1001
0000
0100
0010
,
1001
0101
1010
0000
1001
0000
0011
1100
,
0000
0000
1010
0000
0101
0000
1001
0000
0110
0000
0000
0000
1000
0001
1000
0000
,
1001
0110
1010
0101
0110
0000
1001
0011
,
0000
0000
1100
0000
1001
0000
0000
0000
0110
0000
0000
0000
1001
0000
0010
0100
,
1001
0101
1010
0110
1001
0000
0101
0011
,
0000
0000
1001
0000
0110
0000
1001
0000
0110
0000
0000
0000
1000
0001
0010
0100
,
1100
0110
1001
0000
0110
0000
1001
0110
,
0000
0000
0011
0000
1100
0000
0110
0010
0001
1000
0100
0000
0110
0000
1000
0100
,
0011
1010
0101
1001
1100
0000
1001
0110
,
0000
0000
1100
0000
0011
0000
1100
0010
0100
0010
0000
0000
1000
0100
1000
0100
,
1001
0101
1010
1100
0011
0000
1010
0101
,
0000
0000
1001
0000
0110
0000
1100
0000
0001
0010
0001
0010
0000
1000
0100
1000
,
0011
0110
1100
1010
0101
0000
1001
0110
,
0000
0000
1010
0000
0202
0000
0303
0000
1000
0010
0001
0100
1000
0010
0001
0100
,
1001
0000
0110
0000
1001
0000
1010
0100
0000
0000
0000
0000
1001
0000
0110
0000
,
1001
0000
0011
0000
1100
0000
1010
0100
0000
0001
1000
0000
0110
0000
1010
0000
,
0101
0000
1001
0000
0110
0000
1001
0100
0000
0001
0010
0000
1001
0000
0011
0000
,
1100
0002
2003
3002
0203
2300
3020
0032
,
1003
0000
0011
0000
1100
0000
0011
0001
0000
0000
0000
0000
1001
0000
0110
0000
,
2000
0000
3002
0000
0203
0000
0301
0020
0030
1000
0010
0001
0100
0000
1010
0000
,
0101
0000
1010
0000
0101
0000
0011
0010
0000
1000
0001
0100
0010
0000
1100
0000
,
0201
2300
3002
0203
0302
2003
3200
0320
,
2030
0000
0010
0000
3001
0000
1100
0100
1000
0010
0001
0100
1001
0000
0110
0000
,
1001
0000
0110
0000
1001
0000
0101
0010
1000
0010
0001
0100
1001
0000
0101
0000
,
1010
0000
0110
0000
1001
0000
0110
0001
1000
0001
0010
0100
1010
0000
0110
0000
,
1001
0000
0000
0001
2000
0000
3001
0000
0100
0001
0010
1000
0100
0000
0110
0000
,
1001
0000
0101
0000
1010
0000
0101
1000
0100
0010
0001
1000
0101
0000
0110
0000
,
1001
0000
0101
0000
1010
0000
0110
1000
0100
0010
0001
1000
0101
0000
1010
0000
,
0110
0000
1001
0000
0101
0000
1010
0100
0001
0010
1000
0100
1001
0000
0110
0000
,
1001
0000
0101
0000
1010
0000
0011
0100
1000
0001
0010
1000
0100
0000
0010
0000
,
2001
0000
0000
0000
,
3002
0000
0000
0000
0000
0003
0000
0000
;
