#TITLE:Tears Are Forever;
#SUBTITLE:;
#ARTIST:N.EX.T;
#TITLETRANSLIT:;
#SUBTITLETRANSLIT:;
#ARTISTTRANSLIT:;
#CREDIT:;
#BANNER:Tears Are Forever-BN.png;
#BACKGROUND:Tears Are Forever-BG.png;
#LYRICSPATH:;
#CDTITLE:;
#MUSIC:Tears Are Forever.mp3;
#OFFSET:-8.600;
#SAMPLESTART:69.680;
#SAMPLELENGTH:12.000;
#SELECTABLE:YES;
#DISPLAYBPM:200.000;
#BPMS:0.000=200.000,97.750=225.000,98.000=200.200;
#STOPS:;
#BGCHANGES:;
// cache tags:
#FIRSTBEAT:4.000;
#LASTBEAT:331.750;
#SONGFILENAME:Songs/Community Keyboard Megapack - Volume 2/(Ensyther) Tears Are Forever/Tears Are Forever.sm;
#HASMUSIC:1;
#HASBANNER:1;
#MUSICLENGTH:109.949;
// end cache tags

//---------------dance-single - ----------------
#NOTES:
     dance-single:
     :
     Easy:
     7:
     0.550,0.641,0.236,0.082,0.091,388.000,26.000,9.000,0.000,0.000:  // measure 1
0000
0000
0000
0000
,  // measure 2
1000
0100
1000
0000
0100
0000
0100
0000
,  // measure 3
0010
0001
0010
0000
0001
0000
0001
0000
,  // measure 4
1000
0010
0100
0000
0010
0100
0001
0000
,  // measure 5
0001
0100
0010
0000
0000
1010
0000
0000
,  // measure 6
1000
0100
1000
0000
0001
0000
0100
0000
,  // measure 7
0001
0010
0001
0000
1000
0000
0010
0000
,  // measure 8
1000
0010
1000
0000
0001
0100
0001
0000
,  // measure 9
1001
0000
0110
0000
0000
0101
0000
0000
,  // measure 10
1000
0000
0100
0010
0000
0010
0000
0000
,  // measure 11
0001
0100
0000
0100
0000
0000
0010
0000
,  // measure 12
1000
0000
1000
0000
0100
0010
0100
1000
,  // measure 13
0001
0000
0001
0000
0100
0010
0100
0001
,  // measure 14
1000
0100
0001
0100
,  // measure 15
1100
0001
0101
1000
,  // measure 16
1001
0000
0010
0000
1000
0010
0100
0010
,  // measure 17
1000
0000
0001
0000
0010
0100
0010
0001
,  // measure 18
1000
0100
0001
0100
,  // measure 19
1000
0010
0001
0010
,  // measure 20
0100
0020
1000
1030
,  // measure 21
0100
0000
0001
0000
0010
1000
0100
0001
,  // measure 22
0100
1000
0001
0101
,  // measure 23
1000
0000
0100
0000
0000
0000
0100
0000
0000
0000
0000
0000
0001
0000
0000
0010
,  // measure 24
0000
0100
0000
1000
0000
0000
0000
0010
0000
0100
0000
0001
0000
0000
0000
1000
,  // measure 25
0000
0100
0000
0010
0000
0000
0000
0110
0000
0000
0000
0000
0000
0000
0000
0000
,  // measure 26
2000
0010
0001
0100
,  // measure 27
3200
1000
0001
0010
,  // measure 28
0320
1000
0100
0001
,  // measure 29
0032
0010
1000
0100
,  // measure 30
1003
0010
0100
0001
,  // measure 31
0001
0010
0100
1000
,  // measure 32
1000
0100
0010
0000
0001
0100
0010
0000
,  // measure 33
1001
0000
0000
1100
0000
0000
0101
0000
,  // measure 34
1002
1000
1000
1003
,  // measure 35
0100
0100
0100
0000
0010
0000
0010
0000
,  // measure 36
2001
0001
0001
3001
,  // measure 37
0010
0010
0010
0000
0100
0000
0100
0000
,  // measure 38
0010
1000
0100
0010
,  // measure 39
0001
0100
0010
1000
,  // measure 40
0001
0010
1000
0010
,  // measure 41
0001
0100
1000
0000
1000
0100
0001
0000
,  // measure 42
0010
0100
0000
0100
0010
0000
0001
0000
,  // measure 43
0100
0010
0000
0010
0100
0000
0010
0000
,  // measure 44
1000
1000
0010
0010
,  // measure 45
0100
0100
0001
0001
,  // measure 46
1000
0010
1000
0000
0001
0100
0001
0000
,  // measure 47
1000
0100
1000
0000
0001
0010
0001
0000
,  // measure 48
1000
0001
1000
0001
1000
0100
1000
0100
,  // measure 49
0010
0001
0010
0001
0100
0001
0100
0001
,  // measure 50
0100
0010
1000
0010
0100
0001
0010
0100
,  // measure 51
1000
0100
0010
0001
0100
0010
1000
0100
,  // measure 52
0010
0001
1000
1000
,  // measure 53
0100
0001
1000
0010
,  // measure 54
0001
0100
0100
0010
,  // measure 55
1000
0001
0001
1000
,  // measure 56
1100
0001
0101
1000
,  // measure 57
1100
0001
0101
0000
,  // measure 58
0001
0010
0001
0000
1000
0010
1000
0000
,  // measure 59
0001
0100
0001
0000
1000
0100
1000
0100
,  // measure 60
0010
0010
0001
1000
,  // measure 61
0010
0010
0001
1000
,  // measure 62
0100
0100
1000
0001
,  // measure 63
0100
0100
0001
0010
,  // measure 64
0100
1000
0100
0000
0010
0001
0010
0000
,  // measure 65
0100
0010
0100
0000
1001
0000
0000
0000
,  // measure 66
1010
0000
0101
0000
,  // measure 67
1010
0000
1001
0000
,  // measure 68
0100
0000
0001
1000
0000
1000
0000
0000
,  // measure 69
0100
0010
0000
0010
0000
0000
0001
0000
,  // measure 70
1000
0000
0100
0000
0010
0100
0010
0001
,  // measure 71
1000
0000
0100
0000
0010
0001
0100
0001
,  // measure 72
0010
0000
0001
0100
0000
0100
0000
0000
,  // measure 73
0010
1000
0000
1000
0000
0000
0100
0000
,  // measure 74
0100
0000
0010
0000
0001
1000
0001
0100
,  // measure 75
0001
0000
0001
0000
1000
0100
0010
0100
,  // measure 76
1000
0000
0100
0010
0000
0010
0000
0000
,  // measure 77
0001
0100
0000
0100
0000
0000
0010
0000
,  // measure 78
1000
0000
0100
0000
0010
0001
0100
0000
,  // measure 79
0010
1000
0100
0000
0110
0000
1001
0000
,  // measure 80
1000
0000
0010
0100
0000
0001
0000
0000
,  // measure 81
0100
0000
0010
0000
0000
0000
1000
0000
0000
0000
0000
0000
1000
0000
0000
1000
,  // measure 82
0000
0010
0000
0100
0000
0000
0000
0001
0000
0010
0000
0100
0000
0000
0000
1000
,  // measure 83
0000
0001
0000
0100
0000
0000
0000
2002
0000
0000
0000
0000
0000
0000
0000
3003
;

//---------------dance-single - ----------------
#NOTES:
     dance-single:
     :
     Medium:
     9:
     0.768,0.905,0.391,0.009,0.241,547.000,43.000,1.000,0.000,0.000:  // measure 1
0000
0000
0000
0000
,  // measure 2
1000
0010
0100
0001
0010
0100
0010
0001
,  // measure 3
0100
0010
1000
0100
0010
0001
1000
0000
,  // measure 4
0001
1000
0100
0010
0100
1000
0100
0010
,  // measure 5
0001
0010
0100
0010
0001
0100
0000
0000
,  // measure 6
0010
1000
0001
0010
0100
1000
0010
0100
,  // measure 7
0001
0010
0100
1000
0001
0100
0010
0000
,  // measure 8
0100
0010
1000
0100
0010
0001
1000
0100
,  // measure 9
0010
0001
0100
0010
1000
0001
0000
0000
,  // measure 10
1000
0000
0100
1000
0000
1100
0000
0000
,  // measure 11
0010
0100
0000
0101
0000
0000
1001
0000
,  // measure 12
0010
1000
0010
0000
0100
0001
0100
0000
,  // measure 13
0001
0010
0001
0000
1000
0100
1000
0000
,  // measure 14
1100
0000
0001
0100
0000
0101
0000
0000
,  // measure 15
0010
1000
0000
1010
0000
0000
1100
0000
,  // measure 16
0010
0001
0100
0000
0010
1000
0100
0000
,  // measure 17
0100
1000
0010
0000
0100
0001
0010
0000
,  // measure 18
0110
0000
0001
1000
0000
1001
0000
0000
,  // measure 19
0010
0100
0000
0110
0000
0000
1001
0000
,  // measure 20
1000
0100
0010
0001
0001
0010
0100
1000
,  // measure 21
0001
0100
0010
1000
1000
0010
0100
0001
,  // measure 22
0100
0000
0001
0100
0000
0101
0000
0000
,  // measure 23
1000
0000
0100
0000
0000
0000
1100
0000
0000
0000
0000
0000
0001
0000
0000
1000
,  // measure 24
0000
0010
0000
0100
0000
0001
0000
0010
0000
0100
0000
0001
0000
0100
0000
0001
,  // measure 25
0000
0100
0000
0010
0000
0000
0000
1001
0000
0000
0000
0000
0000
0000
0000
0000
,  // measure 26
1001
0000
0100
1000
0000
1100
0000
0000
,  // measure 27
0001
0100
0000
0101
0000
1010
0000
0000
,  // measure 28
0011
0000
0010
0100
0000
1100
0000
0000
,  // measure 29
0010
0001
0000
0101
0000
0000
1100
0000
,  // measure 30
1010
0000
0010
0100
0000
0101
0000
0000
,  // measure 31
0010
1000
0000
1001
0000
0000
0110
0000
,  // measure 32
1001
0000
1000
0001
0000
0001
1000
0000
,  // measure 33
0010
0100
0000
0100
0010
0000
0110
0000
,  // measure 34
1000
0010
1000
0010
1000
0010
0100
0001
,  // measure 35
0010
0001
0010
0001
0010
0001
0100
0010
,  // measure 36
1000
0100
0010
0001
0100
0010
1000
0010
,  // measure 37
0100
0001
0010
0100
1000
0001
0100
0010
,  // measure 38
1000
0010
0100
0001
0010
0100
1000
0001
,  // measure 39
0100
0010
1000
0010
0001
0010
1000
0100
,  // measure 40
0010
0001
0000
0001
0100
0000
0101
0000
,  // measure 41
0010
1000
0000
1000
0100
0000
1100
0000
,  // measure 42
1000
0001
0100
0001
1000
0001
0100
0000
,  // measure 43
0010
1000
0001
1000
0001
0100
0010
0000
,  // measure 44
1000
0100
0001
0100
1000
0100
0001
0100
,  // measure 45
1000
0010
0001
0010
1000
0010
0001
0010
,  // measure 46
1000
0010
1000
0100
1000
0010
1000
0100
,  // measure 47
1000
0001
0010
0001
0100
0001
0010
0001
,  // measure 48
1000
0001
0100
0001
1000
0001
0100
0001
,  // measure 49
1000
0100
1000
0001
1000
0100
1000
0001
,  // measure 50
0100
0010
0100
0010
0100
0010
0100
0010
,  // measure 51
1000
0001
1000
0001
1000
0001
1000
0001
,  // measure 52
1000
0010
0100
0001
1000
0100
0001
0100
,  // measure 53
1000
0010
0100
0010
1000
0100
0001
0100
,  // measure 54
1000
0001
0100
0010
0100
0001
0010
0100
,  // measure 55
0010
0001
1000
0100
0010
0001
0100
0010
,  // measure 56
1000
0010
1000
0010
0100
0001
0010
0100
,  // measure 57
0010
0001
1000
0100
0010
0000
0000
0000
,  // measure 58
0100
1000
0100
1000
0100
0010
0100
0010
,  // measure 59
0100
0001
0100
0001
0100
0010
0100
0010
,  // measure 60
0001
0010
0001
0100
0010
1000
0100
0001
,  // measure 61
0100
0010
0001
1000
0010
0001
0010
1000
,  // measure 62
0001
1000
0010
0100
0001
0010
0100
1000
,  // measure 63
0100
0010
0001
1000
0100
0010
0001
1000
,  // measure 64
0100
0010
0001
0100
0001
0010
0100
1000
,  // measure 65
0010
0000
0001
0000
1000
0000
0010
0000
0001
0000
0000
0000
0000
0000
0010
1000
,  // measure 66
0010
0000
0000
0000
0000
0000
1000
0100
1000
0000
0000
0000
0000
0000
0001
0010
,  // measure 67
0001
0000
0000
0000
0000
0000
1000
0001
1000
0000
0000
0000
0000
0000
0000
0000
,  // measure 68
1001
0000
0100
1000
0000
1100
0000
0000
,  // measure 69
0001
0100
0000
0101
0000
0000
1010
0000
,  // measure 70
1000
0000
0000
0100
0000
0000
0010
0000
0000
0001
0000
0000
0010
0000
0100
0000
0010
0000
0100
0000
0010
0000
0100
0000
,  // measure 71
0010
0000
0000
0001
0000
0000
0100
0000
0000
0010
0000
0000
1000
0000
0001
0000
1000
0000
0001
0000
1000
0000
0001
0000
,  // measure 72
0100
0000
0100
1000
0000
1100
0000
0000
,  // measure 73
0100
0001
0000
0101
0000
0000
0110
0000
,  // measure 74
0100
0000
0000
0010
0000
0000
1000
0000
0000
0001
0000
0000
0100
0000
0001
0000
0100
0000
0001
0000
0100
0000
0001
0000
,  // measure 75
0100
0000
0000
0010
0000
0000
1000
0000
0000
0001
0000
0000
1000
0000
0100
0000
1000
0000
0100
0000
1000
0000
0100
0000
,  // measure 76
1000
0000
0010
0001
0000
0011
0000
0000
,  // measure 77
0010
0100
0000
0110
0000
0000
1001
0000
,  // measure 78
1000
0000
0000
0100
0000
0000
0010
0000
0000
0001
0000
0000
0010
0000
0100
0000
1000
0000
0010
0000
0100
0000
0001
0000
,  // measure 79
0100
0000
0000
0010
0000
0000
1000
0000
0000
0001
0000
0000
0100
0000
0010
0000
1000
0000
0100
0000
0010
0000
0001
0000
,  // measure 80
0100
0000
0001
1000
0000
1100
0000
0000
,  // measure 81
0100
0000
0010
0000
0000
0000
0011
0000
0000
0000
0000
0000
0110
0000
0000
0100
,  // measure 82
1000
0001
1000
0001
1000
0001
1000
0001
0100
0010
0100
0010
0100
0010
0100
0010
,  // measure 83
1000
0001
1000
0001
1000
0001
1000
0200
0000
0000
0000
0000
0000
0000
0000
0300
;

//---------------dance-single - ----------------
#NOTES:
     dance-single:
     :
     Hard:
     11:
     1.000,1.000,0.709,0.091,1.000,767.000,78.000,10.000,0.000,0.000:  // measure 1
0000
0000
0000
0000
,  // measure 2
0010
0010
1000
0100
0010
0010
0001
0100
,  // measure 3
0010
1000
0100
0010
0001
0100
1000
0100
,  // measure 4
0001
0001
0010
0100
1000
1000
0010
0100
,  // measure 5
0001
0010
0100
1000
0001
0101
0000
0000
,  // measure 6
1000
0010
1000
0100
0010
0001
0100
0010
,  // measure 7
0100
0001
0100
0001
0010
0100
0010
0001
,  // measure 8
1000
0010
0100
0001
0010
0100
0010
0001
,  // measure 9
1000
0100
0010
0001
0100
1001
0000
0000
,  // measure 10
1010
1000
0100
0010
0000
0011
0000
0000
,  // measure 11
0011
0101
0000
1010
0000
0000
1001
0000
,  // measure 12
1000
0000
0000
0100
0000
0000
0010
0000
0000
0001
0000
0000
0001
0000
0010
0000
0100
0000
1000
0000
0010
0000
0100
0000
,  // measure 13
0001
0000
0000
0100
0000
0000
0010
0000
0000
1000
0000
0000
1000
0000
0010
0000
0100
0000
0001
0000
0010
0000
0100
0000
,  // measure 14
0110
0000
1100
0011
0000
0011
0000
0000
,  // measure 15
0011
1001
0000
1100
0000
0000
0101
0000
,  // measure 16
0001
0000
0000
0100
0000
0000
0010
0000
0000
1000
0000
0000
0010
0000
0100
0000
0001
0000
0010
0000
0100
0000
1000
0000
,  // measure 17
0100
0000
0000
0010
0000
0000
0001
0000
0000
1000
0000
0000
0100
0000
0001
0000
0100
0000
1000
0000
0010
0000
0100
0000
,  // measure 18
0101
0100
1010
1100
0010
1001
0010
0100
,  // measure 19
0110
1001
0100
1010
0100
1000
1100
0010
,  // measure 20
0001
0000
0000
0010
0000
0000
0100
0000
0000
0010
0000
0000
0001
0000
0010
0000
0100
0000
0010
0000
0001
0000
0100
0000
,  // measure 21
1000
0000
0000
0100
0000
0000
0001
0000
0000
0010
0000
0000
1000
0000
0010
0000
0100
0000
0001
0000
0100
0000
0010
0000
,  // measure 22
1010
0010
0011
0101
0100
1001
0100
0010
,  // measure 23
1010
0000
0101
0000
0001
0000
0011
0000
0100
0000
1000
0000
1100
0000
0100
0010
,  // measure 24
0001
0010
0100
1000
0001
0010
0100
1000
0001
0010
0100
1000
0001
0010
0100
1000
,  // measure 25
0001
0010
0100
1000
0001
0010
0100
1000
0000
0000
0000
0000
0000
0000
0000
0000
,  // measure 26
2000
0000
0000
0000
,  // measure 27
3002
0000
0000
0000
,  // measure 28
0203
0000
0000
0000
,  // measure 29
0320
0000
0000
0000
,  // measure 30
1030
0000
0000
0010
1000
0000
0000
0001
0100
0000
0000
0010
1000
0000
0000
1000
,  // measure 31
0100
0000
0000
0010
0001
0000
0000
0001
0100
0000
0000
1000
0100
0000
0000
0000
,  // measure 32
0100
1000
0001
1000
0200
0000
0000
0000
,  // measure 33
0000
0000
0300
0000
,  // measure 34
0010
0001
0010
0001
0010
0001
0010
0001
0010
0001
0010
0001
0010
0001
0010
0001
,  // measure 35
0010
0001
0010
0001
0010
0001
0010
0001
0010
0001
0010
0001
0010
0001
0010
0001
,  // measure 36
0010
0100
1000
0001
0010
0100
1000
0010
0100
0001
1000
0010
0100
0001
1000
0010
,  // measure 37
0100
0001
0010
0100
0010
0001
0100
0010
0100
0001
0010
0100
0001
0100
0010
0100
,  // measure 38
0001
1000
0001
1000
0001
1000
0001
1000
0001
1000
0001
1000
0001
1000
0001
1000
,  // measure 39
0100
0010
0100
0010
0100
0010
0100
0010
0100
0010
0100
0010
0100
0010
0100
0010
,  // measure 40
0100
1000
0010
0100
0001
0010
0100
1000
0100
0010
0001
1000
0100
0010
0001
1000
,  // measure 41
0100
0010
0001
1000
0100
0010
0001
1000
0100
0010
0001
1000
0100
0010
0001
1000
,  // measure 42
0100
0010
0100
0010
0100
0010
0100
0010
0100
0010
0100
0010
0100
0010
0100
0010
,  // measure 43
0100
0010
0100
0010
0100
0010
0100
0010
0100
0010
0100
0010
0100
0010
0100
0010
,  // measure 44
0001
0010
0100
1000
0100
0010
0001
0010
0100
1000
0100
0010
0001
0010
0100
1000
,  // measure 45
0100
0010
0001
0010
0100
1000
0100
0010
0001
0010
0100
1000
0100
0010
0001
0010
,  // measure 46
0001
0100
0010
1000
0010
0100
0001
0100
0010
1000
0010
0100
0001
0100
0010
1000
,  // measure 47
0010
0100
0001
0100
0010
1000
0010
0100
0001
0100
0010
1000
0010
0100
0001
0100
,  // measure 48
0010
1000
0100
0010
0001
0100
0010
1000
0100
0010
0001
0100
0010
1000
0100
0010
,  // measure 49
0001
0100
1000
0100
0001
0100
1000
0100
0001
0100
1000
0100
0001
0100
1000
0100
,  // measure 50
0001
0010
1000
0010
0001
0010
1000
0010
0001
0010
1000
0010
0001
0010
1000
0010
,  // measure 51
0001
0100
0010
1000
0100
0001
0100
1000
0010
0100
0001
0010
0100
0010
0001
1000
,  // measure 52
0200
0010
1000
0010
1000
0010
0001
0010
,  // measure 53
0320
0001
0100
1000
0100
0001
0100
0001
,  // measure 54
0032
0010
1000
0100
1000
0010
1000
0100
,  // measure 55
2003
0010
0001
0100
0010
0001
0100
0001
,  // measure 56
3100
0010
0001
1000
0001
0100
0010
1000
,  // measure 57
0010
0100
0001
0010
0110
0000
0000
0000
,  // measure 58
1000
0100
1000
0000
0001
0100
0001
0000
1000
0001
1000
0000
0001
1000
0001
0000
,  // measure 59
1000
0100
0010
0001
0100
0010
0100
0001
0010
0100
1000
0001
,  // measure 60
0100
0010
1000
0001
0100
0010
0100
0001
,  // measure 61
1000
0010
0100
0001
1000
0100
0010
0001
,  // measure 62
1000
0010
0100
0001
0010
0100
0001
0100
,  // measure 63
1000
0010
0001
0010
0100
0010
1000
0100
,  // measure 64
0010
0001
0100
0010
0100
0001
1000
0100
,  // measure 65
1000
0000
0010
0000
0100
0000
0010
0000
1001
0000
0000
0000
0000
0000
0011
0011
,  // measure 66
0011
0000
0000
0000
0000
0000
0110
0110
0110
0000
0000
0000
0000
0000
1100
1100
,  // measure 67
1100
0000
0000
0000
0000
0000
1001
1001
1001
0000
0000
0000
0000
0000
0000
0000
,  // measure 68
1001
0100
1100
0011
0000
0011
0000
0000
,  // measure 69
0110
1001
0000
1001
0000
0000
0110
0000
,  // measure 70
1000
0000
0000
0100
0000
0000
0010
0000
0000
0001
0000
0000
0010
0000
0100
0000
1000
0000
0001
0000
0010
0000
0100
0000
,  // measure 71
1000
0000
0000
0100
0000
0000
0010
0000
0000
0001
0000
0000
0010
0000
0100
0000
1000
0000
0001
0000
0010
0000
0100
0000
,  // measure 72
1001
0100
1001
1010
0000
1010
0000
0000
,  // measure 73
1010
1100
0000
1001
0000
0000
0110
0000
,  // measure 74
0001
0000
0000
0100
0000
0000
1000
0000
0000
0100
0000
0000
0010
0000
1000
0000
0010
0000
0100
0000
0001
0000
0010
0000
,  // measure 75
0100
0000
0000
0010
0000
0000
0001
0000
0000
0100
0000
0000
1000
0000
0100
0000
0001
0000
0010
0000
1000
0000
0010
0000
,  // measure 76
1001
0100
1100
0011
0001
0011
0001
1000
,  // measure 77
1100
1001
0100
1001
0100
0010
1001
0010
,  // measure 78
1000
0000
0000
0100
0000
0000
0001
0000
0000
0100
0000
0000
1000
0000
0010
0000
0100
0000
0001
0000
0010
0000
0100
0000
,  // measure 79
0001
0000
0000
0100
0000
0000
1000
0000
0000
0010
0000
0000
0001
0000
0010
0000
0100
0000
1000
0000
0100
0000
0010
0000
,  // measure 80
0011
0010
1010
1100
0100
0101
0100
1000
,  // measure 81
1100
0000
0110
0000
0100
0000
0110
0000
0010
0000
0100
0000
1001
0000
0100
0010
,  // measure 82
0001
0010
0100
1000
0010
0100
0001
0010
0100
1000
0100
0001
0100
1000
0010
0001
,  // measure 83
0010
0100
0010
1000
0100
0010
0001
0200
0000
0000
0000
0000
0000
0000
0000
0300
;
