#TITLE:[3-2] Powershifter;
#SUBTITLE:;
#ARTIST:Fear Factory;
#TITLETRANSLIT:;
#SUBTITLETRANSLIT:;
#ARTISTTRANSLIT:;
#CREDIT:;
#BANNER:../Beast 4 - bn.png;
#BACKGROUND:../Beast 4 - bg.png;
#LYRICSPATH:;
#CDTITLE:;
#MUSIC:Powershifter.ogg;
#OFFSET:0.009;
#SAMPLESTART:63.360;
#SAMPLELENGTH:25.300;
#SELECTABLE:YES;
#BPMS:0.000=212.000;
#STOPS:;
#BGCHANGES:;
// cache tags:
#FIRSTBEAT:0.000;
#LASTBEAT:655.500;
#SONGFILENAME:Songs/Beast Aoreo BEAST! 4/Powershifter - [Aoreo]/Powershifter.sm;
#HASMUSIC:1;
#HASBANNER:1;
#MUSICLENGTH:185.943;
// end cache tags

//---------------dance-single - J. Nero----------------
#NOTES:
     dance-single:
     J. Nero:
     Challenge:
     16:
     1.000,1.000,0.323,0.253,1.000,1779.000,60.000,47.000,0.000,0.000:
0001
0100
0001
1000
0100
0010
0001
1000
0010
0100
0001
1000
0001
0010
0100
1000
,
0001
0000
0000
0000
1000
0000
0000
0000
0001
0100
0001
1000
0100
0000
0000
0000
,
1000
0001
0100
0001
,
1000
0100
0010
0100
1000
0001
0100
0010
0100
0001
1000
0100
0010
0001
1000
0010
,
1000
0000
0000
0000
0001
0000
0000
0000
0100
0010
0100
0001
1000
0000
0000
0000
,
0001
0010
0100
1000
,
0001
0010
0100
0010
0001
1000
0001
0100
0010
1000
0001
0100
0001
1000
0100
0010
,
0001
0000
0000
0000
1000
0000
0000
0000
0001
0100
0010
0100
0001
0000
0000
0000
,
1000
0100
1000
0010
,
0100
0001
1000
0001
0010
0100
1000
0001
1000
0010
0100
0001
1000
0100
0010
0001
,
1000
0000
0000
0000
0001
0000
0000
0000
1000
0100
1000
0001
0100
0000
0000
0000
,
0000
0000
0000
0000
,
0001
0100
0001
1000
0100
0010
0001
1000
0001
0100
0010
0100
0001
1000
0100
0010
,
0001
0000
0000
0000
0000
0000
0000
0000
1000
0100
1000
0001
0010
0000
0000
0000
,
0001
0000
1000
0100
1000
0001
0000
0000
,
0100
0001
0100
0010
1000
0100
0010
0001
1000
0100
1000
0001
0100
0010
0100
0001
,
1000
0000
0000
0000
0000
0000
0000
0000
0001
0100
0001
1000
0010
0000
0000
0000
,
1000
0000
0001
0010
0001
0010
0000
0000
,
0001
0100
0001
0000
0010
0000
0100
0000
1000
0000
0000
0000
0010
0100
0010
0000
,
1000
0000
0100
0000
0010
0000
0000
0000
0001
0100
0010
0000
1000
0000
0100
0000
,
1000
0000
0000
0000
0100
0010
0001
0000
1000
0000
0010
0000
0100
0000
0000
0000
,
0001
0100
0010
0000
0100
0000
0001
0000
0010
0000
0000
0000
0100
1000
0001
0000
,
0100
0000
0010
0000
0100
0000
0000
0000
0001
0010
0100
0000
1000
0000
0001
0000
,
0100
0000
0000
0000
0010
1000
0010
0000
0100
0000
0001
0000
1000
0000
0000
0000
,
0001
0100
0010
0100
0001
1000
0100
0010
0001
0000
1000
0000
0010
0000
0100
0000
,
0000
0000
0000
0000
0001
0100
0001
1000
0001
0000
0010
0000
0200
0000
0000
0000
,
1300
0001
0100
0001
1000
0100
0010
0001
1000
0000
0010
0000
0100
0000
0001
0000
,
0000
0000
0000
0000
1000
0100
1000
0001
0100
0000
0001
0000
0020
0000
0000
0000
,
0130
1000
0001
0100
0001
1000
0010
0100
0001
0000
0100
0000
0010
0000
0100
0000
,
0000
0000
0000
0000
0001
0010
0100
1000
0001
0000
0100
0000
0020
0000
0000
0000
,
1030
0001
1000
0010
0100
0001
0010
0100
1000
0000
0100
0000
1000
0000
0001
0000
,
0000
0000
0000
0000
0100
0001
1000
0100
0010
0000
0001
0000
0200
0000
0000
0000
,
0301
0100
0010
0100
0001
1000
0100
0010
0001
0000
1000
0000
0100
0000
1000
0000
,
0001
0000
0000
0000
1000
0100
1000
0001
0100
0000
0001
0000
0200
0000
0000
0000
,
0301
1000
0100
0010
0001
1000
0001
0100
0010
0000
1000
0000
0100
0000
0010
0000
,
0001
0000
0000
0000
1000
0100
1000
0001
0100
0000
0010
0000
2000
0000
0000
0000
,
3001
0100
0001
0010
0100
1000
0001
0100
0001
0000
1000
0000
0100
0000
0010
0000
,
0001
0000
0000
0000
1000
0010
0100
0001
0100
0000
0001
0000
0020
0000
0000
0000
,
0130
1000
0001
0100
0001
1000
0100
0010
0001
0000
0100
0000
0010
0000
1000
0000
,
0001
0000
0000
0000
1000
0100
1000
0001
0100
0000
0001
0000
0020
0000
0000
0000
,
0031
0100
0001
1000
0010
0100
0001
1000
0100
0010
0001
1000
0100
1000
0001
0100
,
0010
0100
0001
1000
0100
0010
0001
1000
0001
0100
0010
0100
0001
1000
0001
0010
,
0100
1000
0001
0101
0100
0010
1010
1000
,
0100
0110
0010
0001
1001
1000
0101
0001
,
1000
0001
1000
0010
0100
0001
1000
0100
0010
0001
1000
0100
1000
0001
0100
0010
,
0100
0001
1000
0001
0010
0100
1000
0001
1000
0010
0100
0001
1000
0100
0010
0001
,
1000
0001
0100
0101
0001
0010
0110
0100
,
1000
1001
0001
0100
0101
0001
1100
1000
,
0001
0100
0010
0100
0001
1000
0100
0010
0001
1000
0100
1000
0001
0100
0010
0100
,
0001
1000
0100
0010
0001
1000
0100
1000
0001
0100
0010
0100
0001
1000
0100
1000
,
0001
0100
0001
1001
1000
0010
1010
1000
,
0100
0110
0010
0001
1001
1000
0101
0001
,
1000
0100
1000
0001
0010
0100
1000
0001
0100
0001
1000
0010
0100
0010
1000
0001
,
0100
0001
1000
0100
0010
0001
1000
0100
1000
0001
0100
0010
0100
0001
1000
0010
,
1000
0001
0010
0100
1000
0001
0100
0001
1000
0010
0100
0010
1000
0001
0010
0100
,
1000
0001
0100
0010
0100
0001
1000
0100
0010
0001
1000
0001
1000
0000
0000
0000
,
0001
0100
0001
1000
0100
0010
0001
1000
0100
1000
0001
0100
0010
0100
0001
1000
,
0100
0010
0001
1000
0001
0100
0001
1000
0010
0100
0010
1000
0001
0010
0100
1000
,
0001
0010
0100
1100
1000
0001
0101
0100
,
0010
1010
1000
0010
0110
0100
0101
0001
,
1000
0100
1000
0001
0100
0001
1000
0100
0010
0001
1000
0100
1000
0001
0100
0010
,
0100
0001
1000
0001
0010
0100
1000
0001
1000
0010
0100
0010
1000
0001
0100
0001
,
1000
0010
1000
1100
0100
0010
0011
0001
,
1000
1100
0100
1000
1001
0001
0101
0100
,
0001
0100
0001
1000
0100
0010
0001
1000
0001
0100
0001
1000
0010
0100
0010
1000
,
0001
1000
0100
0010
0100
1000
0001
0100
0001
1000
0010
0100
0010
1000
0001
0100
,
0001
1000
0100
0110
0010
0001
1001
1000
,
0001
0101
0100
0010
1010
1000
1001
0001
,
0100
0001
1000
0100
0010
0100
1000
0001
0100
0001
1000
0010
0100
0010
1000
0001
,
0010
0100
1000
0001
1000
0010
0100
0010
1000
0001
0100
0001
1000
0001
0100
0010
,
1000
0100
0010
0001
1000
0010
0100
0001
1000
0100
0010
0001
1000
0010
0100
0001
,
1000
0001
0010
0100
1000
0001
0100
0010
0100
0001
1000
0010
1000
0000
0000
0000
,
0001
0010
0100
1000
0001
0100
0010
1000
0001
0010
0100
1000
0001
0100
0010
0100
,
0001
1000
0100
0010
0001
1000
0010
0100
0001
1000
0100
0010
0001
0000
0000
0000
,
1000
0010
0100
0001
1000
0100
0010
0001
1000
0010
0100
0010
1000
0001
0010
0100
,
1000
0001
0100
0010
1000
0001
0010
0100
1000
0001
0100
0001
1000
0000
0000
0000
,
0001
0010
0100
1000
0001
0100
0010
1000
0001
1000
0100
0010
0001
1000
0010
0100
,
0001
1000
0100
0010
0100
1000
0010
0100
0001
0010
0100
1000
0001
0000
0000
0000
,
1000
0100
1000
0001
0100
0001
2000
0000
0000
0000
3000
0000
0001
0100
0001
1000
,
0100
0010
0002
0000
0000
0000
0003
0000
0100
0010
0100
0001
2000
0000
0000
0000
,
3001
0100
0001
1000
0100
0010
0002
0000
0000
0000
0003
0000
1000
0100
0010
0100
,
1000
0001
0200
0000
0000
0000
0300
0000
0001
1000
0001
0010
0200
0000
0000
0000
,
1300
0001
1000
0010
0100
0001
2000
0000
0000
0000
3001
0100
0010
0100
0001
1000
,
0100
0010
0002
0000
0000
0000
1003
0100
1000
0001
0010
0100
2000
0000
0000
0000
,
3001
0100
0001
1000
0100
0010
0001
1000
0001
0100
0010
0100
0001
1000
0001
0100
,
0001
1000
0100
1000
0100
0010
0001
1000
0010
0100
0001
1000
0001
0000
0000
0000
,
1000
0100
1000
0000
0001
0100
0001
0000
0010
0000
0100
0000
1000
0100
1000
0000
,
0010
0100
0010
0000
1000
0000
0001
0000
1000
0100
1000
0001
0100
0000
0001
0000
,
0010
0100
1000
0001
1000
0010
0100
0000
0001
0000
1000
0000
0100
1000
0001
0100
,
0010
0100
0001
0000
0010
0000
0100
0000
1000
0100
1000
0001
0100
0000
0001
0000
,
1000
0100
0010
0100
1000
0001
0100
0000
0010
0000
0100
0000
0001
1000
0100
1000
,
0001
0100
0010
0000
0100
0000
0001
0000
1000
0100
1000
0001
0010
0100
1000
0000
,
0001
0100
0010
1000
0010
0100
0001
0000
1000
0000
0100
0000
1000
0010
1000
0001
,
0100
0001
1000
0000
0001
0000
0010
0000
0100
1000
0001
0100
0002
0000
0003
0000
,
1000
0100
1000
0001
0100
0010
0200
0000
0000
0000
0301
1000
0010
1000
0001
0010
,
0100
1000
0002
0000
0000
0000
1003
0100
0010
0100
1000
0001
0200
0000
0000
0000
,
0301
1000
0010
1000
0001
0100
0020
0000
0000
0000
1030
0100
1000
0001
0010
0100
,
1000
0001
2000
0000
0000
0000
3010
0100
0010
1000
0001
0010
0200
0000
0000
0000
,
1300
0001
0010
0100
1000
0001
0200
0000
0000
0000
0301
0010
0001
1000
0100
0010
,
0001
1000
0020
0000
0000
0000
1030
0100
1000
0001
0100
0010
0200
0000
0000
0000
,
0301
1000
0100
1000
0001
0010
0002
0000
0000
0000
0013
0100
1000
0001
0100
0010
,
1000
0001
2000
0000
0000
0000
3001
0100
0001
1000
0100
0010
0002
0000
0000
0000
,
1003
0100
0010
0100
1000
0001
0200
0000
0000
0000
0301
1000
0100
1000
0001
0100
,
0001
1000
0200
0000
0000
0000
1300
0001
1000
0100
0010
0001
2000
0000
0000
0000
,
3001
0100
0001
1000
0100
0010
0002
0000
0000
0000
1003
0100
1000
0001
0010
0100
,
1000
0001
2000
0000
0000
0000
3001
0100
0001
1000
0100
1000
0002
0000
0000
0000
,
1003
0100
1000
0010
0100
0001
1000
0100
0010
0100
1000
0001
1000
0010
0100
0001
,
1000
0100
0010
0001
1000
0010
0100
0010
1000
0001
0010
0100
2000
0000
0000
0000
,
3001
0100
0001
1000
0010
0100
0002
0000
0000
0000
1003
0100
0010
0100
1000
0001
,
0100
0001
2000
0000
0000
0000
3001
0100
0001
1000
0100
0010
0002
0000
0000
0000
,
1003
0000
0100
0000
,
0010
0000
0100
1000
,
0010
0000
0000
0100
0000
0000
0002
0000
,
0000
0000
0003
0000
,
2000
0000
0000
0000
,
0000
0000
0000
0000
,
3200
0000
0000
0320
,
0000
0000
0000
0000
,
0031
0000
0100
0000
,
0010
0000
1000
0001
,
0010
0000
0000
0100
0000
0000
2000
0000
,
0000
0000
3000
0000
,
0002
0000
0000
0000
,
0000
0000
0000
0000
,
0103
0010
0100
0001
1000
0010
0100
0001
1000
0100
0010
0001
1000
0010
0100
0001
,
1000
0001
0010
0100
1000
0001
1000
0010
0100
0001
1000
0001
0100
0000
0000
0000
,
0001
0100
0001
1000
0010
0100
0001
1000
0100
0010
0001
1000
0100
1000
0001
0100
,
0010
0100
0001
1000
0100
0010
0001
1000
0001
0100
0010
0100
0001
1000
0001
0010
,
0100
1000
0001
0101
0100
0010
1010
1000
,
0100
0110
0010
0001
1001
1000
0101
0001
,
1000
0001
1000
0010
0100
0001
1000
0100
0010
0001
1000
0100
1000
0001
0100
0010
,
0100
0001
1000
0001
0010
0100
1000
0001
1000
0010
0100
0001
1000
0100
0010
0001
,
1000
0001
0100
0101
0001
0010
0110
0100
,
1000
1001
0001
0100
0101
0001
1100
1000
,
0001
0100
0010
0100
0001
1000
0100
0010
0001
1000
0100
1000
0001
0100
0010
0100
,
0001
1000
0100
0010
0001
1000
0100
1000
0001
0100
0010
0100
0001
1000
0100
1000
,
0001
0100
0001
1001
1000
0010
1010
1000
,
0100
0110
0010
0001
1001
1000
0101
0001
,
1000
0100
1000
0001
0010
0100
1000
0001
0100
0001
1000
0010
0100
0010
1000
0001
,
0100
0001
1000
0100
0010
0001
1000
0100
1000
0001
0100
0010
0100
0001
1000
0010
,
1000
0001
0010
0100
1000
0001
0100
0001
1000
0010
0100
0010
1000
0001
0010
0100
,
1000
0001
0100
0010
0100
0001
1000
0100
0010
0001
1000
0001
1000
0000
0000
0000
,
0001
0100
0001
1000
0100
0010
0001
1000
0100
1000
0001
0100
0010
0100
0001
1000
,
0100
0010
0001
1000
0001
0100
0001
1000
0010
0100
0010
1000
0001
0010
0100
1000
,
0001
0010
0100
1100
1000
0001
0101
0100
,
0010
1010
1000
0010
0110
0100
0101
0001
,
1000
0100
1000
0001
0100
0001
1000
0100
0010
0001
1000
0100
1000
0001
0100
0010
,
0100
0001
1000
0001
0010
0100
1000
0001
1000
0010
0100
0010
1000
0001
0100
0001
,
1000
0010
1000
1100
0100
0010
0011
0001
,
1000
1100
0100
1000
1001
0001
0101
0100
,
0001
0100
0001
1000
0100
0010
0001
1000
0001
0100
0001
1000
0010
0100
0010
1000
,
0001
1000
0100
0010
0100
1000
0001
0100
0001
1000
0010
0100
0010
1000
0001
0100
,
0001
1000
0100
0110
0010
0001
1001
1000
,
0001
0101
0100
0010
1010
1000
1001
0001
,
0100
0001
1000
0100
0010
0100
1000
0001
0100
0001
1000
0010
0100
0010
1000
0001
,
0010
0100
1000
0001
1000
0010
0100
0010
1000
0001
0100
0001
1000
0001
0100
0010
,
1000
0100
0010
0001
1000
0010
0100
0001
1000
0100
0010
0001
1000
0010
0100
0001
,
1000
0001
0010
0100
1000
0001
0100
0010
0100
0001
1000
0010
1000
0000
0000
0000
,
0001
0010
0100
1000
0001
0100
0010
1000
0001
0010
0100
1000
0001
0100
0010
0100
,
0001
1000
0100
0010
0001
1000
0010
0100
0001
1000
0100
0010
0001
0000
0000
0000
,
1000
0010
0100
0001
1000
0100
0010
0001
1000
0010
0100
0010
1000
0001
0010
0100
,
1000
0001
0100
0010
1000
0001
0010
0100
1000
0001
0100
0001
1000
0000
0000
0000
,
0001
0010
0100
1000
0001
0100
0010
1000
0001
1000
0100
0010
0001
1000
0010
0100
,
0001
1000
0100
0010
0100
1000
0010
0100
0001
0010
0100
1000
0002
0000
0003
0000
;
