#TITLE:LeaF Style Super ☆ Shredder;
#SUBTITLE:;
#ARTIST:LeaF;
#TITLETRANSLIT:;
#SUBTITLETRANSLIT:;
#ARTISTTRANSLIT:;
#CREDIT:Braeden47;
#BANNER:../Banner.png;
#BACKGROUND:../BG.PNG;
#LYRICSPATH:;
#CDTITLE:../CDTitleBRAEDEN.png;
#MUSIC:LeaF Style Super _ Shredder.ogg;
#OFFSET:-0.435;
#SAMPLESTART:15.495;
#SAMPLELENGTH:29.999;
#SELECTABLE:YES;
#BPMS:0.000=254.987,148.000=127.494,151.000=254.987;
#STOPS:;
#BGCHANGES:;
// cache tags:
#FIRSTBEAT:0.000;
#LASTBEAT:508.500;
#SONGFILENAME:Songs/Index Fusion/LeaF Style Super Shredder - [Braeden]/LeaF Style Super _ Shredder.sm;
#HASMUSIC:1;
#HASBANNER:1;
#MUSICLENGTH:122.833;
// end cache tags

//---------------dance-single - ----------------
#NOTES:
     dance-single:
     :
     Challenge:
     20:
     1.000,1.000,0.488,0.334,1.000,1124.000,60.000,41.000,1.000,0.000:

1000
0000
0100
0000
0010
0000
0001
0000
0100
0010
0100
0000
0010
1000
0010
0000
,
0100
0000
0001
0000
1000
0000
0100
0000
0010
0001
0010
0000
0001
1000
0001
0000
,
1000
0100
0010
0001
0100
0000
0010
1000
,
0010
0000
0000
0100
0000
0000
0001
0000
0000
1000
0000
0000
0400
0000
0000
0000
0000
0000
0310
0001
1000
0100
0010
0001
,
1000
0100
0010
0001
0100
0000
0010
0010
,
1000
0000
0100
0000
0010
0000
0001
0000
0100
0000
0100
0000
0010
1000
0010
1000
,
0001
0100
0040
0000
0130
0100
0001
1000
,
0010
0010
0100
0001
1000
0000
1001
0000
,
1000
0100
0010
0001
0100
0100
0010
0010
,
1000
0000
1000
0000
1000
0000
0000
0000
1001
0000
0000
0000
1000
0100
0010
0001
,
1000
0100
0010
0001
0100
0010
1000
1000
,
0010
0100
0004
0000
0403
0000
0300
0000
,
0010
0000
1000
0000
0010
0000
0000
0000
0100
0000
0001
0100
0001
0000
0100
0000
,
0010
0000
0010
0000
0010
0000
0000
0000
1010
0000
0000
0000
1000
0001
0100
0010
,
1000
0000
0000
0010
0000
0000
0100
0000
0001
0000
0100
0000
0010
1000
0010
1000
,
0001
0100
0010
1000
0002
0000
0000
0000
0403
0000
0000
0000
0000
0000
0000
0000
,
0310
0000
1000
0000
0010
0000
0100
0000
0001
0000
0100
0010
0100
0000
0010
0000
,
1000
0000
0100
0000
0020
0000
0000
0000
0032
0000
0000
0000
1003
0001
1000
0001
,
1000
0000
0000
1010
0000
0000
0110
0000
0100
0000
0001
0000
0100
0000
0010
0000
,
1000
0100
0010
0001
0010
0100
1000
0001
0100
0010
1000
0100
0010
0001
0010
0100
,
1000
0000
0000
0010
0000
0000
1010
0000
0000
1000
0000
0000
0001
0000
0100
0000
,
0010
1000
0001
0010
0100
1000
0001
0100
0010
1000
0010
1000
0010
0000
0100
0001
,
0100
0000
0000
0010
0000
0000
1000
0100
0010
0001
0000
0000
2000
0000
0000
0000
0000
0000
3020
0000
0000
0000
0000
0000
,
0130
0100
0001
0100
0010
0010
1000
0100
,
0010
0000
0010
0000
0001
0000
0001
0000
0100
0010
1000
0001
1000
0000
0000
0000
,
0010
0010
0100
0100
0001
0001
1001
0000
,
1000
0000
0010
0100
0010
0000
0100
0000
0001
0000
0001
0000
1001
0000
0000
0000
,
1000
0000
0100
0000
0010
0000
0001
0000
1000
0010
0100
0001
0020
0000
0000
0000
,
M031
0000
0000
0000
0000
0000
0000
0000
0000
0000
0000
0000
0100
0000
0000
0000
0000
0000
0010
0000
0000
1000
0000
0000
0100
0000
0000
0000
0000
0000
0100
0000
0000
0000
0000
0000
0010
0000
0001
0000
0010
0000
0001
0000
0010
0000
0001
0000
,
0010
0001
0100
0010
2000
3010
2000
3001
,
0100
0000
0010
0010
0110
0000
0010
0000
,
1010
0000
0000
0000
1001
0000
0000
0000
1000
0001
0000
0001
0100
0000
0010
0000
,
1000
0000
0001
0100
0010
0000
1000
0000
0020
0000
0000
0000
0000
0000
0000
0000
,
0130
0000
0001
0000
0100
0000
0001
0000
1000
0010
0100
0001
1000
0000
0010
0000
,
0100
0000
0001
0100
0010
0000
1000
0000
0001
0000
0010
0000
0100
0000
0000
0000
,
1000
0000
0100
0000
1000
0000
0100
0000
0010
0001
0100
0010
1000
0000
0000
0000
,
0001
0000
0000
0000
1001
0000
0000
0000
1001
0000
0000
0101
0000
0000
0110
0000
,
0000
0000
0000
0000
0000
0000
0000
0000
0010
0000
0010
0000
0010
0000
1000
0001
,
1000
0000
0100
0000
0010
0000
0001
0000
0100
0000
0010
1000
0010
1000
0001
0000
,
0010
0000
0000
0000
0100
0000
1000
0000
0001
0000
0100
0010
0000
0000
1000
0001
,
0100
0000
0100
0000
0010
0000
1000
0100
0010
0001
1000
0000
0000
0000
0010
0000
,
0100
0000
0001
0000
1000
0000
0010
0100
0001
0000
1000
0001
1000
0000
0010
0000
,
0100
0000
0000
0100
0000
0000
0010
0000
0000
0001
0000
0000
1000
0100
0010
0001
0000
0000
1000
0000
0000
0010
0000
0000
,
0200
0000
0300
0000
0001
1000
0001
0000
0100
0000
0010
0000
1000
0000
0100
0000
,
0010
0000
0001
0000
0100
0000
0010
1000
0010
0000
0100
0000
0001
0000
0000
0000
,
0100
0000
0010
0000
1000
0100
0010
0001
1000
0000
0010
0000
0100
0000
0000
0000
,
0001
1000
0010
1000
0001
0000
0100
0000
0010
1000
0010
0000
0100
0000
0001
0000
,
1000
0100
0010
0001
1000
0000
0001
0000
0100
0000
0000
0000
0010
0000
1000
0001
,
1000
0000
0010
0100
0001
0000
0010
0000
0100
0000
1000
0000
0002
0000
0000
0000
,
0103
0000
0010
0000
1000
0000
0010
0100
0001
1000
0100
0000
0010
0000
0001
1000
,
0001
0000
0000
0000
0100
0000
0000
0000
0010
0000
0000
0000
1000
0000
0000
0000
0001
0010
0100
1000
0001
0000
0000
0000
0000
0000
0000
0000
0010
0000
0000
0000
,
0001
0000
0000
0000
0000
0000
4000
0000
0000
0000
0000
0000
3040
0000
0000
0000
0000
0000
0130
0001
0100
0001
0100
0001
,
0100
0000
0000
0000
0010
1000
0001
0010
0100
1000
0001
0100
0010
1000
0100
0010
,
0001
0010
0100
1000
0001
0100
0010
1000
0100
0010
0001
0010
0100
1000
0001
0100
,
0010
0000
1000
0000
0010
0000
0100
0000
0001
0000
1000
0100
0010
0001
1000
0000
,
0001
0000
0100
0000
0000
0000
0010
0000
1000
0000
1000
0000
0001
0010
0100
1000
,
0001
0000
0100
0000
0010
0000
1000
0001
,
1000
0010
0100
0001
1000
0100
0010
0001
0010
0100
1000
0001
0100
0010
1000
0001
,
1000
0000
1000
0000
0010
0100
0001
0100
0010
1000
0100
0010
0001
0000
0001
0000
,
1000
0000
1000
0000
0010
0000
0100
0001
0100
0010
1000
0000
0001
0000
1000
0100
,
0010
0001
1000
0001
0100
0000
0010
1000
0010
0000
0100
0001
0100
0000
0010
1000
,
0010
0000
0000
0200
0000
0000
0301
0000
0000
0100
0000
0000
0010
0000
0000
1000
0000
0000
0100
0000
0010
0000
1000
0000
,
0100
0000
0000
0000
0010
0000
0000
0000
0001
0000
0000
0000
0400
0000
0000
0000
0000
0000
0000
0000
0000
0000
0000
0000
0310
0000
0000
1000
0000
0000
0010
0000
0000
1000
0000
0000
0004
0000
0000
0000
0000
0000
0000
0000
0000
0000
0000
0000
,
0103
0010
0100
0010
4000
0000
0000
0000
3001
0000
0000
0000
1001
0000
0000
0000
,
0101
0000
0000
0000
0000
0000
1000
0100
0010
0001
0000
0000
1000
0000
0000
0010
0000
0000
0100
0000
0000
0000
0000
0000
,
0001
0010
0100
1000
0100
0010
0001
0010
0100
1000
0100
0010
0001
1000
0100
0010
,
0001
0100
0010
1000
0004
0000
0003
0000
0400
0000
0300
0000
0040
0000
0030
0000
,
1000
0000
0001
0000
0000
0100
0000
0000
0010
4000
3000
0000
,
0004
0003
0000
0100
0000
0000
0010
0000
1000
0000
0000
0001
,
0000
0000
0000
0000
1000
0001
4000
0000
0000
3000
0000
0000
1010
0000
0000
0000
0010
0000
0400
0000
0300
0000
0000
0000
,
0101
0000
0000
0010
0000
0010
0100
0000
0000
0110
0000
0000
,
0010
0000
0000
1000
0100
0010
0001
0010
0100
2000
0000
0000
,
3002
0000
0000
0103
0000
0100
0010
0000
0010
1000
0000
0000
,
1001
0000
0000
1000
0000
0010
0100
0000
0000
0001
0000
0100
,
0010
0000
0000
1010
0000
1000
0010
0000
0100
0001
0000
0000
,
1001
0000
0000
0000
1000
0000
0001
0000
0000
0000
1000
0001
0100
0000
0010
0000
1000
0000
0001
0000
0100
0000
0010
0000
,
1000
0000
0000
0000
1010
0000
0000
0010
1000
0000
0001
1000
0001
0000
0100
0000
,
0010
1000
0010
1000
0001
0100
0000
0010
0000
1000
0000
0001
0000
0100
0000
0010
,
0000
1000
0000
0001
0400
0000
0000
0000
0340
0000
0000
0000
1030
0100
0010
0001
,
1000
0100
0010
0001
1000
0000
0010
0000
0000
0000
0000
0000
0100
0000
0001
0000
,
0100
0100
0010
0000
4000
0000
3004
0000
,
0103
0100
0010
0000
1010
0100
0001
0100
,
0010
1000
0001
0100
0010
0000
1000
0000
0010
0000
0100
0000
0100
0000
0001
0000
,
0100
0000
0010
0000
1000
0000
0100
0000
0010
0000
0001
0000
1000
0010
0000
0100
,
0001
0100
0110
0000
1010
0000
0101
0000
,
1001
0000
0000
0000
0010
0000
0010
0000
0010
0000
0100
0001
0100
0000
0010
0000
,
1000
0100
1000
0001
0100
0000
0010
0000
0100
0000
0001
0000
0010
0000
0100
1000
,
0001
0000
0000
0100
0000
0000
0101
0000
0000
0000
0000
0000
0010
0000
0000
0010
0000
0000
1010
0000
0000
1000
0100
0010
,
0001
0000
0000
0000
0000
0000
0000
0000
0000
0000
0000
0000
1001
0000
0000
0110
,
0000
0000
0011
0000
0000
1010
0000
0000
1000
0001
0100
0000
1010
0000
0000
0110
,
0000
0000
0101
0000
0000
0110
0000
0000
1000
0000
0010
0000
0101
0000
0000
0010
,
0000
0000
0100
0000
0101
0000
0000
0010
0000
0000
1000
0000
1001
0000
0000
0000
,
1001
0000
0000
0000
0001
0000
0100
0000
0010
0000
1000
0000
0001
0100
0010
1000
,
0001
0010
0100
1000
0001
0000
0100
0010
0100
0000
0001
0000
2000
0000
0000
3020
,
0000
0000
0230
0000
0301
0010
0100
1000
0100
0010
0001
0010
0100
1000
0001
0100
,
0010
1000
0100
0010
0002
0000
0000
0203
0000
0000
0320
0000
1030
0000
0001
0100
,
0010
1000
0100
0010
0001
0000
0100
0010
0100
0000
0001
1000
0001
1000
0010
0100
,
0001
0000
0100
0000
0010
0000
1000
0010
1000
0000
0001
0100
0010
1000
0100
0010
,
0001
0000
0100
0010
1000
0000
0001
0100
0010
0000
1000
0100
0010
0000
0001
0100
,
0010
1000
0100
0010
0002
0000
0000
0203
0000
0000
0320
0000
1030
0000
0001
0100
,
0010
1000
0100
0010
0001
0000
0100
0010
0100
0000
0001
0000
0100
0000
0100
0000
,
0010
0000
0010
0000
1000
0000
0001
0100
0001
0000
1000
0010
0100
0001
1000
0100
,
0010
0000
0001
0100
0010
0000
1000
0100
0010
0000
0001
0010
0100
0000
1000
0010
,
0100
0001
0100
0010
2000
0000
0000
3002
0000
0000
0103
0000
0020
0000
0000
2030
,
0000
0000
3002
0000
0103
0000
0010
1000
0010
0000
0100
0001
1000
0100
0010
0001
,
1000
0000
0010
0100
0001
1000
0100
0010
0001
0010
0100
1000
0001
0100
0010
1000
,
0001
0100
0001
0100
0010
1000
0000
1000
0010
0000
0010
0100
0000
0100
0001
1000
,
0010
0000
0100
0001
1000
0100
0010
0001
0100
0000
0010
1000
0001
0100
0010
0000
,
1000
0000
0100
0010
0001
0010
0100
1000
0001
0100
0010
1000
0100
0010
0001
0010
,
0100
1000
0100
0010
0001
1000
0100
1000
0001
0100
0010
1000
0100
0010
0001
1000
,
0010
0000
0100
0000
0000
0000
0001
0000
0100
0000
0010
1000
0000
0010
0100
0001
,
1000
0100
0010
0001
2000
0000
3020
0000
0230
0000
0302
0000
0203
0000
0320
0000
,
1030
0000
0000
0001
0000
0000
0001
0000
0000
1000
0000
0000
0001
0010
0100
1000
0000
0000
0002
0000
0000
0000
0000
0000
,
0203
0000
0000
0000
0310
1000
0100
1000
0001
0100
0010
0000
1000
0100
0010
0001
,
0010
0100
1000
0000
0001
0000
0100
0000
0010
0000
1000
0000
0001
0000
0100
0000
,
0010
0000
1000
0100
0010
0001
1000
0000
,
1010
0000
0000
0000
0100
0000
0001
0100
0010
0000
1000
0000
0010
0000
0100
0000
,
0000
0000
0000
0000
0001
0000
1000
0010
0100
0000
0001
0000
0100
0010
1000
0001
,
0400
0000
0000
0000
0000
0000
0000
0000
0310
0000
0000
1000
0010
0000
0100
0000
,
0001
0010
0100
1000
0001
0010
0200
0000
0000
1300
0000
0000
0200
0000
0000
0310
0000
0000
0002
0000
0000
0103
0000
0000
,
0020
1030
0001
0100
0010
0010
0100
0001
,
0400
0000
0000
0000
0310
0000
1000
0000
0001
0000
0100
0000
0010
1000
0000
0010
,
0100
0001
0100
0100
0010
1000
0020
0000
,
0030
0000
0000
0000
0100
0001
0100
0000
0010
1000
0010
0000
1000
0100
0010
0001
,
1000
0000
0010
0000
0100
0000
0001
0100
0010
0000
1000
0000
0100
0000
0010
0000
,
0004
0000
0000
0000
1003
0100
0010
0000
0001
0010
0100
0000
1000
0001
0100
0010
,
1000
0000
0000
0000
0001
0000
0000
0000
1001
0000
0000
0000
1001
0000
0000
0110
,
0000
1001
0000
0000
0000
0000
0000
0000
;
