#TITLE:Team;
#SUBTITLE:Sexuality Violation;
#ARTIST:Lorde;
#TITLETRANSLIT:;
#SUBTITLETRANSLIT:;
#ARTISTTRANSLIT:;
#CREDIT:;
#BANNER:Team-bn.png;
#BACKGROUND:Team-bg.png;
#LYRICSPATH:;
#CDTITLE:;
#MUSIC:Team.ogg;
#OFFSET:-0.160;
#SAMPLESTART:65.243;
#SAMPLELENGTH:20.500;
#SELECTABLE:YES;
#BPMS:0.000=200.000;
#STOPS:;
#BGCHANGES:;
// cache tags:
#FIRSTBEAT:57.500;
#LASTBEAT:633.000;
#SONGFILENAME:Songs/Sexuality Violation 2/Team - [JDongs]/Team.sm;
#HASMUSIC:1;
#HASBANNER:1;
#MUSICLENGTH:193.123;
// end cache tags

//---------------dance-single - JDongs----------------
#NOTES:
     dance-single:
     JDongs:
     Challenge:
     15:
     1.000,1.000,0.072,0.694,1.000,1390.000,14.000,134.000,39.000,1.000:

0000
0000
0000
0000
,
0000
0000
0000
0000
,
0000
0000
0000
0000
,
0000
0000
0000
0000
,
0000
0000
0000
0000
,
0000
0000
0000
0000
,
0000
0000
0000
0000
,
0000
0000
0000
0000
,
0000
0000
0000
0000
,
0000
0000
0000
0000
,
0000
0000
0000
0000
,
0000
0000
0000
0000
,
0000
0000
0000
0000
,
0000
0000
0000
0000
,
0000
0000
0000
000M
0M00
0000
00M0
0000
,
M000
0000
0000
000M
0M00
0000
00M0
0000
,
M000
0000
0000
0000
0000
000M
0M00
0000
,
00M0
0000
M000
0000
0000
000M
0M00
0000
,
00M0
0000
M000
0000
0000
000M
0M00
0000
,
00M0
0000
M000
0000
0000
000M
0M00
0000
,
00M0
0000
M000
0000
0000
000M
0M00
0000
,
00M0
0000
M000
0000
0000
000M
0M00
0000
,
00M0
0000
M001
0100
0000
0010
1010
0000
,
1000
0000
0100
0010
0000
0100
1100
0000
,
1000
0000
0001
0100
0000
0010
1010
0000
,
0010
0000
1000
0001
0000
1000
1010
0000
,
1000
0000
0010
0100
0000
0001
1001
0000
,
1000
0000
0001
0100
0000
0010
0101
0000
,
0010
0000
1000
0100
0000
0010
1100
0000
,
0010
0000
0001
0100
0000
0010
0101
0000
,
0100
0001
2000
3200
,
0320
0032
2003
3020
,
0000
0030
0000
0000
0200
0000
0302
0000
,
2003
3200
0320
0032
,
0003
0000
2000
3020
,
0230
0302
2003
3002
,
0003
0000
2000
3002
,
0203
0000
0320
0000
2030
3200
0000
0000
,
0320
0030
0200
2300
,
3020
0000
0230
0000
0302
0203
0000
0000
,
0320
0030
0200
0302
,
2003
3200
2300
3020
,
0230
0302
0000
0003
2000
0000
3002
0000
,
0023
0000
0032
0000
0000
2003
0000
3200
,
0320
0230
0300
2000
,
3002
0023
0230
0320
,
0032
0000
0000
0000
1003
0010
0100
0001
1000
0100
0010
0001
1000
0001
0010
0100
,
1000
0001
0100
0010
1000
0001
1000
0100
0010
0001
1000
0001
0010
0000
0100
0000
,
1000
0000
0001
0000
1000
0010
0100
0010
1000
0100
1000
0001
0010
0001
1000
0010
,
0100
0001
1000
0001
0100
0010
0100
0001
0100
0010
1000
0001
0200
0000
0000
0000
,
0320
0000
2030
0000
3001
1000
0002
0000
,
0023
0230
2300
3002
,
0003
0000
0000
2000
,
3002
0023
0230
2300
,
3000
0000
0000
0000
0000
0000
0000
0000
0001
0010
0100
1000
0001
0100
0010
1000
,
0001
0010
0100
1000
0001
0100
0010
1000
0100
0010
0001
1000
0010
0100
0001
1000
,
0100
0010
0001
1000
0010
0100
0001
1000
0001
0010
0100
1000
0100
0010
0001
1000
,
0010
0100
0001
1000
0001
0100
0010
1000
0001
0100
0001
1000
0010
1000
0001
0100
,
0001
1000
0100
1000
0001
0010
0001
1000
0100
0010
0001
1000
0010
0100
0001
1000
,
0100
0010
0100
1000
0001
0100
0010
0100
0001
1000
0100
0010
0001
0100
0010
0100
,
0001
1000
0100
0010
0100
1000
0001
0100
0001
1000
0010
1000
0100
0010
0100
1000
,
0010
0100
0010
1000
0001
0010
0100
1000
0010
0100
0001
1000
0100
1000
0010
0100
,
0001
0010
0100
1000
0010
0100
0001
0010
0001
1000
0010
0100
0010
1000
0100
0010
,
0100
1000
0001
0100
0010
0100
0001
0010
0100
0010
0001
0100
0001
1000
0010
0100
,
0001
1000
0010
1000
0001
0100
0001
1000
0100
0010
0001
1000
0001
0100
0010
0100
,
0001
1000
0100
0010
0001
0100
0010
0100
0001
1000
0010
0100
0001
1000
0100
1000
,
0001
0010
0001
0100
0010
1000
0001
0010
0100
1000
0010
0100
0001
1000
0100
0010
,
0001
1000
0010
0100
0001
0010
0100
1000
0001
0100
0001
0010
0001
1000
0010
1000
,
0100
1000
0001
0010
0100
0010
0001
1000
0100
0010
0100
1000
0001
0100
0001
0010
,
0100
1000
0010
0100
0001
0010
0100
1000
0010
0100
0001
1000
0100
0010
0001
0100
,
0010
1000
0001
0010
0100
0000
0000
0000
0000
0000
1000
0000
0100
0000
0000
0000
,
0010
0200
2300
3002
,
0203
0320
0230
0302
,
2003
3200
0320
0032
,
2003
3200
0320
0230
,
2300
3002
0003
1001
,
0001
0000
0100
0010
0000
0100
1001
0000
,
1000
0002
0023
0030
,
0000
0100
2000
3002
,
0203
0320
2030
3002
,
0203
0300
0000
0002
,
0023
0000
0230
0000
0000
2300
0000
0000
,
3002
0000
0000
0000
0003
0200
0320
0000
,
2030
3002
0023
0032
,
0003
0000
1000
0000
0000
0001
1010
0000
,
0100
0000
0010
0100
0000
0001
1100
0000
,
1000
0001
2000
3020
,
0230
0302
0023
0230
,
0320
0000
0000
0032
,
0203
0320
2030
3002
,
2003
3020
0000
0000
,
0230
0302
2003
3200
,
2300
3020
0000
0000
,
0230
0302
0203
0000
,
0300
0M00
0M00
0M00
0M00
0M00
0M00
0M00
0000
0000
0000
0000
0010
0000
0000
0100
0000
0000
0001
0000
0000
1000
0000
0000
0010
0000
0000
1000
0000
0000
0001
0000
0000
0100
0000
0000
0010
0000
0000
1000
0000
0000
0001
0000
0000
0010
0000
0000
,
0100
1000
0010
1000
0100
0010
0001
0100
0010
1000
0001
0100
0010
0100
0001
1000
,
0010
0100
0001
1000
0100
0010
0001
1000
0010
1000
0001
0010
0001
1000
0100
0010
,
0001
1000
0010
0100
0010
1000
0001
0100
0010
1000
0100
0010
0100
1000
0001
0010
,
0001
1000
0010
0100
0001
1000
0100
1000
0001
0010
0100
1000
0010
0100
0010
1000
,
0001
0010
0100
1000
0010
1000
0100
0010
0001
1000
0010
0100
0001
1000
0010
1000
,
0001
0100
0010
1000
0001
0010
0100
1000
0010
0100
0010
1000
0001
0010
0100
1000
,
0001
0010
0001
1000
0001
0010
0100
1000
0010
0100
0001
0010
0100
1000
0010
0100
,
0001
0010
0100
1000
0001
1000
0010
0100
0001
1000
0010
1000
0001
0010
0100
1000
,
0010
1000
0001
1000
0100
1000
0010
0100
0001
0010
0001
0100
0001
1000
0010
0100
,
0010
1000
0100
0010
0001
1000
0010
0100
0001
0100
0010
1000
0100
0010
0001
1000
,
0010
1000
0001
0010
0100
0010
0001
1000
0001
0100
0010
1000
0001
1000
0100
1000
,
0010
0100
0001
1000
0100
0010
0100
1000
0001
0100
0010
0100
0001
1000
0010
1000
,
0001
0100
0010
1000
0100
0010
0001
1000
0010
1000
0001
0010
0100
1000
0010
0100
,
0010
1000
0001
0010
0100
1000
0010
0100
0010
1000
0001
0010
0100
0010
0001
1000
,
0100
0010
0001
1000
0010
1000
0001
0010
0100
1000
0001
0100
0001
1000
0100
0010
,
0001
1000
0010
1000
0001
0000
0000
0000
0000
0000
0000
0000
1111
0000
0000
0000
,
0000
0000
0000
0000
0000
0000
0000
0000
0000
0000
0000
0000
0001
0010
0001
0000
0000
0000
1000
0010
1000
0000
0000
0000
,
0001
0100
0001
0000
0000
0000
1000
0100
1000
0000
0000
0000
0010
0100
0010
0000
0000
0000
1000
0001
1000
0000
0000
0000
,
0100
0010
0100
0000
0000
0000
1000
0010
0100
0000
0000
0000
0001
0010
0100
0000
0000
0000
1000
0100
0010
0000
0000
0000
,
0001
0100
0010
0000
0000
0000
1000
0001
0100
0000
0000
0000
0010
1000
0001
0000
0000
0000
0100
0001
1000
0000
0000
0000
,
0001
1000
0100
0000
0000
0000
0010
0001
1000
0000
0000
0000
0000
0000
0000
0000
0000
0000
1001
0000
0000
0000
0000
0000
,
0000
0000
0001
1000
0000
0010
1000
0000
,
0100
2000
3002
0023
,
0130
2000
0000
0001
,
0000
0000
0000
0000
0000
0000
3000
0000
0000
0000
0000
0000
1000
0100
0010
0000
0000
0000
0001
1000
0010
0000
0000
0000
,
0100
0001
1000
0000
0000
0000
0010
0100
0001
0000
0000
0000
1000
0010
0100
0000
0000
0000
0001
0010
0100
0000
0000
0000
,
1000
0001
0010
0000
0000
0000
0100
1000
0001
0000
0000
0000
0100
0010
1000
0000
0000
0000
0001
1000
0100
0000
0000
0000
,
0010
0001
1000
0000
0000
0000
0100
1000
0001
0000
0000
0000
0100
0010
1000
0000
0000
0000
0001
0010
0100
0000
0000
0000
,
1000
0001
0100
0000
0000
0000
0010
1000
0001
1000
0001
1000
0001
1000
0001
1000
0001
1000
0001
1000
0001
1000
0001
1000
,
0001
2000
0000
3000
,
0000
0002
2000
0000
,
0000
0000
0000
3003
1000
0001
0010
0100
1000
0001
0010
0001
1000
0010
0100
0001
,
1000
0010
1000
0001
0010
0100
1000
0010
0100
0010
1000
0100
0010
0001
1000
0010
,
0100
0001
0100
0010
1000
0100
0010
0100
1000
0001
0010
0100
1000
0010
0100
0010
,
1000
0001
0100
0010
0100
0001
1000
0100
0010
0001
1000
0010
1000
0100
0010
0100
,
1000
0001
0010
0100
1000
0001
0010
0001
0100
0010
0100
0001
1000
0010
1000
0001
,
1000
0100
0010
0001
1000
0010
0100
0001
1000
0001
0100
0010
1000
0100
0010
0001
,
1000
0001
0010
0100
1000
0010
0100
0010
1000
0001
0010
0100
1000
0010
0100
0010
,
1000
0001
0010
0100
1000
0001
0010
0001
1000
0100
0010
0001
1000
0010
0100
0001
,
1000
0001
0100
0010
1000
0001
1000
0010
1000
0100
1000
0010
0100
0001
1000
0001
,
0010
0001
0100
0010
0100
0001
1000
0100
0010
0001
1000
0010
1000
0100
0010
0001
,
1000
0010
1000
0100
0010
0001
0100
0010
0100
0001
1000
0100
0010
0001
0100
0010
,
1000
0001
0010
0001
1000
0010
0100
0010
1000
0001
0010
0100
1000
0010
0100
0001
,
1000
0001
0100
0010
0100
0001
1000
0010
0100
0001
1000
0100
1000
0001
0100
0010
,
1000
0100
1000
0001
1000
0010
0100
0001
1000
0001
0010
0001
0100
0010
1000
0100
,
1000
0010
0100
0001
0010
0100
1000
0001
0010
0001
1000
0010
0100
0001
1000
0001
,
0100
0010
0100
0001
1000
0010
0100
0010
1000
0001
0010
0100
1000
0001
0010
0001
,
1000
0010
1000
0001
0100
0010
1000
0100
1000
0010
0100
0001
1000
0010
1000
0100
,
0010
0001
1000
0010
0100
0010
1000
0100
1000
0001
0010
0100
1000
0010
0100
0001
,
1000
0001
0010
0100
1000
0010
0100
0010
1000
0001
0010
0100
1000
0001
0010
0001
,
1000
0010
0100
0010
1000
0001
0100
0010
1000
0001
0010
0100
0010
0001
1000
0100
,
0010
0001
1000
0001
0100
0001
0010
0001
0100
0010
1000
0100
1000
0010
1000
0001
,
1000
0010
0100
0001
1000
0001
0100
0010
1000
0100
0010
0001
1000
0010
0100
0001
,
0010
0100
1000
0010
1000
0100
1000
0001
0100
0010
1000
0100
1000
0001
0010
0100
,
1000
0001
0010
0001
0100
0001
1000
0010
0100
0001
1000
0100
1000
0010
0100
0001
,
0010
0001
1000
0010
0100
0001
1000
0100
0010
0001
1000
0010
0100
0010
1000
0001
,
0010
0100
1000
0001
0010
0001
1000
0010
0100
0001
1000
0001
1000
0010
1000
0100
,
0010
0001
1000
0010
0100
0001
0100
0010
1000
0100
0010
0001
1000
0010
0100
0010
,
1000
0001
0010
0100
1000
0010
0100
0001
1000
0100
0010
0001
1000
0010
0100
0001
,
0010
0100
1000
0010
0100
0001
1000
0100
0010
0001
1000
0010
0100
0010
1000
0001
,
0010
0100
1000
0010
0100
0010
1000
0100
0010
0001
1000
0010
0100
0010
1000
0001
,
0010
0100
1000
0001
0010
0001
1000
0100
1000
0010
0100
0001
1000
0010
1000
0001
,
0100
0001
0010
0100
0010
0001
1000
0010
0100
0010
1000
0001
0100
0010
1000
0100
,
0010
0000
0000
0000
;

//---------------dance-single - JDongs + Gazebo----------------
#NOTES:
     dance-single:
     JDongs + Gazebo:
     Hard:
     13:
     0.842,1.000,0.072,0.854,0.792,959.000,14.000,165.000,39.000,0.000:
0000
0000
0000
0000
,
0000
0000
0000
0000
,
0000
0000
0000
0000
,
0000
0000
0000
0000
,
0000
0000
0000
0000
,
0000
0000
0000
0000
,
0000
0000
0000
0000
,
0000
0000
0000
0000
,
0000
0000
0000
0000
,
0000
0000
0000
0000
,
0000
0000
0000
0000
,
0000
0000
0000
0000
,
0000
0000
0000
0000
,
0000
0000
0000
0000
,
0000
0000
0000
000M
0M00
0000
00M0
0000
,
M000
0000
0000
000M
0M00
0000
00M0
0000
,
M000
0000
0000
0000
0000
000M
0M00
0000
,
00M0
0000
M000
0000
0000
000M
0M00
0000
,
00M0
0000
M000
0000
0000
000M
0M00
0000
,
00M0
0000
M000
0000
0000
000M
0M00
0000
,
00M0
0000
M000
0000
0000
000M
0M00
0000
,
00M0
0000
M000
0000
0000
000M
0M00
0000
,
00M0
0000
M001
0100
0000
0010
1010
0000
,
1000
0000
0100
0010
0000
0100
1100
0000
,
1000
0000
0001
0100
0000
0010
1010
0000
,
0010
0000
1000
0001
0000
1000
1010
0000
,
1000
0000
0010
0100
0000
0001
1001
0000
,
1000
0000
0001
0100
0000
0010
0101
0000
,
0010
0000
1000
0100
0000
0010
1100
0000
,
0010
0000
0001
0100
0000
0010
0101
0000
,
0100
0001
2000
3200
,
0320
0032
2003
3020
,
0000
0030
0000
0000
0200
0000
0302
0000
,
2003
3200
0320
0032
,
0003
0000
2000
3020
,
0230
0302
2003
3002
,
0003
0000
2000
3002
,
0203
0000
0320
0000
2030
3200
0000
0000
,
0320
0030
0200
2300
,
3020
0000
0230
0000
0302
0203
0000
0000
,
0320
0030
0200
0302
,
2003
3200
2300
3020
,
0230
0302
0000
0003
2000
0000
3002
0000
,
0023
0000
0032
0000
0000
2003
0000
3200
,
0320
0230
0300
2000
,
3002
0023
0230
0320
,
0032
0000
0000
0000
1003
0010
0100
0001
1000
0100
0010
0001
1000
0001
0010
0100
,
1000
0001
0100
0010
1000
0001
1000
0100
0010
0001
1000
0001
0010
0000
0100
0000
,
1000
0000
0001
0000
1000
0010
0100
0010
1000
0100
1000
0001
0010
0001
1000
0010
,
0100
0001
1000
0001
0100
0010
0100
0001
0100
0010
1000
0001
0200
0000
0000
0000
,
0320
0000
2030
0000
3001
1000
0002
0000
,
0023
0230
2300
3002
,
0003
0000
0000
2000
,
3002
0023
0230
2300
,
3000
0000
0000
0000
0000
0000
0000
0000
0001
0010
0100
1000
0001
0100
0010
1000
,
0001
0010
0100
1000
0001
0100
0010
1000
0100
0010
0001
1000
0002
0000
0000
0000
,
0000
0000
0000
0000
1003
0000
0000
0000
0001
0010
0100
1000
0100
0010
0001
1000
,
0010
0100
0001
1000
0001
0100
0010
1000
0001
0100
0001
1000
0010
1000
0001
0100
,
0002
0000
0000
0000
1003
0000
0000
0000
0001
0010
0001
1000
0010
0100
0001
1000
,
0100
0010
0100
1000
0001
0100
0010
0100
0001
1000
0100
0010
0001
0100
0010
0100
,
0001
1000
0100
0010
0100
1000
0001
0100
0001
1000
0010
1000
0100
0010
0100
1000
,
0010
0100
0010
1000
0002
0000
0000
0000
0000
0000
0000
0000
0023
0000
0000
0000
,
0230
0000
0000
0000
1300
0000
0000
0000
0001
1000
0010
0100
0010
1000
0100
0010
,
0100
1000
0001
0100
0010
0100
0001
0010
0100
0010
0001
0100
0002
0000
0000
0000
,
0000
0000
0000
0000
1003
0000
0000
0000
0001
0010
0001
1000
0001
0100
0010
0100
,
0001
1000
0100
0010
0001
0100
0010
0100
0001
1000
0010
0100
0001
1000
0100
1000
,
0001
0010
0001
0100
0002
0000
0000
0000
0000
0000
1003
0000
0001
0000
0000
0000
,
1000
0000
0000
0000
0010
0000
1000
0000
0001
0100
0001
0010
0001
1000
0010
1000
,
0002
0000
1003
0001
0000
0001
0010
0000
,
0001
1000
0010
0100
0001
0010
0100
1000
0010
0100
0001
1000
0100
0010
0001
0100
,
0010
1000
0001
0010
0100
0000
0000
0000
0000
0000
1000
0000
0100
0000
0000
0000
,
0010
0100
2000
3002
,
0203
0320
0230
0302
,
2003
3200
0320
0032
,
2003
3200
0320
0230
,
2300
3002
0003
1001
,
0001
0000
0100
0010
0000
0100
1001
0000
,
1000
0002
0023
0030
,
0000
0100
2000
3002
,
0203
0320
2030
3002
,
0203
0300
0000
0002
,
0023
0000
0230
0000
0000
2300
0000
0000
,
3002
0000
0000
0000
0003
0200
0320
0000
,
2030
3002
0023
0032
,
0003
0000
1000
0000
0000
0001
1010
0000
,
0100
0000
0010
0100
0000
0001
1100
0000
,
1000
0001
2000
3020
,
0230
0302
0023
0230
,
0320
0000
0000
0032
,
0203
0320
2030
3002
,
2003
3020
0000
0000
,
0230
0302
2003
3200
,
2300
3020
0000
0000
,
0230
0302
0203
0000
,
0300
0M00
0M00
0M00
0M00
0M00
0M00
0M00
0000
0000
0000
0000
0000
0000
0000
0000
0000
0000
0000
0000
0000
0000
0000
0000
0001
0000
0000
0010
0000
0000
0100
0000
0000
1000
0000
0000
0001
0000
0000
0100
0000
0000
0010
0000
0000
1000
0000
0000
,
0001
0010
0100
1000
0001
0100
0010
1000
0100
0010
0001
1000
0002
0000
0000
0000
,
0000
0000
0000
0000
1003
0000
0000
0000
0001
0010
0100
1000
0100
0010
0001
1000
,
0010
0100
0001
1000
0001
0100
0010
1000
0001
0100
0001
1000
0010
1000
0001
0100
,
0002
0000
0000
0000
1003
0000
0000
0000
0001
0010
0001
1000
0010
0100
0001
1000
,
0100
0010
0100
1000
0001
0100
0010
0100
0001
1000
0100
0010
0001
0100
0010
0100
,
0001
1000
0100
0010
0100
1000
0001
0100
0001
1000
0010
1000
0100
0010
0100
1000
,
0010
0100
0010
1000
0002
0000
0000
0000
0000
0000
0000
0000
0023
0000
0000
0000
,
0230
0000
0000
0000
1300
0000
0000
0000
0001
1000
0010
0100
0010
1000
0100
0010
,
0100
1000
0001
0100
0010
0100
0001
0010
0100
0010
0001
0100
0002
0000
0000
0000
,
0000
0000
0000
0000
1003
0000
0000
0000
0001
0010
0001
1000
0001
0100
0010
0100
,
0001
1000
0100
0010
0001
0100
0010
0100
0001
1000
0010
0100
0001
1000
0100
1000
,
0001
0010
0001
0100
0002
0000
0000
0000
0000
0000
1003
0000
0001
0000
0000
0000
,
1000
0000
0000
0000
0010
0000
1000
0000
0001
0100
0001
0010
0001
1000
0010
1000
,
0002
0000
1003
0001
0000
0001
0010
0000
,
0001
1000
0010
0100
0001
0010
0100
1000
0010
0100
0001
1000
0100
0010
0001
0100
,
0010
1000
0001
0010
0001
0000
0000
0000
0000
0000
0000
0000
1001
0000
0000
0000
,
0000
0000
0001
0100
,
0100
0100
0010
0010
,
0010
1000
1000
1000
,
0001
0010
0100
0100
,
0100
1000
0000
1001
,
0000
0000
0001
1000
0000
0010
1000
0000
,
0100
2000
3002
0023
,
0130
2000
0000
0001
,
0000
3000
1000
0001
,
0001
0001
0100
0100
,
0100
0010
0010
0010
,
1000
0001
0001
0010
,
0010
0002
0000
0003
,
0000
2000
0000
3000
,
0000
0002
2000
0000
,
0000
0000
0000
3003
0000
0000
0000
0000
1000
0100
0010
0001
1000
0010
0100
0001
,
1000
0100
0010
0001
1000
0010
0100
0001
0010
0100
1000
0001
2000
0000
0000
0000
,
0000
0000
0000
0000
3001
0000
0000
0000
1000
0100
0010
0001
0010
0100
1000
0001
,
0100
0010
1000
0001
1000
0010
0100
0001
1000
0010
1000
0001
0100
0001
1000
0010
,
2000
0000
0000
0000
3001
0000
0000
0000
1000
0100
1000
0001
0100
0010
1000
0001
,
0010
0100
0010
0001
1000
0010
0100
0010
1000
0001
0010
0100
1000
0010
0100
0010
,
1000
0001
0010
0100
0010
0001
1000
0010
1000
0001
0100
0001
0010
0100
0010
0001
,
0100
0010
0100
0001
2000
0000
0000
0000
0000
0000
0000
0000
3200
0000
0000
0000
,
0320
0000
0000
0000
0031
0000
0000
0000
1000
0001
0100
0010
0100
0001
0010
0100
,
0010
0001
1000
0010
0100
0010
1000
0100
0010
0100
1000
0010
2000
0000
0000
0000
,
0000
0000
0000
0000
3001
0000
0000
0000
1000
0100
1000
0001
1000
0010
0100
0010
,
1000
0001
0010
0100
1000
0010
0100
0010
1000
0001
0100
0010
1000
0001
0010
0001
,
1000
0100
1000
0010
2000
0000
0000
0000
0000
0000
3001
0000
1000
0000
0000
0000
,
0001
0000
0000
0000
0100
0000
0001
0000
1000
0010
1000
0100
1000
0001
0100
0001
,
2000
0000
3001
1000
0000
1000
0100
0000
,
1000
0001
0100
0010
1000
0100
0010
0001
0100
0010
1000
0001
0010
0100
1000
0010
,
0100
0001
1000
0100
2000
0000
0000
0000
0000
0000
3001
0000
1000
0000
0000
0000
,
0010
0000
0100
0001
0000
0100
0010
0000
,
1000
0000
0001
0000
0000
1000
0001
0000
,
1000
0001
0010
0100
1000
0010
0100
0001
0010
0100
1000
0001
0100
0010
1000
0100
,
0010
0001
1000
0001
0200
0000
0000
0000
0000
0000
0301
0000
1000
0000
0000
0000
,
0100
0000
0010
0001
1000
0000
1000
0000
,
0020
0000
0000
0000
0130
0001
0000
0100
,
0001
1000
0010
0100
0001
0010
0100
1000
0010
0100
0001
1000
0100
0010
0001
0100
,
0010
1000
0001
0010
0002
0000
0000
0000
0000
0000
1003
0000
0001
0000
0000
0000
,
0100
0000
0010
1000
0000
0010
0100
0000
,
0001
0000
1000
0000
0000
0001
1000
0000
,
0001
1000
0100
0010
0001
0100
0010
1000
0100
0010
0001
1000
0010
0100
0001
0010
,
0100
1000
0001
1000
0020
0000
0000
0000
0000
0000
1030
0000
0001
0000
0000
0000
,
0010
0000
0100
1000
0001
0000
0001
0000
,
0200
0000
0301
0001
,
2000
0000
3100
0100
,
0010
0000
0000
0000
;

//---------------dance-single - JDongs + Gazebo----------------
#NOTES:
     dance-single:
     JDongs + Gazebo:
     Medium:
     12:
     0.866,1.000,0.072,0.684,1.000,1025.000,14.000,132.000,32.000,0.000:
0000
0000
0000
0000
,
0000
0000
0000
0000
,
0000
0000
0000
0000
,
0000
0000
0000
0000
,
0000
0000
0000
0000
,
0000
0000
0000
0000
,
0000
0000
0000
0000
,
0000
0000
0000
0000
,
0000
0000
0000
0000
,
0000
0000
0000
0000
,
0000
0000
0000
0000
,
0000
0000
0000
0000
,
0000
0000
0000
0000
,
0000
0000
0000
0000
,
0000
0000
0000
000M
0M00
0000
00M0
0000
,
M000
0000
0000
000M
0M00
0000
00M0
0000
,
M000
0000
0000
0000
0000
000M
0M00
0000
,
00M0
0000
M000
0000
0000
000M
0M00
0000
,
00M0
0000
M000
0000
0000
000M
0M00
0000
,
00M0
0000
M000
0000
0000
000M
0M00
0000
,
00M0
0000
M000
0000
0000
000M
0M00
0000
,
00M0
0000
M000
0000
0000
000M
0M00
0000
,
00M0
0000
M001
0100
0000
0010
1010
0000
,
1000
0000
0100
0010
0000
0100
1100
0000
,
1000
0000
0001
0100
0000
0010
1010
0000
,
0010
0000
1000
0001
0000
1000
1010
0000
,
1000
0000
0010
0100
0000
0001
1001
0000
,
1000
0000
0001
0100
0000
0010
0101
0000
,
0010
0000
1000
0100
0000
0010
1100
0000
,
0010
0000
0001
0100
0000
0010
0101
0000
,
0100
0001
2000
3200
,
0320
0032
2003
3020
,
0000
0030
0000
0000
0200
0000
0302
0000
,
2003
3200
0320
0032
,
0003
0000
2000
3020
,
0230
0302
2003
3002
,
0003
0000
2000
3002
,
0203
0000
0320
0000
2030
3200
0000
0000
,
0320
0030
0200
2300
,
3020
0000
0230
0000
0302
0203
0000
0000
,
0320
0030
0200
0302
,
2003
3200
2300
3020
,
0230
0302
0000
0003
2000
0000
3002
0000
,
0023
0000
0032
0000
0000
2003
0000
3200
,
0320
0230
0300
2000
,
3002
0023
0230
0320
,
0032
0000
1003
0000
0001
1000
0010
0000
,
0010
0000
0100
0000
0001
1000
0000
0000
,
0000
0000
0001
0000
1000
0001
0010
0000
,
0010
0000
0100
0000
1000
0001
0000
0200
,
0000
0000
0301
0000
0001
1000
0002
0000
,
0023
0230
2300
3002
,
0003
0000
0000
2000
,
3002
0023
0230
2300
,
3000
0000
0000
0001
0100
0001
1000
0100
1000
0001
0010
0001
,
1000
0100
1000
0001
0010
0100
1000
0010
1000
0001
0100
0010
,
0100
0001
1000
0001
0010
0100
1000
0010
1000
0001
0100
0001
,
1000
0100
1000
0001
0010
0001
0100
0010
0100
0010
1000
0001
,
1000
0100
0010
0001
0010
0001
1000
0010
1000
0001
0100
0001
,
1000
0010
1000
0100
0010
0001
0010
0100
1000
0001
0100
0001
,
1000
0010
1000
0001
0010
0100
1000
0100
0010
0001
1000
0010
,
1000
0001
0100
0001
0010
0100
0010
0100
1000
0001
0100
0010
,
1000
0100
0010
0001
0100
0001
1000
0100
1000
0001
0010
0001
,
1000
0100
1000
0001
0010
0100
1000
0010
1000
0001
0100
0010
,
0100
0001
1000
0001
0010
0100
1000
0010
1000
0001
0010
0001
,
1000
0100
1000
0001
0010
0001
0100
0010
0100
0001
0010
0001
,
1000
0100
1000
0001
0100
0001
1000
0001
0100
0001
0010
0100
,
1000
0001
0100
0001
1000
0001
0010
0100
0010
0001
1000
0100
,
1000
0001
0100
0001
0100
0010
1000
0001
0100
0001
0010
0100
,
1000
0010
1000
0001
0100
0001
0010
0100
0010
0001
1000
0001
,
0100
0000
0010
0000
1000
0000
0001
0000
0000
0000
0000
0000
0000
0000
0000
1000
0000
0000
0001
0000
0000
0000
0000
0000
,
0010
0100
2000
3002
,
0203
0320
0230
0302
,
2003
3200
0320
0032
,
2003
3200
0320
0230
,
2300
3002
0003
1001
,
0001
0000
0100
0010
0000
0100
1001
0000
,
1000
0002
0023
0030
,
0000
0100
2000
3002
,
0203
0320
2030
3002
,
0203
0300
0000
0002
,
0023
0000
0230
0000
0000
2300
0000
0000
,
3002
0000
0000
0000
0003
0200
0320
0000
,
2030
3002
0023
0032
,
0003
0000
1000
0000
0000
0001
1010
0000
,
0100
0000
0010
0100
0000
0001
1100
0000
,
1000
0001
2000
3020
,
0230
0302
0023
0230
,
0320
0000
0000
0032
,
0203
0320
2030
3002
,
2003
3020
0000
0000
,
0230
0302
2003
3200
,
2300
3020
0000
0000
,
0230
0302
0203
0000
,
0300
0000
0000
0001
0100
0001
1000
0100
1000
0001
0010
0001
,
1000
0100
1000
0001
0010
0100
1000
0010
1000
0001
0100
0010
,
0100
0001
1000
0001
0010
0100
1000
0010
1000
0001
0100
0001
,
1000
0100
1000
0001
0010
0001
0100
0010
0100
0010
1000
0001
,
1000
0100
0010
0001
0010
0001
1000
0010
1000
0001
0100
0001
,
1000
0010
1000
0100
0010
0001
0010
0100
1000
0001
0100
0001
,
1000
0010
1000
0001
0010
0100
1000
0100
0010
0001
1000
0010
,
1000
0001
0100
0001
0010
0100
0010
0100
1000
0001
0100
0010
,
1000
0100
0010
0001
0100
0001
1000
0100
1000
0001
0010
0001
,
1000
0100
1000
0001
0010
0100
1000
0010
1000
0001
0100
0010
,
0100
0001
1000
0001
0010
0100
1000
0010
1000
0001
0010
0001
,
1000
0100
1000
0001
0010
0001
0100
0010
0100
0001
0010
0001
,
1000
0100
1000
0001
0100
0001
1000
0001
0100
0001
0010
0100
,
1000
0001
0100
0001
1000
0001
0010
0100
0010
0001
1000
0100
,
1000
0001
0100
0001
0100
0010
1000
0001
0100
0001
0010
0100
,
1000
0010
1000
0001
0100
0001
0010
0100
0010
0001
1000
0001
,
0100
0010
1000
0001
0000
0000
0000
0000
0000
1001
0000
0000
,
0000
0000
0001
0100
,
0100
0100
0010
0010
,
0010
1000
1000
1000
,
0001
0010
0100
0100
,
0100
1000
0000
1001
,
0000
0000
0001
1000
0000
0010
1000
0000
,
0100
2000
3002
0023
,
0130
2000
0000
0001
,
0000
3000
1000
0001
,
0001
0001
0100
0100
,
0100
0010
0010
0010
,
1000
0001
0001
0010
,
0010
0002
0000
0003
,
0000
2000
0000
3000
,
0000
0002
2000
0000
,
0000
0000
0000
0000
0000
0000
0000
0000
0000
3003
0000
0000
1000
0000
0000
0000
0010
0000
0000
0000
1000
0000
0000
0000
0001
0000
0000
0000
0010
0000
0000
0000
0001
0000
0000
0000
1000
0000
0000
0000
0100
0000
0000
0000
1000
0000
0000
0000
,
0001
0010
0001
1000
0100
0010
0001
0100
0001
1000
0010
0100
,
0010
1000
0001
1000
0100
0010
0001
0100
0001
1000
0010
1000
,
0001
0010
0001
1000
0100
1000
0010
0100
0010
0100
0001
1000
,
0001
0010
0100
1000
0100
1000
0001
0100
0001
1000
0010
1000
,
0001
0100
0001
0010
0100
1000
0100
0010
0001
1000
0010
1000
,
0001
0100
0001
1000
0100
0010
0001
0010
0100
1000
0001
0100
,
0001
1000
0010
1000
0100
0010
0100
0010
0001
1000
0010
0100
,
0001
0010
0100
1000
0010
1000
0001
0010
0001
1000
0100
1000
,
0001
0010
0001
1000
0100
0010
0001
0100
0001
1000
0010
0100
,
0010
1000
0001
1000
0100
0010
0001
0100
0001
1000
0100
1000
,
0001
0010
0001
1000
0100
1000
0010
0100
0010
1000
0100
1000
,
0001
0010
0001
1000
0010
1000
0001
1000
0010
1000
0100
0010
,
0001
1000
0010
1000
0001
1000
0100
0010
0100
1000
0001
0010
,
0001
1000
0010
1000
0010
0100
0001
1000
0010
1000
0100
0010
,
0001
0100
0001
1000
0010
1000
0100
0010
0100
1000
0001
1000
,
0010
0100
0001
1000
0100
1000
0100
0010
0001
1000
0010
1000
,
0001
0100
0001
1000
0100
0010
0001
0010
0001
0100
0001
1000
,
0010
1000
0001
1000
0100
1000
0100
0010
0001
1000
0010
1000
,
0001
0100
0001
1000
0010
1000
0100
0010
0001
1000
0100
1000
,
0010
0100
0001
1000
0010
1000
0010
0100
0001
1000
0100
1000
,
0001
0010
0001
1000
0010
0100
0001
0100
0001
0010
0001
1000
,
0100
1000
0001
1000
0010
1000
0010
0100
0001
1000
0100
1000
,
0001
0010
0001
1000
0100
1000
0010
0100
0001
1000
0010
1000
,
0100
0010
0001
1000
0100
1000
0100
0010
0001
1000
0010
1000
,
0001
0100
0001
1000
0100
0010
0001
0010
0001
0100
0001
1000
,
0010
1000
0001
1000
0100
1000
0100
0010
0001
1000
0010
1000
,
0001
0100
0001
1000
0010
1000
0100
0010
0001
1000
0100
1000
,
0010
0100
0001
1000
0010
1000
0010
0100
0001
1000
0100
1000
,
0001
0010
0001
1000
0010
0100
0001
0100
0001
0010
0001
1000
,
0100
1000
0001
1000
0010
1000
0001
0100
0001
0010
0001
1000
,
0100
1000
0001
1000
0010
1000
0001
0100
0001
0010
0001
1000
,
0100
1000
0001
1000
0000
0000
0000
0000
0000
0000
0000
0000
;
