#TITLE:Disconnected;
#SUBTITLE:;
#ARTIST:Helblinde;
#TITLETRANSLIT:;
#SUBTITLETRANSLIT:;
#ARTISTTRANSLIT:;
#CREDIT:;
#BANNER:../banner.png;
#BACKGROUND:../bg.png;
#LYRICSPATH:;
#CDTITLE:;
#MUSIC:Disconnected.ogg;
#OFFSET:-0.244;
#SAMPLESTART:159.820;
#SAMPLELENGTH:19.400;
#SELECTABLE:YES;
#BPMS:0.000=200.000;
#STOPS:;
#BGCHANGES:;
// cache tags:
#FIRSTBEAT:32.000;
#LASTBEAT:728.000;
#SONGFILENAME:Songs/Cirque du Lykan/Disconnected - [Zaia]/Disconnected.sm;
#HASMUSIC:1;
#HASBANNER:1;
#MUSICLENGTH:220.865;
// end cache tags

//---------------dance-single - Zaia - 16(high)----------------
#NOTES:
     dance-single:
     Zaia - 16(high):
     Challenge:
     16:
     1.000,1.000,0.172,0.118,1.000,2267.000,38.000,26.000,0.000,0.000:
0000
0000
0000
0000
,
0000
0000
0000
0000
,
0000
0000
0000
0000
,
0000
0000
0000
0000
,
0000
0000
0000
0000
,
0000
0000
0000
0000
,
0000
0000
0000
0000
,
0000
0000
0000
0000
,
1000
0001
0010
0001
1000
0010
0100
0001
1000
0001
0010
0001
1000
0010
0100
0010
,
1000
0001
1000
0010
1000
0001
0010
0100
1000
0001
1000
0010
1000
0001
0010
0100
,
1000
0001
0100
0001
1000
0100
0010
0001
1000
0001
0100
0001
1000
0100
0010
0100
,
1000
0001
1000
0100
1000
0001
0100
0010
1000
0001
1000
0100
1000
0001
1000
0001
,
0100
0010
1000
0001
0010
0100
1000
0001
1000
0010
1000
0001
0010
0100
0010
0001
,
1000
0001
0010
0001
1000
0010
0100
0001
1000
0001
0010
0001
1000
0010
0100
0001
,
1000
0100
1000
0001
0100
0010
1000
0001
1000
0100
1000
0001
0100
0010
0100
0001
,
1000
0001
0010
0001
0010
0001
0100
0000
,
0010
1000
0001
1000
0100
0010
0100
1000
0001
0100
0010
1000
0100
1000
0001
0010
,
0100
1000
0001
0100
0010
1000
0001
0100
0001
0010
0001
1000
0100
1000
0001
0100
,
0010
1000
0001
1000
0100
0010
0001
1000
0010
1000
0001
0010
0001
0100
0001
1000
,
0010
1000
0001
1000
0100
0010
0001
1000
0010
1000
0001
0010
0100
1000
0001
1000
,
0001
0100
0001
0010
0001
1000
0010
1000
0001
0010
0100
1000
0010
1000
0001
0100
,
0010
1000
0001
0010
0100
1000
0001
0010
0001
0100
0001
1000
0010
1000
0001
0010
,
0100
1000
0001
1000
0010
0100
0001
1000
0100
1000
0001
0100
0001
0010
0001
1000
,
0100
1000
0001
1000
0010
0100
0001
1000
0100
1000
0001
0100
0010
0000
0000
0000
,
1000
0010
1000
0001
1000
0100
0010
0001
1000
0010
0100
0001
1000
0010
1000
0001
,
0010
0001
1000
0100
0010
0100
1000
0001
0010
0001
1000
0001
0100
0010
0100
0001
,
1000
0010
0100
0001
1000
0100
1000
0001
1000
0010
0100
0001
1000
0001
0010
0100
,
0010
0001
1000
0001
0100
0010
0100
0001
1000
0010
0100
0001
1000
0100
0010
0001
,
1000
0010
0100
0001
0100
0010
1000
0001
0010
0100
1000
0001
1000
0100
1000
0001
,
0100
0001
1000
0010
0100
0010
1000
0001
0100
0001
1000
0001
1000
0100
0010
0001
,
1000
0010
1000
0001
0100
0010
1000
0001
1000
0010
1000
0100
1000
0001
0010
0001
,
1000
0001
0100
0010
1000
0001
0100
0001
1000
0100
0010
0100
1000
0001
1000
0001
,
0100
0010
0100
0001
1000
0001
0010
0100
1000
0001
0100
0010
1000
0001
0100
0001
,
1000
0100
1000
0001
0010
0100
0010
0001
1000
0100
1000
0001
1000
0010
0100
0010
,
1000
0001
0100
0010
1000
0001
0010
0001
1000
0001
0100
0010
1000
0001
1000
0100
,
0010
0100
1000
0001
1000
0010
0100
0010
1000
0001
0100
0010
1000
0001
0010
0100
,
1000
0001
0100
0010
1000
0010
0100
0001
1000
0100
0010
0001
1000
0001
0010
0001
,
1000
0010
1000
0001
0100
0010
0100
0001
1000
0010
1000
0001
1000
0001
0010
0100
,
1000
0001
0100
0001
1000
0010
0100
0001
1000
0001
0100
0001
0010
0001
1000
0100
,
1000
0001
1000
0010
0100
0000
0000
0000
0101
0000
0000
0000
1001
0000
0000
0000
,
1000
0000
0100
0010
0000
0000
1100
0000
,
1000
0000
0001
0100
0000
0000
0110
0000
,
0010
0000
1000
0001
0000
0000
0101
0000
,
0100
0000
0010
1000
0000
0000
1100
0000
,
0110
0011
0000
1001
0000
0101
0000
0110
,
0010
1000
0000
0000
1001
0000
1100
0000
,
0001
0010
0000
0100
0000
1000
0000
0001
,
0100
0000
0020
0030
2000
3000
0000
0000
0001
0000
0000
0000
1000
0000
0000
0000
,
0002
0000
0000
2003
,
0000
0000
3000
0000
,
1001
0110
1001
0101
,
1010
0011
0110
1100
,
1001
0000
0001
0100
0000
0001
1000
0000
0000
1100
0000
0000
,
0110
0011
1001
1010
,
0010
0100
0001
1000
0100
1000
0001
0100
,
0001
1000
0100
0010
0001
1000
0010
1000
,
0001
1000
0010
0100
0001
1000
0010
1000
0001
1000
0001
0010
0100
1000
0001
0100
,
0020
0000
0000
0000
0000
0030
0000
0000
,
1000
0010
0100
0001
0010
0001
1000
0001
0100
0010
1000
0001
0010
0100
1000
0001
,
0100
0001
1000
0010
1000
0001
1000
0100
0010
0001
0010
0100
0010
0001
1000
0010
,
0100
0001
0100
0010
1000
0100
0010
0001
1000
0010
1000
0001
0100
0001
0010
0001
,
1000
0100
0010
0100
1000
0001
1000
0010
0100
0001
1000
0001
0010
0100
1000
0001
,
1000
0010
0100
0010
1000
0001
0010
0001
1000
0100
0010
0100
1000
0001
0100
0001
,
1000
0010
0100
0010
1000
0001
0010
0001
1000
0100
0010
0100
1000
0010
0100
0001
,
1000
0100
0010
0001
1000
0010
0100
0010
1000
0100
1000
0001
0010
0001
1000
0010
,
0100
0001
0010
0010
0100
1000
0001
0001
,
1000
0100
0010
0001
0100
0001
1000
0001
0010
0100
1000
0001
0100
0010
1000
0001
,
0010
0001
1000
0100
1000
0001
1000
0010
0100
0001
0100
0010
0100
0001
1000
0100
,
0010
0001
0010
0100
1000
0010
0100
0001
1000
0100
1000
0001
0010
0001
0100
0001
,
1000
0010
0100
0010
1000
0001
1000
0100
0010
0001
1000
0001
0100
0010
1000
0001
,
1000
0100
0010
0100
1000
0001
0100
0001
1000
0010
0100
0010
1000
0001
0010
0001
,
1000
0100
0010
0100
1000
0001
0100
0001
1000
0010
0100
0010
1000
0100
0010
0001
,
1000
0010
0100
0001
1000
0100
0010
0100
1000
0010
1000
0001
0100
0001
1000
0100
,
0010
0001
1000
0001
1000
0010
0100
0001
1000
0100
0010
0001
1000
0000
0000
0000
,
0001
0100
0010
1000
0100
1000
0001
1000
0010
0100
0001
1000
0100
0010
0001
1000
,
0010
1000
0001
0100
0001
1000
0001
0010
0001
1000
0100
0010
0100
1000
0001
0100
,
0010
1000
0010
0100
0001
0010
0100
1000
0001
0100
0001
1000
0010
1000
0100
1000
,
0001
0010
0100
0010
0001
1000
0001
0100
0010
1000
0001
1000
0100
0010
0001
1000
,
0001
0100
0010
0100
0001
1000
0100
1000
0001
0010
0100
0010
0001
1000
0010
1000
,
0001
0100
0010
0100
0001
1000
0100
1000
0001
0010
0100
0010
0001
0100
0010
1000
,
0001
0010
0100
1000
0001
0100
0010
1000
0001
0010
0001
1000
0100
1000
0001
0100
,
0010
1000
0001
1000
0001
0100
0010
1000
0001
0010
0100
0010
0001
1000
0010
0100
,
0001
0010
0100
1000
0010
1000
0001
1000
0100
0010
0001
1000
0010
0100
0001
1000
,
0100
1000
0001
0010
0001
1000
0001
0100
0001
1000
0010
0100
0010
1000
0001
0010
,
0100
1000
0100
0010
0001
0100
0010
1000
0001
0010
0001
1000
0100
1000
0010
1000
,
0001
0100
0010
0100
0001
1000
0001
0010
0100
1000
0001
1000
0010
0100
0001
1000
,
0001
0010
0100
0010
0001
1000
0010
1000
0001
0100
0010
0100
0001
1000
0100
1000
,
0001
0010
0100
0010
0001
1000
0010
1000
0001
0100
0010
0100
0001
0010
0100
1000
,
0001
0100
0010
1000
0001
0010
0100
1000
0001
0100
0001
1000
0010
1000
0001
0010
,
0100
1000
0001
1000
0001
0100
0010
1000
0001
0010
0100
0010
0001
0000
0000
0000
,
1000
0010
0100
0001
1000
0001
0010
0100
0010
0001
1000
0100
1000
0001
0100
0010
,
0100
0001
1000
0010
1000
0001
0010
0100
1000
0001
1000
0100
0010
0100
1000
0001
,
1000
0010
0100
0001
1000
0010
0100
0010
1000
0001
0010
0100
0010
0001
1000
0001
,
2000
0000
3010
0010
0100
0100
0001
0001
,
1000
0100
0010
0001
1000
0001
0100
0010
0100
0001
1000
0010
1000
0001
0010
0100
,
0010
0001
1000
0100
1000
0001
0100
0010
1000
0001
1000
0010
0100
0010
1000
0001
,
1000
0100
0010
0001
1000
0100
0010
0100
1000
0001
0100
0010
0100
0001
1000
0001
,
1000
0100
1000
0001
0010
0001
1000
0001
0100
0010
0100
0001
1000
0000
0010
0000
,
0100
0010
1000
0001
1000
0001
0010
0100
0010
0001
1000
0100
1000
0001
0100
0010
,
0100
0001
1000
0010
1000
0001
0010
0100
1000
0001
1000
0100
0010
0100
1000
0001
,
1000
0010
0100
0001
1000
0010
0100
0010
1000
0001
0010
0100
0010
0001
1000
0001
,
1000
0010
1000
0001
0100
0001
1000
0001
0010
0100
0010
0001
1000
0100
1000
0001
,
0100
0010
1000
0001
1000
0100
0010
0100
1000
0001
0010
0001
1000
0010
0100
0010
,
1000
0001
0100
0001
1000
0100
0010
0001
1000
0001
0010
0100
0010
0001
1000
0001
,
0100
0010
1000
0001
0100
0010
0100
0001
1000
0100
0010
0100
1000
0001
1000
0001
,
0100
0001
1000
0010
1000
0001
1000
0100
0010
0100
1000
0001
0010
0000
0000
0000
,
0100
1000
0010
1000
0001
0100
0010
0100
0001
1000
0001
0010
0100
0010
0001
0100
,
0010
1000
0001
0010
0001
1000
0100
1000
0001
0100
0010
1000
0100
1000
0001
1000
,
0010
0100
0010
1000
0001
1000
0100
0010
0001
0010
0100
1000
0001
0100
0010
0100
,
0001
1000
0100
1000
0001
1000
0010
0100
0010
1000
0100
1000
0001
0010
0001
1000
,
0010
1000
0100
1000
0001
0010
0100
0010
0001
1000
0001
0100
0010
0100
0001
0010
,
0100
1000
0001
0100
0001
1000
0010
1000
0001
0010
0100
1000
0010
1000
0001
1000
,
0100
0010
0100
1000
0001
1000
0010
0100
0001
0100
0010
1000
0001
0010
0100
0010
,
0001
1000
0001
1000
0001
1000
0010
0000
,
1000
0001
1000
0001
0010
0100
1000
0001
0100
0001
1000
0010
0100
0010
1000
0100
,
0010
0001
1000
0010
1000
0001
0100
0001
1000
0100
0010
0001
0100
0001
1000
0001
,
0010
0100
0010
0001
1000
0001
0100
0010
1000
0010
0100
0001
1000
0100
0010
0100
,
1000
0001
0100
0001
1000
0001
0010
0100
0010
0001
0100
0001
1000
0010
1000
0001
,
0100
0001
0100
0001
0100
0001
0100
0001
,
1000
0010
1000
0010
1000
0010
1000
0010
,
0100
0001
0010
0100
1000
0010
0100
0001
,
1000
0010
0100
0001
1000
0001
0010
0100
0010
0001
1000
0100
1000
0010
1000
0001
,
0200
0000
0000
0000
,
0300
0000
0000
0000
,
0020
0000
0000
2030
,
3002
0000
0000
0000
0023
0000
0000
0230
,
0000
0000
0000
0000
0000
0000
1300
0020
,
0000
0230
0000
0302
0000
2003
0000
3002
,
0000
0000
0000
0013
0200
0000
0000
1300
,
0002
0000
0000
0103
0020
0000
0000
1030
,
0200
0000
0310
0002
0000
2003
0000
3020
,
0000
0000
0000
0030
0000
0000
0000
0000
,
0000
0000
0000
0000
,
1000
0100
0010
0001
0100
0001
1000
0001
0010
0100
1000
0001
0100
0010
1000
0001
,
0010
0001
1000
0100
1000
0001
1000
0010
0100
0001
0100
0010
0100
0001
1000
0100
,
0010
0001
0010
0100
1000
0010
0100
0001
1000
0100
1000
0001
0010
0001
0100
0001
,
1000
0010
0100
0010
1000
0001
1000
0100
0010
0001
1000
0001
0100
0010
1000
0001
,
1000
0100
0010
0100
1000
0001
0100
0001
1000
0010
0100
0010
1000
0001
0010
0001
,
1000
0100
0010
0100
1000
0001
0100
0001
1000
0010
0100
0010
1000
0100
0010
0001
,
1000
0010
0100
0001
1000
0100
0010
0100
1000
0010
1000
0001
0100
0001
1000
0100
,
0010
0100
1000
0001
1000
0001
0100
0010
1000
0001
0010
0100
1000
0100
1000
0001
,
0100
0010
0100
0001
0010
0001
1000
0001
0100
0010
1000
0001
0010
0100
1000
0001
,
0100
0001
1000
0010
1000
0001
1000
0100
1000
0001
0010
0100
0010
0001
1000
0010
,
0100
0001
0100
0010
1000
0100
0010
0001
1000
0010
1000
0001
0100
0001
0010
0001
,
1000
0100
0010
0100
1000
0001
1000
0010
0100
0001
1000
0001
0010
0100
1000
0001
,
1000
0010
0100
0010
1000
0001
0010
0001
1000
0100
0010
0100
1000
0001
0100
0001
,
1000
0010
0100
0010
1000
0001
0010
0001
1000
0100
0010
0100
1000
0010
0100
0001
,
1000
0100
0010
0001
1000
0010
0100
0010
1000
0100
1000
0001
0010
0001
1000
0010
,
0100
0001
1000
0001
1000
0100
0010
0001
1000
0010
0100
0001
1000
0001
1000
0010
,
0100
0001
0100
0001
0010
0100
0010
0001
1000
0001
0100
0010
1000
0001
0010
0001
,
1000
0100
1000
0100
0010
0001
0100
0001
1000
0100
0010
0100
1000
0001
0100
0001
,
1000
0010
1000
0010
0100
0001
0010
0100
1000
0001
0100
0010
0100
0001
1000
0100
,
0010
0001
0010
0001
0100
0010
1000
0001
0010
0100
1000
0001
1000
0010
0100
0001
,
1000
0010
1000
0010
0100
0001
0100
0010
1000
0001
0010
0100
1000
0001
0100
0001
,
1000
0100
1000
0100
0010
0001
1000
0001
1000
0010
0100
0010
1000
0001
0100
0001
,
1000
0000
0000
1010
0000
0000
0101
0000
,
1000
0001
1000
0010
0100
0001
0100
0001
1000
0100
0010
0001
1000
0000
0000
0000
,
0001
1000
0100
1000
0001
0010
0100
0010
0001
1000
0001
0100
0010
0100
0001
0010
,
0100
1000
0001
0100
0001
1000
0010
1000
0001
0010
0100
1000
0010
1000
0001
1000
,
0100
0010
0100
1000
0001
1000
0010
0100
0001
0100
0010
1000
0001
0010
0100
0010
,
0001
1000
0010
1000
0001
1000
0100
0010
0100
1000
0010
1000
0001
0100
0001
1000
,
0100
1000
0010
1000
0001
0100
0010
0100
0001
1000
0001
0010
0100
0010
0001
0100
,
0010
1000
0001
0010
0001
1000
0100
1000
0001
0100
0010
1000
0100
1000
0001
1000
,
0010
0100
0010
1000
0001
1000
0100
0010
0001
0010
0100
1000
0001
0100
0010
0100
,
0001
1000
0010
0100
0010
1000
0001
1000
0001
0010
0001
1000
0100
0000
0000
0000
,
1000
0001
1000
0001
0100
0010
1000
0001
0010
0001
1000
0100
0010
0100
1000
0010
,
0100
0001
1000
0100
1000
0001
0010
0001
1000
0010
0100
0001
0010
0001
1000
0001
,
0100
0010
0100
0001
1000
0001
0010
0100
1000
0100
0010
0001
1000
0010
0100
0010
,
1000
0001
0000
0010
0001
1000
0010
0100
,
0001
1000
0001
1000
0010
0100
0001
1000
0100
1000
0001
0010
0100
0010
0001
0100
,
0010
1000
0001
0010
0001
1000
0100
1000
0001
0100
0010
1000
0100
1000
0001
1000
,
0010
0100
0010
1000
0001
1000
0100
0010
0001
0010
0100
1000
0001
0100
0010
0100
,
0001
1000
0100
1000
0001
1000
0010
0100
0010
1000
0001
1000
0001
0000
0100
0000
,
0010
1000
0001
1000
0100
0010
0001
1000
0010
1000
0001
0100
0010
0100
0001
0010
,
0100
1000
0001
0100
0001
1000
0010
1000
0001
0010
0100
1000
0010
1000
0001
1000
,
0100
0010
0100
1000
0001
1000
0010
0100
0001
0100
0010
1000
0001
0010
0100
0010
,
0001
1000
0010
1000
0001
1000
0100
0010
0100
1000
0001
1000
0001
0000
0000
0000
,
1100
1001
0101
0110
,
1010
1001
0011
0110
,
0100
1000
0001
0100
0010
1000
0001
0010
,
0100
1000
0001
1000
0010
0100
0001
1000
0010
1000
0100
1000
0001
0000
0000
0000
,
2002
0000
0000
0000
,
3003
0000
0000
0000
;
