#TITLE:OHAYOU!;
#SUBTITLE:-HUNTER X HUNTER OPENNING THEME-;
#ARTIST:(ANIME);
#TITLETRANSLIT:;
#SUBTITLETRANSLIT:;
#ARTISTTRANSLIT:;
#CREDIT:;
#BANNER:hunter.png;
#BACKGROUND:hunter-bg.png;
#LYRICSPATH:;
#CDTITLE:;
#MUSIC:ohayou.mp3;
#OFFSET:-10.280;
#SAMPLESTART:100.600;
#SAMPLELENGTH:12.000;
#SELECTABLE:YES;
#BPMS:0.000=106.000,96.000=52.500,104.000=106.000;
#STOPS:;
#BGCHANGES:;
// cache tags:
#FIRSTBEAT:0.000;
#LASTBEAT:207.500;
#SONGFILENAME:Songs/toune 5/hunter x hunter - Ohayou/hunter x hunter - Ohayou.sm;
#HASMUSIC:1;
#HASBANNER:1;
#MUSICLENGTH:137.195;
// end cache tags

//---------------dance-single - ----------------
#NOTES:
     dance-single:
     :
     Easy:
     3:
     0.213,0.226,0.022,0.124,0.000,185.000,3.000,17.000,0.000,0.000:
0001
0100
1000
0100
,
0010
1000
0100
1000
,
0010
0001
0100
0001
,
1000
0010
0001
0010
,
0100
1000
0001
1000
,
0010
0001
1000
0001
,
0100
0010
0100
1000
,
0001
0100
0001
1000
,
0020
0130
1000
0100
,
0001
1000
0100
1000
,
0010
0010
0100
0100
,
0001
1000
0100
0010
,
0002
0103
1000
1000
,
0010
1000
0100
1000
,
0010
0010
0100
0100
,
0001
0100
0001
1000
,
1001
0001
0100
0001
,
0010
0001
1000
0100
,
0020
1000
0100
1030
,
0200
0001
0010
0301
,
1001
1000
0001
0100
,
0010
0001
1000
0100
,
0020
0001
0100
0031
,
0200
1000
0010
1300
,
0200
0310
2000
3001
,
0002
0103
2000
3100
,
1000
0100
1000
0001
,
0100
0001
0100
0010
,
1000
0001
0100
0010
,
1000
0100
0010
0001
,
1001
0010
0100
0010
,
1000
0100
0001
0100
,
0010
0010
1000
0001
,
0200
0010
0010
0310
,
0001
1000
0100
0010
,
0002
2003
3200
0320
,
0032
1000
1000
1000
,
1000
1000
1000
1003
,
0010
1000
0100
0100
,
0010
0001
0100
0100
,
0001
1000
0100
0100
,
1000
0001
0100
0100
,
0010
1000
0001
0001
,
0010
0001
1000
1000
,
0100
0010
0001
0001
,
0100
0010
1000
1000
,
0020
0000
0000
0000
,
0000
0000
0000
0030
;

//---------------dance-single - Copied from----------------
#NOTES:
     dance-single:
     Copied from:
     Medium:
     5:
     0.281,0.316,0.153,0.066,0.000,240.000,21.000,9.000,0.000,0.000:
1000
0000
0100
0000
0100
0100
1000
0000
,
0010
0101
0010
1000
,
0100
0000
0001
0000
0001
0001
0100
0000
,
1000
1010
0100
0001
,
0100
0000
1000
0000
0010
0010
1000
0000
,
0100
0101
1000
0001
,
0010
0000
1000
0000
0100
0100
0001
0000
,
0010
0101
0010
1000
,
0001
0000
0100
0000
1000
0000
0100
0010
,
0001
0000
1000
0000
0010
0000
0100
0001
,
0100
0000
0010
0000
1000
0000
0001
0010
,
0100
0000
1000
0000
0100
0000
0010
1000
,
0100
0000
0010
0000
0001
0000
1000
0001
,
0100
0000
0010
0000
1000
0000
0100
0010
,
0001
0000
1000
0000
0010
0000
0100
1000
,
0100
0000
0010
0000
0001
0100
0001
0100
,
1001
0000
0010
0000
0001
1000
0100
0000
,
0010
0010
0100
0001
,
1000
1010
0001
0101
,
0010
1000
0100
0001
,
1001
0000
0100
0000
0010
1000
0100
0000
,
0010
0000
0001
0000
1000
0100
0001
0000
,
0001
0011
0100
1100
,
1010
0000
0100
0000
0001
1000
0100
1000
,
0002
0000
1003
0100
0020
0000
1030
0001
,
0200
0000
0301
0010
2000
0000
3100
0010
,
0001
0000
1000
0000
0010
1000
0100
0000
,
1000
0000
0001
0000
0010
0001
0100
0000
,
0010
0000
0100
0000
0001
0100
1000
0000
,
1000
0100
0001
0000
0010
0010
0110
0000
,
1001
0000
1100
0000
0010
0100
0001
0000
,
1000
0000
1000
0000
0100
0010
0001
0000
,
0001
0000
1000
0000
0001
0010
0100
0000
,
1000
1100
0001
0101
,
0010
0000
1000
0000
0100
0001
0100
1000
,
0200
0310
0011
1100
,
1020
0100
0100
0130
,
0201
0010
0010
0310
,
0001
0010
1000
0000
1000
0000
0100
0000
,
1000
0010
0001
0000
0001
0000
0100
0000
,
0010
0001
1000
0100
,
0010
0000
0100
0000
0001
1000
0100
0000
,
0010
0001
0100
0000
0100
0000
1000
0000
,
0010
1000
0100
0000
0100
0000
0001
0000
,
0010
1000
0001
0100
,
0010
0000
0100
0000
0001
0010
1000
0000
,
0100
0010
0010
1000
,
0100
0100
0001
0100
,
0001
1000
0010
0100
,
0001
0000
1000
0000
0010
0010
0100
0000
,
2002
0000
0000
0000
,
3003
0000
0000
0000
;

//---------------dance-single - Copied from----------------
#NOTES:
     dance-single:
     Copied from:
     Hard:
     8:
     0.433,0.510,0.255,0.080,0.135,370.000,35.000,11.000,0.000,0.000:
0010
0000
0011
0000
0010
0001
0100
1000
,
0010
1000
0100
0000
0010
1000
0001
0000
,
0010
1000
0100
0000
0010
0001
0100
0000
,
0001
1000
0010
0100
0001
0001
1000
0000
,
1010
0000
0100
0000
0010
1000
0100
0010
,
0100
0001
1000
0000
0010
0001
0100
0000
,
1000
0001
0100
0000
0010
1000
0001
0000
,
0100
1000
0001
0100
0010
0010
1000
0000
,
1100
0010
0100
0000
0001
0000
1000
0000
,
0010
0001
0100
0000
0001
1000
0100
0000
,
0010
0000
1000
0000
0100
0010
0001
0000
,
1000
0100
0010
1000
0001
0100
0010
0001
,
0011
1000
0001
0000
0100
0000
0010
0000
,
1000
0100
0001
0000
0100
0010
0001
0000
,
1000
0000
0010
0000
0001
1000
0100
0000
,
0010
0001
1000
0010
0100
0001
1000
0100
,
0011
0001
1000
0000
0100
1000
0100
0000
,
0010
1000
0001
0100
0010
1000
1000
0000
,
0001
0100
0010
0000
0001
0100
0010
0000
,
1000
0001
0100
0010
1000
0100
0100
0000
,
0010
1000
0100
0000
0100
1000
0001
0000
,
0010
1000
0001
0100
0010
1000
0010
0000
,
0100
0001
0100
0010
1000
0100
0001
0100
,
1000
0010
0001
0010
1100
0100
0101
0100
,
1000
0000
0000
0000
0000
0000
0000
0100
0000
0000
0000
0000
0001
0000
0000
0000
0100
0000
0000
0000
0000
0010
0000
0000
0000
0000
0000
0000
0000
0001
0000
0000
0000
0100
0000
0000
0000
0000
0000
0010
0000
0000
0000
0000
0100
0000
0000
0000
1000
0000
0000
0000
0000
0010
0000
0000
0000
0000
0000
0000
0001
0000
0000
0000
,
0100
0000
0000
0000
0000
0000
1000
0000
0000
0000
0000
0001
0000
0000
0000
0100
0000
0000
0000
0000
0000
0000
0000
0000
0001
0000
0000
0000
1000
0000
0000
0000
0100
0000
0000
0000
0010
0000
0001
0000
0000
0000
0000
1000
0000
0000
0100
0000
0000
0000
0000
0000
0001
0000
0000
0000
0100
0000
0000
0000
0000
0000
0000
0000
,
0010
0000
1000
0100
0000
0010
0000
0100
0000
0000
1001
0000
0000
0000
0100
0001
,
0100
0000
0010
1000
0100
1000
0000
0010
0000
0000
0100
0000
0000
0000
0010
0000
,
0001
0000
1000
0100
0000
0010
0000
0100
0000
0000
0000
0000
1000
0000
0100
0000
,
0010
0000
0001
0100
0000
0010
0000
1000
0000
0000
0001
0000
0110
0000
1001
0000
,
0110
0000
1000
0000
0001
0010
0001
0000
1000
0100
1000
0000
0010
1000
0100
0000
,
0002
0000
2003
0000
3010
0101
1000
1100
,
0010
1000
0001
0000
1000
0010
0100
0001
,
1000
0010
0100
0001
1000
0001
0010
0100
,
1000
0000
0001
0000
0100
0000
1000
0000
0100
0000
0010
0000
0001
1000
0100
0000
,
2001
3100
1200
0310
0012
1003
2001
3100
,
0101
0010
0001
0100
1000
0100
0001
0010
,
1000
0100
0001
0010
0001
0100
1000
0010
,
1001
1100
0010
0100
1001
0101
0010
0100
,
1000
0100
0001
0100
1000
0010
1000
0001
,
0101
0010
1100
0010
1001
0100
1001
0010
,
1000
0000
0100
0000
0010
0000
0001
0000
0100
1000
0100
0000
0010
0000
0001
0000
,
1100
0110
0001
0010
1100
1010
0001
0010
,
0100
0010
1000
0010
0100
0001
0100
1000
,
1010
0001
0110
0001
1100
0010
1100
0001
,
0100
0000
0010
0000
0001
0000
1000
0000
0010
0100
0010
0000
0001
0000
1000
0000
,
0010
1000
0100
0020
0000
0031
1000
0020
,
0000
0130
0001
2000
0000
3100
0001
0100
,
0010
1000
0100
0001
0100
1000
0010
0100
,
0001
1000
0100
0010
0100
0001
1000
0100
,
2002
0000
0000
0000
,
0000
0000
0000
0000
0000
0000
0000
3003
;
