#TITLE:Moondance;
#SUBTITLE:;
#ARTIST:Nightwish;
#TITLETRANSLIT:;
#SUBTITLETRANSLIT:;
#ARTISTTRANSLIT:;
#CREDIT:;
#BANNER:Moondance.PNG;
#BACKGROUND:Moondance-bg.PNG;
#LYRICSPATH:;
#CDTITLE:neon-cdtitle.PNG;
#MUSIC:Moondance.mp3;
#OFFSET:3.899;
#SAMPLESTART:51.840;
#SAMPLELENGTH:12.000;
#SELECTABLE:YES;
#BPMS:0.000=55.000,18.000=53.000,18.250=50.000,18.500=40.000,18.625=35.000,18.750=28.000,19.750=30.000,19.875=34.060,20.000=147.760,84.000=142.000,85.000=130.000,86.000=115.000,87.000=100.000,88.000=80.000,89.000=60.000,89.500=49.000,90.000=47.000,90.500=46.000,91.000=45.000,91.500=43.000,92.000=36.600,95.000=36.900,112.000=36.800,124.000=36.900,127.500=37.100,128.000=148.000,172.000=147.500,364.000=146.000;
#STOPS:365.750=0.223
;
#BGCHANGES:;
// cache tags:
#FIRSTBEAT:4.000;
#LASTBEAT:366.500;
#SONGFILENAME:Songs/Fresh Flock of Fantastic Files F4/(Neon) Moondance/Moondance.sm;
#HASMUSIC:1;
#HASBANNER:1;
#MUSICLENGTH:211.469;
// end cache tags

//---------------dance-single - ----------------
#NOTES:
     dance-single:
     :
     Hard:
     13:
     0.863,1.000,1.000,0.624,0.702,875.000,271.000,132.000,36.000,0.000:
0000
0000
0000
0000
,
0001
0000
0000
1000
0000
0000
0100
0000
0000
1000
0100
0010
0001
0000
0000
0100
0000
0000
0010
0000
0000
1000
0100
0010
0001
0000
0000
0011
0000
0000
1100
0000
0000
1010
0000
0000
1001
0000
0000
0100
0000
0000
0010
0000
0000
1100
0000
0000
,
0011
0000
0000
0010
0100
0000
1100
0000
1001
0100
0010
0100
0001
0000
1000
0000
1100
0000
0001
0000
0101
0000
0010
0000
2002
0000
0000
0000
0000
0000
3003
0000
,
0110
0000
0000
0110
0000
0000
0110
0000
0000
1000
0001
1000
0001
0000
0000
1001
0000
0000
1001
0000
0000
0100
0010
1000
0001
0000
0000
1100
0000
0000
1010
0000
0000
0011
0000
0000
0110
0000
0000
1000
0000
0000
0001
0000
0000
1010
0000
0000
,
1100
0000
0000
0011
1010
0000
1001
0000
1000
0100
0001
0100
1000
0000
0010
0000
0101
0000
1001
0000
1100
0001
1010
0000
0011
0000
0000
0000
0000
0000
1001
0000
,
1010
0000
0000
0100
0000
0000
0100
0000
0000
0001
1000
0001
1000
0000
0000
0001
0000
0000
0001
0000
0000
0100
0010
1000
,
0100
0011
1100
1010
1002
0000
M003
0101
,
2010
0000
0000
0100
3100
0000
0010
0000
0001
1000
0001
0010
0100
0000
0010
0000
,
0001
0000
0000
0000
0000
0000
1100
0000
0000
0000
0000
0000
0010
0000
0000
0000
0000
0000
0101
0000
0000
0000
0000
0000
1001
0000
0000
0000
0000
0000
0000
0000
0000
0000
0000
0000
0200
0000
0000
0000
0000
0000
0000
0000
0000
0300
0010
0000
,
1000
0000
0000
1100
0000
0000
1100
0000
0000
0001
0010
0001
0010
0000
0000
0101
0000
0000
0101
0000
0000
0010
0100
0001
,
1000
1010
1100
0110
0012
0000
00M3
0100
,
1010
0000
0000
1000
0001
0000
0100
0000
0010
0100
0001
1000
0100
0000
1000
0000
,
0001
0000
0000
0011
0000
0000
1000
0000
0000
1010
0000
0000
0110
0000
0000
0000
0000
1000
0100
0000
0000
0000
0000
0000
,
1010
0000
0100
0001
0100
0000
0100
0001
0100
0000
0100
0001
0100
0000
0100
0001
,
0010
0000
0010
0100
0010
0000
0010
0100
0010
0000
0010
0100
0010
0000
0010
0100
,
1000
0000
1000
0010
1000
0000
1000
0010
1000
0000
1000
0010
1000
0000
1000
0010
,
1000
0000
0000
1100
0000
0000
0001
0000
0000
0011
0000
0000
1001
0000
0000
0000
0000
0000
0110
0000
0000
1000
0100
0010
,
0001
0000
0000
0101
0000
0000
0101
0000
0000
0001
0100
0010
1000
0000
0000
1100
0000
0000
1100
0000
0000
1000
0010
1000
,
0001
0000
1010
0000
1100
0000
0101
0000
0011
0000
0100
0000
0100
0000
0010
1000
,
0001
0000
0000
1000
0010
0000
0101
0000
0010
0100
0010
1000
0001
0000
0100
0000
,
1010
0000
2002
3003
0011
0000
0220
0330
1001
0000
0000
0000
0000
0000
0000
0000
,
MMMM
MMMM
MMMM
MMMM
,
MMMM
MMMM
MMMM
MMMM
,
0200
0000
0000
0000
0000
0000
0000
0000
0020
0000
0000
0300
0002
0000
0000
0030
,
0200
0000
0000
0000
0000
0000
0000
0000
0003
0000
0000
0000
0000
0000
0000
0000
0010
1000
0001
0010
0001
1000
0010
0001
1000
0001
0010
0001
1000
0010
0001
1000
,
0301
0010
0100
1000
0001
0010
0100
1000
0001
0010
0100
1000
0001
0010
0100
1000
0010
0100
0001
0010
0001
1000
0100
1000
0010
0100
0001
0010
0100
1000
0100
0010
,
0001
1000
0001
0100
0010
0001
1000
0001
0100
0010
1000
0001
0010
0001
1000
0100
0010
1000
0001
0100
1000
0010
0100
0001
1000
0100
0001
1000
0010
0100
0001
1000
,
0100
0010
0001
0010
1000
0001
0100
0010
1000
0001
0100
0010
0001
1000
0100
1000
0001
0100
0010
0100
0001
1000
0100
1000
0100
0001
0010
0001
0100
0010
0001
1000
,
0201
0010
0001
1000
0010
0001
1000
0010
1000
0001
0010
0001
0010
0001
1000
0010
0001
0010
1000
0010
1000
0001
0010
0001
0010
1000
0001
0010
0001
1000
0010
1000
,
0302
0023
0032
0203
0320
2030
3200
0320
0230
2300
3002
0203
0320
2030
3002
0023
0230
2300
3200
0320
0032
0203
0320
2030
3200
2300
3002
0203
0320
2030
3200
0320
,
0032
0000
0000
0003
,
0000
0000
0000
0000
,
1000
0000
0100
0100
0010
0000
0001
0001
0100
0000
0010
0000
2000
0000
0000
0000
,
3001
0101
0010
1100
1000
0101
1001
0110
,
2020
0000
0000
0000
0000
0000
0000
0000
0000
0000
0000
0000
3030
0000
0000
0000
0001
0100
0010
1000
0001
0000
0100
0000
0020
0000
0000
0000
0000
0000
0000
0000
,
0030
0100
0101
0000
1100
1001
0101
0000
,
0110
0000
0000
0000
1001
0000
0000
0000
0010
0100
0001
1000
0220
0000
0000
0330
,
1000
0000
0100
0010
0001
0000
0100
0010
1000
0000
0101
0000
1100
0000
1010
0000
,
0201
0301
1020
1000
0100
0130
0202
0303
,
0220
0330
1100
1001
0200
0000
0300
0000
,
1000
0100
1000
0010
0100
0000
0001
0000
0100
0000
0000
0000
0101
0000
0000
0000
0010
0000
0000
0000
1100
0000
0000
0000
1000
0000
0000
0000
0101
0000
0000
0000
,
0010
1100
2002
3003
0220
0330
2020
3030
,
0001
0100
0010
1000
0011
0000
0000
0000
0000
0000
0000
0000
0000
0000
0000
0000
,
0110
0000
1000
0001
1000
0001
1000
0101
,
0010
0101
0010
0101
0010
1001
1010
0101
,
1001
1100
0201
0000
0310
0020
1000
1030
,
0101
0000
1200
0010
0001
0010
1300
1100
,
0001
1100
0001
1100
0001
0011
1100
0110
,
1001
0000
0000
0000
0100
0000
0010
1000
0101
0000
0010
0001
1100
0000
1000
0001
,
0200
0000
0010
0010
1000
0001
0310
0110
,
100M
0110
M001
0110
1001
0000
1100
0010
,
0101
1000
2020
0000
3030
1100
1001
0100
,
2010
0000
0000
0000
0100
0000
3001
0000
0202
0303
2002
3003
2200
3300
0011
0000
,
0100
0011
1000
0011
0100
0011
1100
0001
,
1100
0000
0000
0100
0000
0000
0010
0000
0000
0001
0000
0000
1000
0000
0000
0010
0000
0000
0100
0000
0000
0001
0000
1000
,
0100
0000
0000
0010
0000
0000
0001
0000
0000
0100
0000
0000
0001
0000
0000
0010
0000
0000
0001
0000
0000
0010
0100
1000
,
0001
0000
0100
0000
0010
0000
0100
0000
2000
0000
0000
0000
0002
0000
0000
3003
,
0100
0000
0101
0000
0010
1000
1100
0000
,
0011
0000
0100
0000
0010
1000
1001
0000
,
1100
0000
0000
0000
0000
0000
0000
0000
0000
0000
0000
0000
0000
0000
0000
0000
1000
0100
0010
0001
0100
0000
1000
0000
0200
0000
0000
0000
0000
0000
0000
0000
,
0301
1000
1010
0000
0101
0000
1000
0100
,
1000
0000
0000
0000
0001
0000
0000
0000
0001
0000
0000
0000
0100
0000
0000
0000
0010
1000
0001
0010
0100
0000
1000
0000
0202
0000
0000
0000
0000
0000
0000
0000
,
0000
0000
0000
0000
0000
0000
0303
0000
0000
0001
0010
0100
1000
0000
0000
1000
0000
0000
0001
0000
0000
0001
0000
0000
,
0100
0010
2002
3003
0220
0330
1010
1001
,
0011
0011
1100
1010
0202
0303
2020
3030
,
1100
0011
1001
0101
2020
0000
3030
0000
0101
0000
0110
0000
2002
0000
3003
0000
,
1100
0000
0000
0110
0000
0000
0022
0000
0000
0033
0000
0000
2200
0000
0000
3300
0000
0000
0101
0000
0000
1000
0010
1000
,
0001
0000
0100
0000
1010
0000
0000
0000
1010
0000
0000
0000
0010
0000
1000
0001
,
0110
0000
0000
0101
0000
0000
0101
0000
0000
0010
1000
0100
0110
0000
0000
1100
0000
0000
1100
0000
0000
0010
0001
0100
,
1010
1100
0011
0101
2002
0000
3003
0100
,
0101
0000
0000
0101
1100
0000
1010
0000
0001
0010
0100
1000
0101
0000
1010
0000
,
2100
3001
0102
1003
0220
0000
0330
0000
,
1010
0000
0000
0101
0000
0000
0101
0000
0000
1000
0100
0010
0101
0000
0000
1010
0000
0000
1010
0000
0000
1000
0001
0010
,
1100
0000
1010
0000
0011
0000
0101
0000
2000
3002
2000
0000
0000
3003
0110
0000
,
1010
0000
0000
0100
0001
0000
1000
0000
0010
0100
0001
1000
0100
0000
1000
0000
,
0001
0000
0000
0101
0000
0000
1000
0000
0000
1100
0000
0000
1001
0000
0000
0000
0000
2000
3001
0000
0000
0000
0000
0000
,
1010
0101
0202
0303
0011
1100
2200
3300
,
1001
1010
0101
0011
0220
0000
0330
1010
,
0101
0000
0000
1100
0011
0000
1001
0000
0010
1000
0001
0010
0100
0000
0100
0000
,
1010
0000
0000
1100
0000
0000
0101
0000
0000
0011
0000
0000
2002
0000
0000
3003
0000
0000
0110
0000
0000
1000
0001
0100
,
0010
0000
0000
1010
0000
0000
0101
0000
0000
1000
0100
1000
0001
0000
0000
0011
0000
0000
1010
0000
0000
1000
0001
1000
,
0001
0101
1010
1001
0220
0000
0330
1010
,
0102
0000
0000
0010
0013
0000
1100
0000
0010
1000
0001
0010
0001
0000
0101
0000
,
2100
0000
0000
0000
0000
0000
3001
0000
0000
0000
0000
0000
0012
0000
0000
0000
0000
0000
0103
0000
0000
0000
0000
0000
0110
0000
0000
0000
0000
0000
0000
0000
0000
0000
0000
0000
2002
0000
0000
3003
0000
0000
0001
0000
0010
0000
0100
0000
,
1000
0000
0000
1000
0000
0000
1000
0000
0000
0001
0010
0100
1000
0000
0000
1000
0000
0000
1000
0000
0000
0001
0010
0100
,
1000
0110
0011
1100
0220
0000
0330
1000
,
0001
0000
0000
0100
0010
0000
0100
0000
0010
0001
0010
0100
0010
0000
1100
0000
,
1010
0000
0000
0000
0000
0000
0011
0000
0000
0000
0000
0000
1001
0000
0000
0000
0000
0000
0110
0000
0000
0000
0000
0000
2100
0000
0000
0000
0000
0000
0001
0000
0000
0000
0000
0000
0002
0000
0000
3003
0000
0000
0100
0000
0010
0000
1000
0000
,
0001
0000
0000
0100
0000
0000
0001
0000
0000
1000
0000
0000
0100
0000
0000
0000
0000
0000
0010
0000
0100
0000
1000
0000
0001
0000
0000
0100
0000
0000
0010
0000
0000
1000
0000
0000
0001
0000
0000
0000
0000
0000
1000
0000
0100
0000
0010
0000
,
0001
0101
1100
1010
2002
0000
3003
0110
,
1001
0000
1100
0000
,
0010
0000
0101
0000
0010
0000
1100
0000
1001
1001
1001
0000
0000
0000
0000
0000
;
