#TITLE:Omochikaerii;
#SUBTITLE:;
#ARTIST:Round Wave Crusher;
#TITLETRANSLIT:;
#SUBTITLETRANSLIT:;
#ARTISTTRANSLIT:;
#CREDIT:Rynker;
#BANNER:omochikaeri-bn.png;
#BACKGROUND:omochikaeri-bg.png;
#LYRICSPATH:;
#CDTITLE:;
#MUSIC:(04) [Round Wave Crusher] Omochikaerii (By force).ogg;
#OFFSET:0.167;
#SAMPLESTART:83.621;
#SAMPLELENGTH:12.000;
#SELECTABLE:YES;
#BPMS:0.000=200.000;
#STOPS:;
#BGCHANGES:;
// cache tags:
#FIRSTBEAT:20.000;
#LASTBEAT:674.000;
#SONGFILENAME:Songs/SPEEEDCOOOORE 3/Omochikaerii - [Rynker]/omochikaerii.sm;
#HASMUSIC:1;
#HASBANNER:1;
#MUSICLENGTH:211.324;
// end cache tags

//---------------dance-single - Rynker----------------
#NOTES:
     dance-single:
     Rynker:
     Challenge:
     16:
     1.000,1.000,0.014,0.156,1.000,1782.000,3.000,33.000,1.000,0.000:
0000
0000
0000
0000
,
0000
0000
0000
0000
,
0000
0000
0000
0000
,
0000
0000
0000
0000
,
0000
0000
0000
0000
,
1000
0100
0010
0001
,
1000
0000
0001
0000
0100
0010
0100
0000
,
0010
0000
0000
0000
1000
0000
0000
0000
0001
0000
0010
0000
0100
1000
0001
0100
,
0001
1000
0100
0010
,
0001
0010
0100
0010
0001
1000
0001
0000
0000
1000
0100
0010
0001
1000
0001
0100
,
0010
1000
0001
0010
0100
0010
0001
1000
0001
0100
0001
1000
0010
0200
0000
0300
,
0001
1000
0100
0010
0100
1000
0001
0010
0001
1000
0001
0100
0010
0100
0001
1000
,
0100
1000
0001
0010
0002
0000
0003
0000
2000
0000
0000
0000
0000
0000
0000
3000
,
0001
0100
0010
0100
0001
1000
0100
1000
0100
1000
0001
0010
0001
1000
0001
0100
,
0001
1000
0010
0100
0001
1000
0100
0010
0001
1000
0001
0100
0010
0200
0000
0300
,
0001
1000
0100
0010
0001
0010
0100
1000
0001
0100
0001
1000
0010
1000
0001
0010
,
0100
1000
0001
1000
0000
0000
0000
0000
0000
0000
0000
0000
0000
0000
0000
0000
,
1000
0100
1000
0100
0010
0001
0010
0100
1000
0001
1000
0001
0100
0010
0100
0001
,
1000
0010
1000
0001
0100
0010
0100
0001
1000
0100
1000
0001
0010
0001
0000
1000
,
0100
1000
0001
0010
0001
1000
0010
0100
0010
0100
0010
0100
0001
1000
0001
1000
,
0100
0010
0100
0010
0100
0010
0100
0010
0100
0010
0002
0000
0000
0000
0003
0000
,
1000
0100
0010
0100
0010
0001
1000
0100
0010
0100
0010
0001
1000
0001
1000
0100
,
0010
0001
1000
0001
0100
0010
0100
0010
1000
0001
0100
0010
0100
0010
1000
0001
,
0100
0010
1000
0001
1000
0001
0100
0010
1000
0001
0100
0010
0100
0001
1000
0100
,
1000
0001
0010
0001
1000
0001
1000
0001
0000
0000
0000
0000
0000
0000
0000
0000
,
1000
0100
0010
0001
1000
0010
1000
0001
0100
0001
1000
0100
0010
0001
1000
0001
,
0100
0010
0100
0001
1000
0001
0100
0001
0100
0001
0100
0001
0100
0010
1000
0001
,
0010
0100
1000
0100
1000
0001
0010
0001
1000
0010
0100
0001
0100
0010
1000
0001
,
1000
0001
0010
0100
1000
0100
0010
0001
1000
0000
0001
0000
0100
0000
0040
0000
,
1030
0001
1000
0100
0010
0100
1000
0001
0010
0001
1000
0010
0100
0001
1000
0001
,
1000
0100
0010
0001
1000
0010
0100
0001
0100
0010
1000
0001
1000
0001
1000
0001
,
0010
0100
0010
0001
1000
0100
0010
0100
1000
0001
0100
0010
0100
0001
1000
0010
,
0100
0010
0100
0001
1000
0010
0100
0010
0100
0001
1000
0010
0100
0010
0100
0001
,
1000
0100
0010
0001
1000
0100
0010
0001
0010
0100
1000
0000
0002
0000
0003
0000
,
1000
0100
0010
0001
0100
0010
1000
0100
0010
0000
0000
0000
0000
0000
0000
0000
,
0001
1000
0000
0001
0010
0100
1000
0001
0100
0000
0010
0000
1000
0000
0100
0000
,
0010
0001
1000
0000
0100
0010
0001
0010
0100
1000
0001
1000
0001
1000
0001
1000
,
0001
0100
0010
0100
0001
1000
0100
0010
0001
0100
0010
0100
0001
0010
0100
0000
,
0010
0001
0100
0000
0010
1000
0100
0010
0100
0000
1000
0000
1000
0000
1000
0000
,
0001
0100
0010
0100
0001
1000
0100
0010
0001
0010
0100
1000
0010
0100
0001
1000
,
0001
0010
0100
1000
0001
0100
0010
0100
0001
0010
0100
0000
1000
0000
0000
0000
,
1000
0100
0010
0001
0100
0010
0100
0001
1000
0000
0000
0000
1000
0000
0000
0000
,
0001
0010
0100
0000
1000
0100
0010
0001
1000
0001
0100
0010
1000
0001
0100
0010
,
0100
0010
1000
0001
0010
0100
1000
0100
0010
0000
0001
0000
0010
0000
0100
0000
,
1000
0010
0100
0000
0001
0010
0100
1000
0000
0000
0000
0000
0000
0000
0000
0000
,
1001
0000
0000
0000
0000
0000
0000
0000
0001
0010
0100
1000
0100
0010
0001
1000
,
0001
1000
0100
0010
0001
1000
0001
1000
0100
0010
0001
1000
0001
1000
0100
0010
,
0001
0000
0000
0000
0000
0000
0000
0000
1000
0001
1000
0001
0100
0010
1000
0001
,
1000
0010
0100
0001
1000
0001
1000
0010
0100
0001
1000
0001
1000
0010
0100
0001
,
1000
0100
0010
0001
1000
0010
0100
0001
0100
0010
1000
0001
0010
0000
0100
1000
,
0100
0010
0001
0100
0010
0100
0001
1000
0100
0010
0001
1000
0100
0010
0001
1000
,
0100
0010
0100
1000
0001
0100
0010
0100
0001
1000
0010
0100
0001
1000
0100
1000
,
0001
0010
0001
1000
0010
0000
0000
0000
0200
0000
0000
0000
0300
0000
0000
0000
,
0001
0010
0100
1000
0100
0010
0001
1000
0010
0100
0001
1000
0100
0000
0010
0000
,
0001
1000
0001
0010
0100
1000
0001
1000
0010
0100
0001
1000
0010
0100
0001
1000
,
0010
0100
0001
1000
0100
1000
0001
0010
0001
1000
0010
0100
0010
0100
0001
1000
,
0100
1000
0001
0010
0100
1000
0000
0000
0000
0000
0000
0000
0000
0000
0000
0000
,
0001
0010
0100
1000
0001
0100
0010
0100
0001
1000
0010
0100
0001
0000
1000
0100
,
0010
0100
1000
0001
0010
0100
1000
0001
0100
0010
1000
0100
1000
0010
0100
0001
,
0010
0001
1000
0100
0010
0100
0010
0100
0010
0100
1000
0001
1000
0010
0100
0001
,
1000
0100
0010
0100
1000
0001
0100
0000
0000
0000
0000
0000
0000
0000
0000
0000
,
0001
0010
0100
1000
0100
0010
0001
1000
0001
1000
0010
0100
0010
0100
0001
1000
,
0100
1000
0001
0010
0001
1000
0010
0100
0010
0100
0001
1000
0100
1000
0001
0010
,
0001
1000
0010
0100
0001
1000
0100
0010
0100
1000
0001
0100
0010
0100
0010
1000
,
0001
0100
0010
1000
0100
0010
0000
0000
0000
0000
0000
0000
0000
0000
0000
0000
,
0000
0000
0000
0000
,
0000
0000
0000
0000
,
0000
0000
0000
0000
,
0000
0000
0000
0000
,
0000
0000
0000
0000
,
0000
0000
0000
0000
,
0000
0000
0000
0000
,
0000
0000
0000
0000
,
1000
0100
0010
0001
0010
0100
1000
0001
0100
0010
0100
0001
1000
0100
0010
0001
,
1000
0010
0100
0010
0100
0001
1000
0001
0010
0100
1000
0100
0010
0001
0010
0100
,
1000
0001
0100
0010
0100
0001
1000
0001
0010
0100
1000
0001
0100
0010
0100
0001
,
1000
0100
0010
0100
1000
0001
0010
0100
1000
0001
0100
0010
0100
0001
1000
0001
,
0010
0100
0010
0001
1000
0100
0010
0001
0100
0010
0100
0001
1000
0100
0010
0100
,
1000
0001
0100
0010
0100
0001
1000
0001
0010
0100
0010
0001
1000
0100
1000
0001
,
0100
0010
0100
0001
1000
0010
0100
0001
1000
0100
0010
0001
1000
0010
0100
0001
,
1000
0100
0010
0001
0010
0100
1000
0001
0100
0000
0000
0000
0000
0000
0000
0000
,
0001
0010
0100
1000
0100
0010
0001
1000
0010
0100
0010
1000
0001
0010
0100
1000
,
0001
0100
0010
0100
0010
1000
0001
1000
0100
0010
0001
0010
0100
1000
0100
0010
,
0001
1000
0010
0100
0010
1000
0001
1000
0100
0010
0001
1000
0010
0100
0010
1000
,
0001
0010
0100
0010
0001
1000
0100
0010
0001
1000
0010
0100
0010
1000
0001
1000
,
0100
0010
0100
1000
0001
0010
0100
1000
0010
0100
0010
1000
0001
0010
0100
0010
,
0001
1000
0010
0100
0010
1000
0001
1000
0100
0010
0100
1000
0001
0010
0001
1000
,
0010
0100
0010
1000
0001
0100
0010
1000
0001
0010
0100
1000
0001
1000
0001
0010
,
0100
0000
0000
0000
1000
0000
0000
0001
,
1002
2003
3200
0000
,
0000
0000
0000
0000
,
0300
0000
0000
0000
,
0000
0000
0000
0000
,
0000
0000
0000
0000
,
0000
0000
0000
0000
,
0000
0000
0000
0000
,
0000
0000
0000
0000
0000
0000
0000
0000
0000
0000
0000
0000
0000
0000
1000
0100
,
1000
0100
0010
0001
0010
0100
1000
0001
0100
0010
0100
0001
1000
0100
0010
0001
,
1000
0010
0100
0010
0100
0001
1000
0001
0010
0100
1000
0100
0010
0001
0010
0100
,
1000
0001
0100
0010
0100
0001
1000
0001
0010
0100
1000
0001
0100
0010
0100
0001
,
1000
0100
0010
0100
1000
0001
0010
0100
1000
0001
0100
0010
0100
0001
1000
0001
,
0010
0100
0010
0001
1000
0100
0010
0001
0100
0010
0100
0001
1000
0100
0010
0100
,
1000
0001
0100
0010
0100
0001
1000
0001
0010
0100
0010
0001
1000
0100
1000
0001
,
0100
0010
0100
0001
1000
0010
0100
0001
1000
0100
0010
0001
1000
0010
0100
0001
,
1000
0100
0010
0001
0010
0100
1000
0001
0100
0000
0000
0000
0000
0000
0000
0000
,
0001
1000
0010
0100
0010
0100
0001
1000
0100
0010
0100
1000
0001
0010
0001
1000
,
0010
0100
0001
0100
0010
1000
0001
0010
0100
0010
0001
1000
0001
0100
0010
0100
,
0001
1000
0100
1000
0001
0010
0001
1000
0010
0100
0010
1000
0001
0010
0100
0010
,
0001
1000
0100
0010
0100
1000
0001
0010
0001
1000
0010
0100
0010
0100
0001
1000
,
0010
0100
0001
1000
0100
1000
0001
0010
0100
0010
0001
1000
0001
0100
0010
0100
,
0001
1000
0100
1000
0001
0010
0001
1000
0010
0100
0010
0100
0001
1000
0100
1000
,
0001
0010
0001
1000
0010
0100
0001
0100
0001
1000
0100
1000
0001
0010
0100
1000
,
0001
0010
0100
0010
0001
1000
0001
0100
0010
0100
0001
1000
0100
1000
0001
0010
,
0100
1000
0001
1000
0100
1000
0100
1000
0001
0100
0001
0100
0010
1000
0010
1000
,
0001
0010
0001
1000
0100
0010
0001
1000
0100
1000
0001
1000
0100
0010
0100
1000
,
0001
0010
0001
1000
0001
0010
0001
0010
0100
1000
0100
1000
0001
0100
0001
0100
,
0010
1000
0001
0100
0001
1000
0010
1000
0001
0100
0001
0100
0010
0100
0001
1000
,
0100
1000
0001
1000
0100
0010
0100
1000
0001
0010
0001
0010
0100
1000
0100
1000
,
0001
0100
0001
1000
0001
0100
0001
0100
0010
1000
0001
0100
0010
1000
0010
1000
,
0001
0100
0001
1000
0010
0100
0001
0100
0001
0000
0000
0000
0000
0000
0000
0000
,
0000
0000
0000
0000
0000
0000
0000
0000
1000
0001
1000
0001
1000
0001
1000
0001
,
0010
0100
1000
0100
0010
0001
1000
0001
0100
0010
0100
0001
1000
0001
0010
0100
,
1000
0100
0010
0001
1000
0001
0100
0010
0100
0001
0100
0010
1000
0010
0100
0001
,
1000
0100
0010
0100
1000
0001
0010
0001
1000
0001
1000
0010
0100
0001
1000
0100
,
0010
0001
1000
0100
1000
0001
0100
0010
0100
0001
1000
0010
0100
0001
1000
0100
,
1000
0001
0010
0001
1000
0100
1000
0001
0100
0010
0100
0001
1000
0100
0010
0001
,
0010
0100
1000
0001
0100
0010
0100
0001
1000
0010
0100
0001
1000
0100
0010
0001
,
1000
0100
0010
0001
1000
0001
0010
0100
1000
0001
0100
0010
0100
0001
1000
0100
,
0010
0001
1000
0010
0100
0001
0100
0010
0100
0001
1000
0100
1000
0001
0010
0001
,
0010
0100
1000
0001
0100
0010
0100
0001
1000
0100
1000
0001
0010
0001
1000
0100
,
0010
0001
1000
0001
0100
0010
0100
0001
1000
0010
0100
0001
1000
0100
1000
0001
,
0010
0100
1000
0001
0100
0010
0100
0001
1000
0100
1000
0001
0010
0100
1000
0001
,
0100
0010
0100
0001
1000
0100
0010
0001
0010
0100
1000
0001
0100
0001
1000
0010
,
1000
0001
0010
0001
0010
0100
1000
0100
0010
0001
1000
0001
0100
0010
0100
0010
,
1000
0001
0100
0010
0100
0001
1000
0001
1000
0100
0010
0100
1000
0001
0010
0100
,
0010
0001
1000
0001
1000
0000
0001
0000
0010
0000
0100
0000
1000
0000
0100
0000
,
0010
0001
0010
0100
0000
0000
0000
0000
,
1000
0001
0100
0010
,
0100
0000
0001
0000
0010
0100
0100
0000
,
1000
0010
0100
0001
,
0010
0000
0100
1000
,
0001
0100
0010
1000
,
0001
0001
0010
0100
,
1000
1000
0001
0100
,
0010
0000
0000
0000
0100
0000
0000
0000
0001
0000
1000
0000
0100
1000
0100
0000
,
1000
0010
0100
0001
,
0010
0000
0000
0000
0100
1000
0100
1000
,
0001
0010
0001
0100
,
0010
0000
0000
0000
0100
0000
0000
0000
0001
0000
1000
0000
0100
0000
0000
0010
,
0001
1000
0010
0100
,
0001
0000
0000
0000
0010
0000
0000
0000
0000
0000
0001
0000
0100
0001
0100
0000
,
0001
0000
1000
0000
,
0001
0000
0000
0000
0010
0100
1000
0001
,
0100
0010
0100
0001
1000
0100
0010
0100
,
1000
0000
0001
0000
0100
0010
1000
0001
1000
0000
0001
0000
0010
0000
0100
0000
,
0010
0000
0001
0000
1000
0001
0010
0100
0010
0000
0001
1000
0010
0000
0100
0000
,
0001
1000
0100
1000
0001
0000
0100
0010
,
1000
0000
0100
0000
0010
0001
1000
0001
1000
0000
0001
0000
0100
0000
0001
0000
,
0010
0100
1000
0000
0001
0010
0100
1000
,
0001
0000
0100
0000
0010
0000
0100
0000
0001
0000
0010
0000
0100
0000
1000
0100
,
0000
0000
2000
3200
,
0320
0000
0000
0000
0032
0000
0000
0000
2003
0000
3000
0010
0200
0000
0000
0000
,
0302
0013
0200
1300
0002
0000
0203
0000
,
0320
0000
1030
0000
0100
0010
0001
0000
2000
0000
0000
0000
3020
0000
0000
0000
,
0130
0000
0001
0000
1000
0100
0010
0000
0002
0000
0000
0000
2003
0000
0000
0000
,
3002
0000
0000
0003
0002
0000
0000
0003
0002
0000
0000
0003
0002
0000
0000
0003
,
0000
0000
0002
0003
0002
0003
1000
0000
0200
0000
0000
0000
0320
0000
0000
0000
,
0030
0000
0001
0000
1000
0010
0100
0001
1000
0000
0000
0000
0000
0000
0000
0000
,
0000
0000
000M
0000
;
