#TITLE:Star wars imperial March;
#SUBTITLE:;
#ARTIST:Metallica;
#TITLETRANSLIT:;
#SUBTITLETRANSLIT:;
#ARTISTTRANSLIT:;
#CREDIT:Magna Trick;
#BANNER:SWIM-BN.png;
#BACKGROUND:SWIM-BG.png;
#LYRICSPATH:;
#CDTITLE:Magna Trick title!.png;
#MUSIC:Metallica - Star Wars Imperial March.mp3;
#OFFSET:-0.285;
#SAMPLESTART:42.224;
#SAMPLELENGTH:12.000;
#SELECTABLE:YES;
#BPMS:0.000=120.070;
#STOPS:112.000=0.060
,232.000=0.040
;
#BGCHANGES:;
// cache tags:
#FIRSTBEAT:0.000;
#LASTBEAT:328.000;
#SONGFILENAME:Songs/keyboard/(Magna Trick) Star Wars Imperial March/Stars.sm;
#HASMUSIC:1;
#HASBANNER:1;
#MUSICLENGTH:166.050;
// end cache tags

//---------------dance-single - ----------------
#NOTES:
     dance-single:
     :
     Hard:
     10:
     0.799,0.988,0.837,0.735,0.699,668.000,139.000,122.000,0.000,10.000:
0002
0000
2003
0000
,
3200
0000
0000
0000
0320
0000
0000
0001
,
0032
0000
0000
0000
,
1003
0020
0230
0302
,
2003
0000
3200
0000
,
0320
0000
0000
0000
0032
0000
0000
0100
,
0203
0000
0000
0000
0000
0000
0000
0000
0000
0000
0000
0000
0000
0000
0000
0000
0000
0000
0000
0000
0000
0000
0000
0000
0320
0000
1000
0000
0001
0000
1000
0000
0001
0000
1000
0000
0001
0000
1000
0000
0001
0000
1000
0000
0001
1000
0001
1000
,
0032
0000
0000
0013
0100
1000
0100
0010
0001
0100
0010
1000
,
0000
0000
0000
0010
1000
0100
1000
0010
0100
0001
1000
0100
,
1002
0000
0103
0000
2001
0000
3100
0100
,
1002
0000
0103
0000
2001
0000
3100
0100
,
2001
3002
2003
3000
0011
0000
1100
0000
,
2001
0000
3010
0000
1002
0000
0013
0010
,
1002
2003
3002
0003
0010
0000
0101
0000
,
2010
0000
3010
0000
1002
0000
0013
0010
,
2001
0000
3010
0000
1002
0000
0013
0010
,
2001
3200
1302
0123
,
1130
2000
3201
1320
,
0130
0000
0002
0000
1013
0000
0100
0100
,
0010
0000
0000
0001
1000
0001
1000
0000
0000
0000
0000
0000
2000
0000
0000
3002
0000
0000
2003
0000
0000
3002
0000
0000
,
0123
0000
1030
0000
0210
0000
1300
0010
,
0120
0000
1030
0000
0210
0000
1300
0010
,
0120
0000
1030
0000
0210
0000
1300
0010
,
0120
0000
0000
0130
0001
0010
0100
1000
0010
0100
0001
1000
,
0210
0000
0301
0000
0120
0000
0031
0010
,
0210
0000
0301
0000
0120
0000
0031
0010
,
0210
0000
0301
0000
0120
0000
0031
0010
,
0110
1000
0100
1000
0001
0100
0001
0010
0100
0010
0001
1000
,
0020
0000
0030
1000
0100
1000
0001
0100
0001
0010
0100
1000
,
0001
0100
0010
1000
0100
1000
0010
0100
0001
0110
0110
0110
,
0110
1000
0100
1000
0001
0100
0001
0010
0100
0010
0001
1000
,
0010
0100
1000
0001
0010
1000
0100
0001
0100
1001
1001
1001
,
1001
0000
0010
0000
0100
0000
0001
0000
0000
0000
0001
0010
0100
0000
0010
0000
,
0000
0000
0010
0100
1000
0000
0100
0000
1000
0000
0010
0100
1000
0000
0011
0000
,
1100
0001
1000
0110
1001
0100
0010
0001
,
1100
0001
1000
0010
0101
0010
1000
0100
,
0020
0000
0031
0000
2000
0000
3010
0000
2000
0000
3010
0000
0200
0000
1300
0010
,
0002
0000
1003
0000
0200
0000
0301
0100
0020
0000
0130
0000
1001
0000
0100
0000
,
1001
0100
0010
0001
1100
0001
1000
0010
,
1001
0000
0010
0000
0100
0000
1000
0000
0001
0100
0010
0100
0001
0010
0100
1000
,
0200
0000
1300
0000
0002
0000
0103
0000
0002
0000
0103
0000
0020
0000
0031
0100
,
2000
0000
3001
0000
0020
0000
1030
0010
0200
0000
0310
0000
1001
0000
0010
0000
,
1001
0010
0100
1000
0011
1000
0001
0100
,
1001
0000
0100
0000
0010
0000
0001
0000
1000
0010
0100
0010
1000
0100
0010
0001
,
0100
0000
0010
0000
1000
0000
0100
0000
1002
0000
0103
0000
0020
0000
1030
0001
,
0100
0001
1000
0000
0010
0000
0001
0000
2100
0000
3010
0000
0102
0000
1003
0000
,
0110
1000
0100
0010
1001
0010
1000
0100
,
1001
0000
0010
0000
0001
0000
0100
0000
1001
0000
0010
0000
1002
0000
0103
0010
,
1000
0100
0001
0000
2000
0000
3010
0100
0002
0000
0103
0000
0020
0000
1030
0001
,
0210
0000
1300
0000
1002
0000
0013
0100
2001
0000
3010
0000
0100
0000
0001
0000
,
1000
0010
0100
0001
1000
0100
1000
0001
0010
1000
0010
0100
,
0001
0100
0010
1000
0010
0001
1000
0010
0100
0011
0011
0011
,
2001
0000
0000
0000
0000
0000
0000
0000
3200
0000
0000
0000
0000
0000
0310
0100
,
0002
0000
0000
0000
0000
0000
0000
0000
0000
0000
0000
0000
0000
0000
0000
0000
1013
0100
0010
0001
1000
0100
0010
0001
0110
1000
0100
0010
0001
1000
0100
0010
,
1001
0000
0000
0000
0000
0000
0000
0000
0010
0000
0000
0000
0000
0000
1000
0001
1000
0000
0000
0000
0000
0000
0000
0000
0010
0000
0000
0000
0000
0000
0100
0000
,
1100
0000
0000
0000
0000
0000
0000
0000
0000
0000
0000
0000
1001
0000
0000
0000
0000
0000
0000
0000
0000
0100
0000
0000
1100
0000
0000
0000
0010
0000
0001
0000
0010
0000
0000
0000
0100
0000
0000
0000
0010
0000
0000
0000
0001
0000
0000
0000
,
1100
0000
0000
0000
0000
0000
0000
0000
0010
0000
0000
0000
0000
0000
1000
0001
1000
0000
0000
0000
0000
0000
0000
0000
0010
0000
0000
0000
0000
0000
1000
0000
,
1100
0000
0000
0000
0000
0000
0010
0000
0100
0000
0001
0000
1100
0000
0010
0001
0010
0000
0100
0000
1000
0000
0001
0000
,
0110
0000
0000
0000
1000
0000
0000
0010
0110
0000
0000
0000
0001
0000
0000
0110
,
0001
1000
0100
0000
0000
0000
0110
0000
0011
0000
0000
0000
1001
0000
0000
0110
,
1000
0001
0100
0000
0000
0000
1100
0000
0110
0000
0000
0000
0001
0000
0000
0010
,
0110
0000
0000
0000
0000
0000
0000
0000
0000
0000
0000
0000
1000
0000
0000
0000
0000
0000
0000
0000
0000
0100
0000
0000
0110
0000
0000
0000
0000
0000
0000
0000
0000
0000
0000
0000
0001
0000
1000
0000
0001
0000
1000
0000
0001
0000
1000
0000
,
0011
0100
1000
0001
0100
0010
1000
0100
1000
0010
1100
0001
0010
0100
1010
0001
,
1000
0010
0101
1000
0001
0010
1001
0100
1000
0001
1010
0100
0001
0100
1000
0010
,
0100
0001
1010
0100
1000
0001
1100
0001
0010
1000
0011
0100
0001
0100
1010
0001
,
1000
0010
0101
1000
0001
0010
1001
0100
1000
0010
0100
0001
0010
0100
1000
0001
,
0210
0000
0000
0000
0301
0000
0000
0010
2010
0000
0000
0000
3200
0000
0300
1010
,
0100
0001
2000
0000
3000
0000
0110
0000
0012
0000
0003
0000
2100
0000
3000
0011
,
0100
0001
2000
0000
3000
0000
1100
0000
2010
0000
3000
0000
0110
0000
0000
0001
,
0201
0000
0000
0000
0000
0000
0300
0000
0000
0000
0000
0000
0011
0000
0000
0000
0000
0000
0000
0000
0000
0100
0000
0000
0120
0000
0000
0000
1000
0000
0130
0000
1000
0000
0000
0000
0100
0000
0000
0000
0010
0000
0000
0000
0001
0000
0000
0000
,
2100
0000
0000
0000
3010
0000
0000
0001
0102
0000
0000
0000
2003
0000
3000
0110
,
1000
0001
0200
0000
0300
0000
1010
0000
1200
0000
0000
0300
0011
0000
0000
1001
,
0100
0010
2000
0000
0000
3000
0110
0000
0012
0000
0000
0003
0110
0000
0000
0100
,
1200
0000
0000
0000
1301
0000
0000
0100
1200
0000
0000
0000
0000
0000
0000
0000
,
0000
0000
0320
0032
,
2003
0000
3200
0300
0020
0000
2030
0000
,
3002
0003
0020
0032
,
2003
0000
3200
0300
0020
0000
2030
0000
,
3002
0000
0000
1100
0000
0000
1003
0010
0100
0001
1000
0100
0010
0001
1000
0010
0100
0010
1000
0001
0010
1000
0001
0100
,
1000
0010
0100
0001
1000
0100
0010
0001
1000
0010
0100
0001
2100
0000
0000
0000
0000
0000
3200
0000
0000
0000
0000
0000
,
2300
0000
0000
0000
3100
0000
0000
0100
2100
0000
0000
0000
0000
0000
0000
0000
,
3001
0000
0000
0000
0000
0000
0010
0000
0000
0000
0000
0000
0100
0000
0000
0000
0000
0000
1000
0000
0000
0000
0000
0000
0010
0000
0000
0000
0000
0000
0100
0000
0000
0000
0000
0000
0001
0000
0000
0000
0000
0000
1000
0000
0000
0000
0000
0000
0100
0000
0000
0000
0000
0000
0010
0000
0000
0000
0000
0000
0001
0000
0000
0000
0000
0000
1000
0000
0000
0000
0000
0000
0010
0000
0000
0000
0000
0000
0100
0000
0000
0000
0000
0000
0001
0000
0000
0000
0000
0000
1000
0000
0000
0000
0000
0000
0110
0000
0000
0000
0000
0000
0000
0000
0000
0000
0000
0000
0000
0000
0000
0000
0000
0000
0000
0000
0000
0000
0000
0000
0000
0000
0000
0000
0000
0000
0000
0000
0000
0000
0000
0000
0000
0000
0000
0000
0000
0000
0000
0000
0000
0000
0000
0000
0011
0000
0000
0000
0000
0000
0000
0000
0000
0000
0000
0000
0000
0000
0000
0000
1100
0000
0000
0000
0000
0000
0000
0000
0000
0000
0000
0000
0000
0000
0000
0000
0110
0000
0000
0000
0000
0000
0000
0000
0000
0000
0000
0000
0000
0000
0000
0000
,
1001
0000
0000
0000
;
