#TITLE:Nemesis;
#SUBTITLE:;
#ARTIST:Arch Enemy;
#TITLETRANSLIT:;
#SUBTITLETRANSLIT:;
#ARTISTTRANSLIT:;
#CREDIT:;
#BANNER:../fallback - bn.png;
#BACKGROUND:../fallback - bg.png;
#LYRICSPATH:;
#CDTITLE:;
#MUSIC:Nemesis.ogg;
#OFFSET:-0.113;
#SAMPLESTART:30.082;
#SAMPLELENGTH:12.000;
#SELECTABLE:YES;
#DISPLAYBPM:205.000;
#BPMS:0.000=195.000,241.000=205.000,305.000=195.000,417.000=205.000,481.000=190.000,577.000=102.500,609.000=205.000,673.000=205.200,733.000=204.000,743.000=205.000;
#STOPS:;
#BGCHANGES:;
// cache tags:
#FIRSTBEAT:14.000;
#LASTBEAT:751.000;
#SONGFILENAME:Songs/Beast Aoreo BEAST!/Nemesis - [Aoreo]/sm.sm;
#HASMUSIC:1;
#HASBANNER:1;
#MUSICLENGTH:252.347;
// end cache tags

//---------------dance-single - J. Nero----------------
#NOTES:
     dance-single:
     J. Nero:
     Challenge:
     13:
     0.952,1.000,0.539,0.757,0.682,1350.000,136.000,191.000,0.000,3.000:
0000
0000
0000
0000
,
0000
0000
0000
0000
,
0000
0000
0000
0000
,
0000
0000
0000
0000
0000
0000
0000
0000
1000
0001
1000
0001
0100
0001
0100
0001
,
0100
0010
0100
0010
1000
0010
1000
0100
1000
0000
0000
0000
1100
0000
0000
0000
,
0000
0011
0000
0011
0000
0000
0000
0000
,
0000
0000
0101
0101
,
0000
1010
0000
1010
0000
0000
0000
0000
,
0000
0000
0000
0000
1000
0100
0010
0001
1000
0010
1000
0001
0010
0001
0100
0001
,
0100
0010
1000
0100
1000
0100
0010
0001
0010
0001
0100
0010
1000
0001
0010
0100
,
0010
0001
0100
0010
1000
0100
1000
0001
0100
0001
0100
0010
1000
0001
0010
0100
,
1000
0001
0010
0100
1000
0010
1000
0010
0100
0001
0100
0001
0010
0100
0010
0001
,
1000
0100
0010
0100
1000
0010
1000
0010
1000
0001
0100
0001
0100
0001
0010
0100
,
1000
0100
1000
0010
1000
0010
0100
0010
0100
0001
0010
0100
1000
0100
1000
0010
,
0100
0001
0010
0100
1000
0010
1000
0001
0100
0010
0100
0001
0010
0100
1000
0001
,
1000
0001
0100
0010
0100
0001
0010
0100
1000
0001
0010
0100
1000
0000
1000
0000
,
1000
1000
0000
0000
0101
0000
0101
0000
,
0001
1000
0000
1010
0000
0010
0100
0001
,
0010
0100
0000
0000
1100
0000
1010
0010
,
0000
0100
0202
0303
2002
3003
2200
3300
,
0220
0330
0000
0000
0011
0000
0001
0100
,
0000
1010
0000
1010
0000
1000
0001
0100
,
0010
0100
0000
0000
0101
0000
1010
1000
,
0000
0100
1100
1000
0010
0100
0101
0001
,
0010
0000
0000
0100
0000
0000
1100
0000
0000
1000
0000
0000
0010
0000
0100
0000
0001
0000
0010
0000
0000
0000
0000
0000
,
0200
0000
0300
0000
0000
0000
1100
0000
0000
1010
0000
0000
,
0010
0100
0000
0101
0000
0001
0010
0100
,
1000
0010
0000
0000
0110
0000
0101
0000
,
0000
0000
2002
3003
2200
3300
2020
3030
,
0220
0330
0111
0000
0001
0000
1000
0100
,
1000
0010
0000
0100
0010
0000
0100
0001
,
0010
0100
0000
1000
0010
0000
0110
0000
,
0110
0000
0202
0303
0220
0330
2020
3030
,
2002
0000
3003
0000
1000
0100
1000
0100
1000
0001
1000
0001
0100
0001
0100
0001
,
1000
0010
1000
0010
0100
0001
0100
0010
1000
0010
1000
0100
0010
0001
1000
0010
,
1000
0010
0100
0001
0010
0100
1000
0001
0100
0001
0100
0010
1000
0010
1000
0100
,
0010
0001
1000
0010
0100
0001
0100
0010
1000
0100
0010
0001
0100
0001
1000
0100
,
1000
0100
0010
0001
1000
0001
1000
0001
0100
0010
0100
0010
1000
0001
0010
0001
,
0010
0100
1000
0100
1000
0100
0010
0001
1000
0100
0010
0001
0010
0100
1000
0001
,
0010
0100
1000
0001
0010
0100
1000
0010
0100
0001
1000
0010
0100
0001
1000
0010
,
0100
0001
0100
0010
1000
0100
0010
0001
0100
0010
1000
0001
0100
0001
0100
0010
,
1000
0001
0100
0010
0100
0001
1000
0100
0010
0001
0010
0001
0010
0000
0001
0000
,
1000
0100
1000
0100
1000
0000
0000
0000
1010
0000
0000
0000
0110
0000
0000
0000
,
0100
0001
0000
0011
0000
0100
1000
0010
,
0100
0010
0000
0100
0001
0000
0011
0000
,
0000
0000
2200
3300
2020
3030
2002
3003
,
0202
0303
0100
0001
1000
0000
1100
0000
,
0100
0010
0100
0000
0110
0000
0011
0000
,
1001
0000
1000
0010
0100
0000
0101
0000
,
0001
1000
1100
0100
0010
0001
0101
0100
,
0010
1000
1100
0100
0010
0001
1001
1000
,
0010
0100
0001
1000
0100
0000
1100
0000
,
1000
0010
0000
0110
0000
0100
0001
0010
,
0100
1000
0000
0001
0100
0000
0101
0000
,
0100
0010
2020
3030
0202
0303
0022
0033
,
2200
3300
1000
0010
0100
0000
0101
0000
,
0001
1000
0000
1100
0000
0100
0010
0001
,
0100
0000
0010
0000
0000
0000
0100
0000
0001
0000
0000
0000
0100
0001
0010
0100
,
1000
0010
0100
0001
2000
0000
3000
0000
0002
0000
0003
0000
0200
0000
0300
0000
,
0002
0003
2002
3003
2000
3000
0200
0300
,
0020
0000
0031
0100
0001
0000
0000
0000
0100
0000
0000
0000
0010
0000
1000
0000
,
0000
0000
0000
0001
0000
0000
0010
0000
0000
0000
0000
0000
0100
0000
1000
0000
0010
0000
0100
0000
0000
0001
0000
0000
,
0000
1000
0100
0000
1100
0000
1000
0001
,
0000
0100
0010
0000
0100
0001
0010
0100
,
0000
1000
0010
0000
0110
0000
0100
0001
,
0000
0000
0000
0010
0000
0000
0100
0000
0000
0000
0000
0000
1000
0000
0001
0000
0100
0000
0010
0000
0000
0100
0000
0000
,
0000
0001
1000
0000
1100
0000
0100
0010
,
0000
0001
0100
0000
0010
1000
0001
0000
,
1000
0100
1000
0000
1001
0000
0001
0010
,
0000
0000
0000
0100
0000
0000
1000
0000
0000
0000
0000
0000
0001
0000
0100
0000
0010
0000
1000
0000
0000
0100
0000
0000
,
0000
1000
0001
0000
0011
0000
0010
0100
,
0000
1000
0001
0000
0100
0010
0100
0001
,
0000
1000
0100
0000
1100
0000
1000
0001
,
0000
0000
0000
0100
0000
0000
0010
0000
0000
0000
0000
0000
0100
0000
0001
0000
0010
0000
0100
0000
0000
1000
0000
0000
,
0000
0010
0110
0100
0001
1000
1100
0100
,
0010
0001
0101
0100
0010
1000
1100
0100
,
0010
0001
0101
0000
0110
0000
1010
0000
,
0000
0110
0000
0101
0000
0000
0000
0000
,
1001
2000
0000
0000
,
0000
0000
0000
0000
0000
0000
0000
0000
0000
3002
0000
0203
,
0000
2300
0000
3200
0000
0000
0000
0000
0000
0000
0000
0000
,
0000
0000
0301
1000
0001
0200
0000
0000
0000
0000
0000
0000
0000
0000
0000
0000
,
0000
0000
0000
0300
0001
0010
0100
1000
0010
0100
0001
1000
0010
0100
0010
1000
,
0001
0010
0100
1000
0010
0100
0001
0010
0100
1000
0010
0100
0001
0010
0100
0010
,
0001
1000
0100
0010
0100
1000
0010
0100
0001
1000
0010
1000
0010
0100
0001
0010
,
0100
1000
0001
0010
0001
0100
0010
1000
0002
0000
0000
0000
1003
0010
0100
0001
,
0010
0001
1000
0010
0100
0000
0001
0000
0100
0000
0010
0000
1020
0000
1030
0000
,
0100
0010
0001
0100
0010
1000
2100
3100
,
0010
0001
0100
0010
0100
0001
1002
1003
,
0100
0010
0220
0330
2200
3300
2002
3003
,
0202
0303
0100
0001
1000
0100
2010
3010
,
0100
0001
0010
0100
1000
0001
0102
0103
,
0010
1000
0001
0010
0100
1000
2010
3010
,
0100
0000
0001
0000
1000
0001
1000
0001
0010
0100
1000
0100
1000
0010
0100
0001
,
0010
0100
1000
0001
0100
0001
0100
0010
1000
0100
0010
0001
0100
0001
1000
0100
,
1000
0010
0100
0001
0010
0000
0000
0000
0011
0000
0000
0000
0101
0000
0000
0000
,
0100
0010
0000
1010
0000
1000
0001
0010
,
0100
1000
0000
0000
1001
0000
0101
0000
,
0100
0010
0220
0330
2020
3030
2002
3003
,
0022
0033
0000
0000
0101
0000
1001
0000
,
1000
0010
0000
0110
0000
0100
0001
0010
,
0100
1000
0000
0000
1111
0000
1111
0000
,
0000
0000
0202
0303
2020
3030
2200
3300
,
2002
3003
0202
0303
0220
0330
2020
3030
,
1000
0000
0100
0000
1000
0000
0010
0000
0000
0000
0000
0000
0110
0000
0000
0000
0000
0000
0100
0000
0000
0001
0000
0000
,
0000
0000
0000
0010
0000
0000
0100
0000
0000
0000
0000
0000
1000
0000
0010
0000
0100
0000
0001
0000
0000
0100
0000
0000
,
0000
0010
1000
0000
1001
0000
0001
0010
,
0000
0100
1000
0000
0001
1000
0100
0010
,
0000
0001
0100
0000
0101
0000
0001
1000
,
0000
0000
0000
0010
0000
0000
0100
0000
0000
0000
0000
0000
0010
0000
1000
0000
0100
0000
0010
0000
0000
0001
0000
0000
,
0000
0100
0010
0000
1010
0000
1000
0001
,
0000
0010
0100
0000
1000
0001
0100
0000
,
0001
1000
0100
0000
1100
0000
1000
0001
,
0000
0000
0000
0100
0000
0000
0010
0000
0000
0000
0000
0000
0100
0000
0001
0000
1000
0000
0100
0000
0000
1000
0000
0000
,
0000
0010
0100
0000
0101
0000
0001
1000
,
0000
0100
1000
0000
0010
0100
0001
0010
,
0000
0100
1000
0000
1001
0000
0001
0100
,
0000
0000
0010
0000
1000
0000
0000
0000
0001
0100
0001
0000
1000
0000
0000
0000
,
0010
0000
0000
0100
0001
0010
0100
1000
0010
0100
0001
1000
,
0100
1000
0010
0100
0001
0010
0100
1000
0100
1000
0001
0100
,
0010
0000
0000
0000
0100
0000
0000
0000
0001
0000
0000
0000
1000
0000
0000
0001
0000
0000
1000
0000
0000
0000
0000
0000
0001
0000
0000
0000
0000
0000
0100
0000
0000
0000
0000
0000
0010
0000
0000
0000
0000
0000
1000
0000
0000
0000
0000
0000
,
0100
0000
1000
0000
0001
0100
0010
0000
0100
0000
0001
0000
0010
0000
0100
0000
,
1000
0000
0001
0000
0100
0001
1000
0000
0100
0000
0010
0000
0100
0000
1000
0000
,
0001
0000
0100
0000
0010
0100
0001
0000
1000
0000
0100
0000
1000
0000
0001
0000
,
0100
0000
0001
0000
0010
0100
1000
0000
0100
0000
1000
0000
0010
0000
0100
0000
,
0001
0000
1000
0000
0010
0100
0001
0000
0010
0000
0100
0000
1000
0000
0001
0000
,
0100
0000
0010
0000
1000
0010
1000
0010
0100
0001
0010
0100
1000
0100
1000
0001
,
0100
0010
1000
0001
0100
0010
1000
0100
0010
0001
1000
0010
0100
0001
1000
0001
,
1000
1001
0000
0101
,
0000
0000
0100
0100
0000
0000
0101
0000
,
0000
0000
0002
0203
2300
3200
0302
2003
,
3200
0302
0203
2300
3020
0230
2300
3200
,
0302
2003
3200
0300
0000
0000
1100
0000
,
0000
0000
1000
1000
0000
0001
0101
0000
,
0000
0000
0200
0320
0230
2300
3200
0302
,
2003
3200
0302
0203
2300
3002
0203
2300
,
3200
0000
0302
0000
0103
0001
0100
0000
0001
0000
1000
0000
0100
0000
1000
0000
,
0010
0000
0100
0000
0001
1000
0100
0000
1000
0000
0010
0000
0100
0000
0001
0000
,
0010
0100
2000
3200
0302
0203
2300
3020
,
0032
0023
2030
3200
0302
0203
2300
3020
,
0032
0000
2003
0000
3100
0001
0100
0000
0001
0000
1000
0000
0100
0000
1000
0000
,
0010
0000
0100
0000
0001
1000
0010
0000
0100
0000
0010
0000
1000
0000
0001
0000
,
0100
0000
0001
0000
0010
0001
0010
0001
0100
0001
0100
0001
1000
0100
1000
0100
,
1000
0100
0010
0001
1000
0100
0010
0001
0100
0010
1000
0001
0100
0010
1000
0001
,
0010
0100
1000
0010
0200
0000
0000
0000
0000
0000
0000
0000
0301
0000
1000
0000
,
0010
0200
0000
0301
2000
0000
0000
0000
,
0000
0000
3002
0000
0000
0000
0103
0010
,
1000
0200
0000
1300
0002
0000
0000
0000
,
0103
0000
0020
0000
0000
0000
1030
0001
,
0010
0100
1000
0010
0100
0001
1000
0010
,
0100
0001
0100
0010
1000
0100
1000
0010
0100
0001
1000
0100
0010
0001
0100
0010
,
1000
0000
0000
0100
0000
0000
1000
0000
0000
0001
0000
0000
0100
0000
0000
0010
0000
0000
0100
0000
0000
0001
0000
0000
0010
0000
0000
0100
0000
0000
1000
0000
0000
0010
0000
0000
0100
0000
0000
0001
0000
0000
1000
0000
0100
0000
0010
0000
,
0001
1000
0100
0010
0001
0100
0010
0000
0000
0000
0000
0000
0100
0000
0000
0000
0000
0000
0010
0000
0000
1000
0000
0000
,
0000
0000
0000
0001
0000
0000
0010
0000
0000
0000
0000
0000
0100
0000
1000
0000
0010
0000
0100
0000
0000
0001
0000
0000
,
0000
1000
0100
0000
1100
0000
1000
0001
,
0000
0100
0010
0000
0100
0001
0010
0100
,
0000
1000
0010
0000
0110
0000
0100
0001
,
0000
0000
0000
0010
0000
0000
0100
0000
0000
0000
0000
0000
1000
0000
0001
0000
0100
0000
0010
0000
0000
0100
0000
0000
,
0000
0001
1000
0000
1100
0000
0100
0010
,
0000
0001
0100
0000
0010
1000
0001
0000
,
1000
0100
1000
0000
1001
0000
0001
0010
,
0000
0000
0000
0100
0000
0000
1000
0000
0000
0000
0000
0000
0001
0000
0100
0000
0010
0000
1000
0000
0000
0100
0000
0000
,
0000
1000
0001
0000
0011
0000
0010
0100
,
0000
1000
0001
0000
0100
0010
0100
0001
,
0000
1000
0100
0000
1100
0000
1000
0001
,
0000
0000
0000
0100
0000
0000
0010
0000
0000
0000
0000
0000
0100
0000
0001
0000
0010
0000
0100
0000
0000
1000
0000
0000
,
0000
0000
0000
0010
0100
0001
0010
0100
1000
0100
1000
0010
,
0100
0001
0100
0001
0010
0100
1000
0010
0100
0001
1000
0100
,
1000
0010
0100
0002
0000
0000
0000
0000
0000
0000
0000
0000
,
0000
2003
0000
3020
,
0230
0302
0023
0230
,
0000
0000
0000
2300
0000
0000
3002
0000
0000
0023
0230
2300
,
3020
0230
0000
0000
,
0000
0000
0000
0000
0302
0000
0000
2003
,
0000
0000
0000
0000
3200
0000
0000
0302
0000
0000
0203
0000
0000
0000
0000
0000
,
0000
0000
0000
0000
2300
0000
0000
3020
,
0000
0230
0000
0000
,
0302
0000
2003
0000
0000
3200
2300
0000
,
0000
3020
0230
0000
0000
0302
0203
0000
,
0000
0000
0000
0000
0302
0000
0000
2003
,
0000
0000
3200
0000
0000
2300
3020
0000
,
0000
0000
0000
0230
0000
0000
0302
0000
0000
2003
3200
0320
,
0032
0203
0000
0000
,
0000
0000
0000
0000
0301
0100
0001
1000
0100
0010
0001
1000
0010
1000
0010
0100
,
0001
0100
0010
1000
0100
0010
0001
0010
0001
0000
0000
0000
0101
0000
0000
0000
,
0000
0000
0110
0000
0000
0000
1010
0000
0000
0000
0000
0000
1000
0001
0100
0010
,
0100
0000
0000
0001
0000
0000
1000
0000
0000
0100
0000
0000
1000
0000
0000
0000
0100
0000
0000
0000
0010
0000
0000
0000
0001
0000
0000
0000
0100
0000
0000
0000
0010
0000
0000
0000
1000
0000
0000
0000
0001
0000
0000
0000
0100
0000
0000
0000
,
0010
0100
0001
1000
0100
0010
0001
0100
0010
1001
0000
0000
;
