#TITLE:TeraStream;
#SUBTITLE:EXoduz Violation;
#ARTIST:Kommisar;
#TITLETRANSLIT:;
#SUBTITLETRANSLIT:;
#ARTISTTRANSLIT:;
#CREDIT:;
#BANNER:../Banner.png;
#BACKGROUND:../Background.png;
#LYRICSPATH:;
#CDTITLE:;
#MUSIC:Kommisar - Terastream.ogg;
#OFFSET:1.265;
#SAMPLESTART:96.095;
#SAMPLELENGTH:12.000;
#SELECTABLE:YES;
#DISPLAYBPM:180.000;
#BPMS:0.000=180.000,36.000=178.000,40.000=180.000,64.000=178.000,66.000=181.000,84.000=179.000,92.000=180.000,160.000=178.000,164.000=179.000,166.000=180.000,192.000=181.000,212.000=180.000,324.000=179.000,328.000=180.000,356.000=999999.000,360.000=0.001;
#STOPS:;
#BGCHANGES:;
// cache tags:
#FIRSTBEAT:5.000;
#LASTBEAT:357.000;
#SONGFILENAME:Songs/EXoduz Violation/Terastream/Kommisar - Terastream.sm;
#HASMUSIC:1;
#HASBANNER:1;
#MUSICLENGTH:122.218;
// end cache tags

//---------------dance-single - ----------------
#NOTES:
     dance-single:
     :
     Challenge:
     15:
     1.000,1.000,0.008,0.000,1.000,1409.000,1.000,0.000,0.000,1.000:

0000
0000
0000
0000
,
0000
0000
0000
0000
1000
0001
0100
0001
1000
0010
0100
0001
0010
0100
1000
0100
,
0010
0001
1000
0010
0100
0010
1000
0010
0100
0001
0100
0010
0100
0001
0010
0100
,
1000
0001
0100
0001
1000
0010
0100
0001
0010
0100
0010
0001
1000
0010
0100
0010
,
1000
0100
0010
0100
1000
0001
0010
0100
0001
0100
0010
1000
0010
0100
0001
0010
,
0100
1000
0001
0100
0001
1000
0001
0100
0001
1000
0010
1000
0001
1000
0010
1000
,
0001
1000
0010
1000
0001
1000
0010
1000
0001
1000
0010
0100
0001
0100
0010
0100
,
0001
0010
0100
0010
0001
1000
0100
0010
0100
1000
0001
0010
0100
1000
0100
0010
,
0100
1000
0001
0010
0100
1000
0100
0010
0100
1000
0001
0010
0100
1000
0010
0100
,
0001
1000
0001
1000
0100
0010
0001
0100
0001
0100
0001
0100
0010
0100
0001
0100
,
0010
0100
0001
0010
0100
1000
0010
0100
0010
1000
0100
0010
0001
0100
0010
0100
,
0001
0010
0100
1000
0010
0100
0010
1000
0100
0010
0001
0100
0010
0100
0001
0010
,
0100
1000
0010
0100
0010
1000
0100
0010
0001
1000
0001
0100
0001
1000
0010
0100
,
0001
0010
0100
1000
0010
1000
0001
0010
0100
1000
0001
0100
0001
1000
0010
0100
,
0001
0010
0100
1000
0001
0100
0001
1000
0001
0100
0010
1000
0100
0010
0001
0010
,
0100
1000
0001
0100
0010
1000
0010
0100
0001
0010
0100
1000
0001
0100
0010
0100
,
0001
0100
0010
0100
0001
0100
0010
0100
0001
0100
0010
0100
0001
0010
0100
1000
,
0010
0100
0010
1000
0001
1000
0001
1000
0010
0100
0001
0010
0001
0010
0100
1000
,
0010
0100
0001
0010
0100
1000
0010
0100
0010
1000
0010
0100
0001
0100
0010
0100
,
0001
0100
0010
1000
0010
0100
0001
0100
0010
1000
0010
0100
0001
0100
0010
1000
,
0010
0100
0001
0100
0010
1000
0010
0100
0001
0100
0010
1000
0010
0100
0001
0100
,
0010
1000
0010
0100
0001
0100
0010
1000
0010
0100
0001
0100
0010
1000
0010
0100
,
0001
0100
0010
1000
0010
0100
0001
0100
0010
1000
0010
0100
0001
0100
0010
1000
,
0010
0100
0001
0100
0010
1000
0010
0100
0001
0100
0010
1000
0010
0100
0001
0100
,
0010
1000
0010
0100
0001
0100
0010
1000
0010
0100
0001
0100
0010
1000
0010
0100
,
0001
0100
0010
1000
0010
0100
0001
0100
0010
1000
0010
0100
0001
0100
0010
1000
,
0010
0100
0001
0100
0010
1000
0010
0100
0001
0100
0010
1000
0010
0100
0001
0100
,
0010
1000
0010
0100
0001
0100
0010
1000
0010
0100
0001
0100
0010
1000
0010
0100
,
0001
0100
0010
1000
0010
0100
0001
0100
0010
1000
0010
0100
0001
0100
0010
1000
,
0010
0100
0001
0100
0010
1000
0010
0100
0001
0100
0010
1000
0010
0100
0001
0100
,
0010
1000
0010
0100
0001
0100
0010
1000
0010
0100
0001
0100
0010
1000
0010
0100
,
0001
0100
0010
1000
0010
0100
0001
0100
0010
1000
0010
0100
0001
0100
0010
1000
,
0010
0100
0001
0100
0010
1000
0010
0100
0001
0100
0010
1000
0010
0100
0001
0100
,
0010
1000
0010
0100
0001
0010
0100
1000
0001
0100
0010
1000
0010
0100
0001
0010
,
0100
1000
0001
1000
0100
1000
0001
1000
0100
1000
0100
1000
0010
0100
0001
0100
,
0010
0100
0001
1000
0010
0100
0001
0100
0010
1000
0010
0100
0001
0010
0100
1000
,
0001
0100
0010
1000
0100
0010
0100
1000
0010
0100
0001
0010
0100
0010
0001
1000
,
0010
0100
0001
0100
0010
1000
0100
0010
0001
0010
0100
1000
0010
0100
0001
0010
,
0100
0010
0001
0010
0100
0010
0001
1000
0010
0100
0010
1000
0100
0010
0001
1000
,
0001
0100
0001
1000
0010
0100
0001
0010
0100
1000
0010
0100
0010
1000
0100
0010
,
0001
1000
0001
0100
0001
0010
0100
1000
0010
0100
0001
0010
0100
1000
0001
0100
,
0001
1000
0010
1000
0010
0100
0001
0100
0001
0010
0001
0010
0100
1000
0100
1000
,
0010
0100
0010
0100
0001
0100
0001
1000
0010
1000
0010
0100
0010
0100
0010
1000
,
0010
0100
0010
1000
0100
0010
0001
0010
0001
1000
0001
1000
0001
1000
0100
1000
,
0100
0010
0001
1000
0001
0100
0010
1000
0100
0010
0001
0010
0001
1000
0001
1000
,
0010
0100
0001
0100
0001
0010
0100
1000
0001
0100
0010
1000
0010
0100
0010
1000
,
0100
0010
0001
0010
0001
1000
0010
1000
0010
0100
0001
0010
0100
1000
0001
0100
,
0001
1000
0001
0100
0001
0010
0100
1000
0001
0100
0010
1000
0010
0100
0001
0010
,
0100
1000
0001
1000
0001
1000
0100
0010
0001
1000
0010
1000
0010
0100
0001
0010
,
0100
1000
0001
0100
0010
1000
0010
0100
0001
0010
0100
1000
0001
1000
0001
1000
,
0100
0010
0001
1000
0001
1000
0100
0010
0001
1000
0001
1000
0100
0010
0001
1000
,
0001
1000
0100
0010
0001
1000
0001
1000
0100
0010
0001
1000
0001
1000
0100
0010
,
0001
1000
0001
1000
0100
0010
0001
1000
0001
1000
0001
1000
0001
0100
0010
1000
,
0010
0100
0001
0010
0100
1000
0001
0100
0001
1000
0010
0100
0001
0010
0100
1000
,
0001
1000
0100
0010
0001
1000
0010
1000
0010
0100
0001
0010
0001
0010
0100
1000
,
0001
0100
0001
1000
0010
0100
0001
0010
0100
1000
0001
1000
0100
1000
0001
1000
,
0010
0100
0001
0100
0010
0100
0001
0010
0100
1000
0100
0010
0001
1000
0010
0100
,
0001
0010
0001
0100
0001
0010
0001
0100
0001
0010
0001
0100
0001
0010
0001
0100
,
0010
1000
0010
0100
0001
0010
0100
1000
0001
1000
0100
1000
0010
0100
0001
0100
,
0001
1000
0010
0100
0001
0010
0100
1000
0001
0100
0001
1000
0010
0100
0001
0010
,
0100
1000
0001
0100
0001
1000
0010
1000
0010
0100
0001
0010
0100
1000
0001
0100
,
0001
1000
0010
0100
0001
0010
0001
0010
0100
1000
0001
0100
0001
1000
0010
0100
,
0001
0100
0010
1000
0100
0010
0001
1000
0001
1000
0010
0100
0001
0100
0001
1000
,
0010
0100
0001
0010
0100
1000
0001
0100
0001
1000
0010
0100
0001
0010
0100
1000
,
0001
1000
0001
1000
0010
0100
0001
0010
0100
1000
0001
0100
0001
1000
0010
1000
,
0010
0100
0001
0010
0100
1000
0001
0100
0001
1000
0010
1000
0010
0100
0001
0010
,
0100
1000
0001
0100
0001
1000
0010
0100
0001
0010
0001
0010
0100
1000
0001
1000
,
0010
1000
0010
0100
0001
0010
0100
1000
0001
0100
0001
1000
0010
0100
0001
0010
,
0100
1000
0100
0010
0001
1000
0010
1000
0010
0100
0001
0010
0100
1000
0001
0100
,
0001
1000
0010
1000
0010
0100
0001
0010
0100
1000
0001
0100
0001
1000
0010
1000
,
0010
0100
0001
0010
0100
1000
0001
0100
0010
1000
0010
0100
0010
1000
0100
0010
,
0001
0010
0001
1000
0001
0100
0001
0010
0001
0010
0100
1000
0100
1000
0010
0100
,
0010
0100
0001
1000
0010
1000
0010
0100
0001
0010
0100
1000
0001
1000
0001
1000
,
0010
0100
0001
0010
0100
1000
0010
0100
0010
1000
0010
0100
0010
1000
0010
0100
,
0010
1000
0010
0100
0010
1000
0010
0100
0010
1000
0010
0100
0001
0100
0010
0100
,
0001
0100
0010
0100
0001
0100
0001
0100
0010
0100
0001
0100
0010
0100
0010
0100
,
0001
0010
0100
1000
0001
0100
0001
1000
0010
1000
0010
0100
0001
0010
0100
1000
,
0001
0100
0010
1000
0010
0100
0001
0010
0100
1000
0001
0100
0001
1000
0010
0100
,
0001
0010
0001
0010
0100
1000
0001
0100
0001
1000
0010
0100
0001
0010
0100
1000
,
0001
0100
0001
1000
0001
1000
0001
1000
0010
1000
0010
0100
0001
0010
0100
1000
,
0001
0100
0001
1000
0010
0100
0001
0010
0100
1000
0001
0100
0001
1000
0010
1000
,
0010
0100
0001
0010
0100
1000
0001
0100
0001
1000
0010
0100
0001
0010
0100
1000
,
0001
0100
0001
1000
0100
1000
0010
0100
0001
0010
0001
1000
0010
1000
0010
0100
,
0001
0010
0100
1000
0100
1000
0010
0100
0001
1000
0100
1000
0001
0100
0001
1000
,
0100
1000
0001
0010
0001
1000
0100
1000
0001
0100
0001
1000
0010
1000
0001
0010
,
0001
1000
0100
1000
0001
0100
0001
1000
0010
1000
0001
0010
0001
1000
0100
1000
,
0001
0010
0001
1000
0010
1000
0001
0100
0001
1000
0010
1000
0001
0100
0001
1000
,
0010
1000
0001
0100
0001
1000
0010
1000
0001
0100
0001
1000
0010
1000
0001
0100
,
0001
1000
0010
1000
0001
0100
0010
1000
0100
0010
0001
1000
0100
0010
0001
1000
,
0100
0010
0001
1000
1111
0000
0000
0000
0000
0000
0000
0000
0000
0000
0000
0000
;
