#TITLE:Erian's Mystical Rhymes;
#SUBTITLE:;
#ARTIST:Rhapsody;
#TITLETRANSLIT:;
#SUBTITLETRANSLIT:;
#ARTISTTRANSLIT:;
#CREDIT:;
#BANNER:(cerdo_claro)Erian's Mystical Rhymes-bn.JPG;
#BACKGROUND:(cerdo_claro)Erian's Mystical Rhymes-bg.jpg;
#LYRICSPATH:;
#CDTITLE:cdtitle.png;
#MUSIC:(cerdo_claro)Erian's Mystical Rhymes.mp3;
#OFFSET:-2.720;
#SAMPLESTART:70.548;
#SAMPLELENGTH:11.960;
#SELECTABLE:YES;
#BPMS:0.000=85.000,80.000=170.000,200.000=85.000,272.000=170.000,320.000=85.000,344.000=170.000,402.000=85.000,474.000=170.000,522.000=85.000,546.000=170.000,620.000=113.330,624.000=85.000,642.000=170.000,882.000=85.000,906.000=170.000,962.000=85.000,1010.000=75.000;
#STOPS:;
#BGCHANGES:;
// cache tags:
#FIRSTBEAT:12.000;
#LASTBEAT:1092.000;
#SONGFILENAME:Songs/toune 2/(cerdo_claro)Erian's Mystical Rhymes/(cerdo_claro)Erian's Mystical Rhymes.sm;
#HASMUSIC:1;
#HASBANNER:1;
#MUSICLENGTH:555.180;
// end cache tags

//---------------dance-single - ----------------
#NOTES:
     dance-single:
     :
     Hard:
     11:
     0.881,1.000,1.000,0.380,0.782,2588.000,623.000,211.000,0.000,50.000:

0000
0000
0000
0000
,
0000
0000
0000
0000
,
0000
0000
0000
0000
,
1000
0000
1000
0000
1000
1000
0000
0000
,
0100
0000
0100
0000
0100
0100
0000
0000
,
0001
0000
0001
0000
0001
0001
0000
0000
,
1000
0000
0010
0000
0001
0001
0000
0000
,
2100
0000
3120
0132
,
0113
1010
0101
0110
1001
1010
0202
0000
,
2313
0000
0000
0000
0000
0000
0000
0000
3002
0000
0000
0103
1000
0100
0011
0000
,
1100
0000
0100
0001
1010
0000
1000
0010
0101
0000
0010
0100
0011
0000
0100
0001
,
1010
0000
0000
0000
0010
0000
0100
0000
0011
0000
0000
0000
2000
0000
0000
0000
3002
0000
0000
0000
0000
0000
0000
2003
0000
0000
0000
0000
3020
0000
0000
0000
,
0130
0000
1000
0010
0101
0000
0001
0100
0011
0000
0100
0010
1100
0000
1000
0010
,
0101
0000
0001
0100
0011
0000
1000
0001
1100
0000
0001
0100
0011
0011
1001
1001
,
2100
0000
3012
2103
,
3201
0000
0000
0000
0000
0000
0000
0000
0320
0000
0000
0000
0000
0032
0000
2003
0000
3020
0000
0000
0000
0000
0000
0000
0230
0000
0000
0000
0000
0000
0000
0000
,
2301
0000
3002
0203
,
0321
2030
3012
0213
,
2310
3200
0320
0032
,
0223
0000
0000
0000
0000
0000
0000
0000
0000
0000
0000
0000
0000
0000
0000
0000
0000
0000
0000
0000
0000
0000
0000
0000
0000
0000
0000
0000
0000
0000
0000
0000
0000
0000
0000
0000
0000
0000
0000
0000
0000
0000
0000
0000
0000
0000
0000
0000
0000
0000
0000
0000
0000
0000
0000
0000
0000
0000
0000
0000
0000
0000
0000
0000
0000
0000
0000
0000
0000
0000
0000
0000
0000
0000
0000
0000
0000
0000
0000
0000
0330
0000
0000
0000
0000
0000
0000
0000
0000
0000
0000
0000
0000
0000
0000
0000
0001
0000
0000
0000
0000
0000
1000
0000
0000
0000
0000
0000
0001
0000
0000
0000
0000
0000
1000
0000
0000
0000
0000
0000
0001
0000
0000
0000
0000
0000
1000
0000
0000
0000
0000
0000
0001
0000
0000
0000
0000
0000
1000
0000
0000
0000
0000
0000
0010
0000
0000
0000
0000
0000
0100
0000
0000
0000
0000
0000
0010
0000
0000
0000
0000
0000
0100
0000
0000
0000
0000
0000
0010
0000
0000
0000
0000
0000
0100
0000
0000
0000
0000
0000
0010
0000
0000
0000
0000
0000
0100
0000
0000
0000
0000
0000
,
0011
1000
1000
0010
0010
0001
1010
1000
,
1000
0010
0010
0001
0110
0001
0001
1000
,
1000
0010
1010
0001
1010
0000
0101
1000
,
0101
0000
1100
1000
1000
0010
0010
0100
,
0011
0100
0100
0010
0010
1000
0101
0010
,
0010
1000
1000
0010
1100
0010
1100
0000
,
0101
0000
1000
0000
0101
0000
0000
0000
0011
1000
0010
0100
0011
1000
0010
0100
,
0011
0100
0001
1000
0110
0001
1000
0001
0110
1000
0010
0001
0110
0001
1000
0010
,
1100
0010
0100
0001
1100
0010
1000
0001
1100
0010
0001
0100
2010
0000
3010
0000
,
0200
0000
0000
0000
0312
0000
2003
0000
3020
0000
0000
0000
1130
0001
0100
0010
,
1100
0001
0100
0010
1100
0010
1000
0001
0110
1000
0001
1000
0110
0001
0100
1000
,
0110
1000
0001
0100
0011
0100
0010
1000
0011
0100
0001
1000
0011
0100
1000
0001
,
2010
3010
0200
0000
0312
1003
0020
0000
,
0131
0000
1100
0110
0110
1001
0000
0011
,
0000
1100
0000
0010
0110
0000
1001
0000
,
1010
0000
0000
0000
0011
0000
0110
0000
0110
0000
1100
0001
0010
0100
0012
0000
,
0000
0213
0000
2310
0000
3110
0000
0000
,
0001
0000
0011
0110
1100
1001
0000
1010
,
0000
0110
0000
0100
0110
0000
1010
0000
,
0001
0000
0000
0000
1100
0000
0110
0000
0110
0000
0011
0000
1000
0010
0101
0000
,
0000
0000
1100
0000
0000
0000
0110
0000
0000
0000
0011
1000
0100
0010
0001
1000
,
0210
0000
0000
0000
1000
0000
0010
0000
0000
0000
0001
0000
0000
0000
0000
0300
,
2010
0000
0001
0100
0000
0100
0000
0000
,
3012
0000
1000
0100
0100
1000
0100
0013
,
1100
1001
0220
0330
,
0120
0000
0000
0000
0001
0000
0100
0000
0000
0000
1000
0000
0000
0000
0000
0030
,
0102
0000
1000
0010
0000
0010
0000
0000
,
2103
0000
0001
0010
0010
0001
0010
3100
,
0011
1001
0220
0030
,
0000
0002
0000
0000
,
1313
0000
1010
0001
1010
0000
0101
1000
0110
0000
1010
0100
0011
0100
1010
0000
,
1100
0000
0011
1000
0110
0000
1100
0001
0110
0000
1010
0100
0011
1000
0110
0000
,
0011
0000
1100
0010
1100
0000
0011
1000
0110
0000
1010
0100
0011
0100
1010
0000
,
0110
0000
1010
0001
1010
0000
0110
1000
0011
0000
2010
0000
3011
0000
0210
0000
,
0301
0010
0100
1000
0100
0010
0001
1000
0101
0000
0101
1000
0101
0000
1010
0001
,
0110
0000
0101
0010
1100
0010
0101
0000
0011
0000
1100
0001
0110
0000
0011
1000
,
0110
0000
0101
0010
1100
0001
0110
0000
1100
0000
0011
0100
0011
0000
1100
0001
,
0110
0000
0101
0010
1100
0010
0101
0000
0110
0000
0101
1000
0101
0000
0110
0001
,
1100
0000
0000
0000
0102
0000
0000
0000
1103
0000
0000
0000
0120
0000
0000
0000
1030
0000
0100
0000
0010
0000
0001
0000
0010
0100
1000
0001
0010
0100
1000
0001
,
1100
0000
1100
0010
1100
0000
0011
0100
1001
0000
1100
0001
1010
0001
1100
0000
,
0101
0000
1010
0100
1001
0000
0101
0010
1001
0000
1100
0001
1010
0100
1001
0000
,
1010
0000
0101
1000
0101
0000
1010
0100
1001
0000
1100
0001
1010
0001
1100
0000
,
1001
0000
1100
0010
1100
0000
1001
0100
1010
0000
1200
0000
1310
0000
1002
0000
,
0013
1000
0001
0100
0001
1000
0010
0100
0011
0000
1010
0001
1010
0000
0101
1000
,
0110
0000
1010
0100
0011
0100
1010
0000
1100
0000
0011
1000
0110
0000
1100
0001
,
0110
0000
1010
0100
0011
1000
0110
0000
0011
0000
1100
0010
1100
0000
0011
1000
,
0102
0000
0203
1310
1001
0000
0000
0002
,
0013
0000
0000
0000
0011
0000
0000
0000
0000
0000
0000
0000
0200
0000
0000
0000
2300
0000
0000
0000
3110
0000
0000
0000
0001
1000
0001
1000
0001
1000
0001
1000
,
0001
0010
0001
0010
0001
0010
0001
0010
0100
0010
0100
0010
0100
0010
0100
0010
,
1000
0001
1000
0001
1000
0001
1000
0001
1000
0100
1000
0100
1000
0100
1000
0100
,
0010
0100
0010
0100
0010
0100
0010
0100
0001
0010
0001
0010
0001
0010
0001
0010
,
0100
0010
0100
0010
0100
0010
0100
0010
1000
0010
1000
0010
1000
0010
1000
0010
,
0101
0010
1000
0100
0011
1000
0010
0100
0001
1000
0001
0100
0011
1000
0010
0100
,
1010
0100
0001
1000
0010
0100
0011
1000
0001
1000
0010
0100
0011
1000
0010
0100
,
1010
0001
0100
0010
1000
0010
0100
0001
0100
0010
1000
0010
0101
1000
0010
0100
,
1010
0001
1000
0010
0100
0001
1000
0100
0010
0001
0100
0010
1000
0010
0100
0001
,
1000
0100
1000
0100
1000
0100
1000
0100
1000
0100
1000
0100
1000
0100
1000
0100
,
0010
0100
0010
0100
0010
0100
0010
0100
0001
0010
0001
0010
0001
0010
0001
0010
,
0100
1000
0100
1000
0100
1000
0100
1000
0100
1000
0100
1000
0100
1000
0100
1000
,
0010
0100
0010
0100
0010
0100
0010
0100
0001
0010
0100
1000
0001
0010
0100
1000
,
0012
0000
0203
2300
,
3020
0000
0131
1010
,
0012
0000
2003
3002
,
2003
0000
3011
0110
,
1020
0000
0032
2003
,
3020
0230
0311
0110
,
1010
0100
0001
0010
1100
0001
0100
0010
0101
1000
0001
0010
1100
0010
1000
0010
,
0101
0010
1000
0001
0110
0001
0100
0010
1100
0010
0100
0001
0110
0001
1000
0010
,
0101
0010
1000
0010
1000
0100
1000
0100
1000
0100
1000
0100
0010
0001
0010
0001
,
0010
0001
0010
0001
0110
0001
1000
0100
0011
1000
0010
0100
1010
0001
1000
0100
,
0011
0100
0001
0100
1010
0100
0001
1000
0110
1000
0010
0100
0011
0100
0010
1000
,
0110
1000
0001
0100
1010
0100
0001
0100
0001
0010
0001
0010
0001
0010
0001
0010
,
0100
1000
0100
1000
0100
1000
0100
1000
0011
0000
0000
0000
0011
0000
0110
0000
,
0110
1001
0000
1100
0000
0011
0000
0100
,
0110
0000
1001
0000
0101
0000
1100
0110
,
0110
0000
0011
1000
0100
0010
2100
0000
0000
0000
3120
0000
0000
0000
0132
0000
,
0000
0113
0000
0000
1000
0000
1100
0110
,
0011
1001
0000
0101
0000
0110
0000
0010
,
0110
0000
0101
0000
1000
0000
0011
0110
,
0110
0000
1100
0000
0001
0100
1010
0000
0000
0000
0011
0000
0000
0000
0110
0000
,
0000
0000
1100
0001
0010
0100
1000
0001
0110
0000
0101
1000
0101
0000
1010
0001
,
0110
0000
0101
0010
1100
0010
0101
0000
0011
0000
1100
0001
0110
0000
0011
1000
,
0110
0000
0101
0010
1100
0001
0110
0000
1100
0000
0011
0100
0011
0000
1100
0001
,
0110
0000
0101
0010
1100
0010
0101
0000
0110
0000
0101
1000
0101
0000
0110
0001
,
1100
0000
0102
0000
1103
0000
0120
0000
1030
0100
0010
0001
0010
0100
1000
0001
,
1010
0000
1010
0001
1010
0000
0101
1000
0110
0000
1010
0100
0011
0100
1010
0000
,
1100
0000
0011
1000
0110
0000
1100
0001
0110
0000
1010
0100
0011
1000
0110
0000
,
0011
0000
1100
0010
1100
0000
0011
1000
0110
0000
1010
0100
0011
0100
1010
0000
,
0110
0000
1010
0001
1010
0000
0110
1000
0011
0000
2010
0000
3011
0000
0210
0000
,
0301
0000
0010
0000
0100
0000
1000
0000
0100
0010
0001
1000
0100
0010
0001
1000
0011
0000
0000
0000
0011
0000
0100
0000
0011
0000
0000
0000
1100
0000
0010
0000
,
1001
0000
0011
1000
0101
1000
0011
0000
1010
0000
0101
0010
1001
0000
1010
0100
,
1001
0000
0011
1000
0101
0010
1001
0000
0101
0000
1010
0001
1010
0000
0101
0010
,
1001
0000
0011
1000
0101
1000
0011
0000
1001
0000
0011
0100
0011
0000
1001
0010
,
0101
0000
0021
0000
0131
0000
2001
0000
3100
0001
1000
0010
1000
0001
0100
0010
,
1100
0000
0101
1000
0101
0000
1010
0001
0110
0000
0101
0010
1100
0010
0101
0000
,
0011
0000
1100
0001
0110
0000
0011
1000
0110
0000
0101
0010
1100
0001
0110
0000
,
1100
0000
0011
0100
0011
0000
1100
0001
2010
0000
0000
0000
3020
0000
0131
0000
,
2002
0000
3003
2000
3100
1100
0000
0020
,
0032
0000
0000
0000
0113
0000
0000
0000
1000
0001
1000
0001
1000
0001
1000
0001
1000
0000
0100
0000
1000
0000
0100
0000
1000
0000
0100
0000
1000
0000
0100
0000
,
0010
0100
0010
0100
0010
0100
0010
0100
0001
1000
0001
1000
0001
1000
0001
1000
,
0001
0010
0001
0010
0001
0010
0001
0010
0100
0010
0100
0010
0100
0010
0100
0010
,
1000
0100
1000
0100
1000
0100
1000
0100
0010
0100
0010
0100
0010
0100
0010
0100
,
0001
0100
0001
0100
0001
0100
0001
0100
1010
0100
0001
0010
1100
0001
0100
0010
,
1000
0001
1000
0010
1100
0001
0100
0010
0101
0010
1000
0001
0100
0010
1100
0001
,
1000
0001
0100
0010
1100
0001
0100
0010
0101
1000
0010
0100
0001
0100
0010
1000
,
0010
0100
0001
0100
1010
0001
0100
0010
0101
1000
0001
0100
0010
1000
0001
0010
,
0100
1000
0010
0100
0001
0100
0010
1000
0001
0010
0001
0010
0001
0010
0001
0010
,
0001
0010
0001
0010
0001
0010
0001
0010
0100
0010
0100
0010
0100
0010
0100
0010
,
1000
0100
1000
0100
1000
0100
1000
0100
0010
0001
0010
0001
0010
0001
0010
0001
,
0010
0001
0010
0001
0010
0001
0010
0001
0100
0010
0100
0010
0100
0010
0100
0010
,
1000
0100
0010
0001
1000
0100
0010
0001
2100
0000
0000
0000
0000
0000
0000
0000
,
3002
0000
0023
0000
0032
0000
0000
2003
,
3020
0000
0000
0032
0203
0000
0000
0300
,
1010
0101
2010
0000
,
3001
0011
2010
0000
,
3002
0103
0021
2030
,
3020
0000
0000
0000
0032
0000
0003
0000
0101
0010
1000
0100
0011
1000
0010
0100
,
1010
0001
1000
0100
0011
0100
0001
0100
1010
0100
0001
1000
0110
1000
0010
0100
,
0011
0100
0010
1000
0110
1000
0001
0100
1010
0100
0001
0100
0001
0010
0001
0010
,
0001
0010
0001
0010
0100
1000
0100
1000
0100
1000
0100
1000
0110
1000
0001
0010
,
1100
0001
0100
0010
0101
1000
0001
0010
1100
0010
1000
0010
0101
0010
1000
0001
,
0110
0001
0100
0010
1100
0010
0100
0001
0110
0001
1000
0010
0101
0010
1000
0010
,
1000
0100
1000
0100
1000
0100
1000
0100
0010
0001
0010
0001
0010
0001
0010
0001
,
1100
1000
1000
1000
0011
0001
0001
0001
,
0110
0100
0100
0100
1010
1000
1000
1000
,
0101
0100
0100
0100
0110
0001
0001
0001
,
1010
0100
0100
0100
1001
0001
1000
0001
,
0101
0010
1000
0100
0011
1000
0010
0100
1010
0001
1000
0100
0011
0100
0001
0100
,
1010
0100
0001
1000
0110
1000
0010
0100
0011
0100
0010
1000
0110
1000
0001
0100
,
0011
0100
1000
0010
0101
1000
0010
0100
1010
0001
1000
0100
0011
0100
0001
0100
,
1000
0000
0100
0000
0010
0000
0001
0000
0000
0100
0000
0000
0010
0000
0000
1000
0000
0000
0001
0000
0000
1000
0000
0000
0001
0000
0000
0100
0000
0000
0010
0000
0000
1000
0000
0000
0010
0000
0000
0100
0000
0000
0001
0000
0000
0100
0000
0000
,
0011
1000
0100
1000
0100
0010
0100
0010
0100
0001
0100
0001
0100
0010
0100
0010
,
1100
0001
0010
0001
0010
0100
0010
0100
0010
1000
0010
1000
0010
0100
0010
0100
,
0011
1000
0100
1000
0100
0010
0100
0010
0100
0001
0100
0001
0100
0010
0100
0010
,
1100
0001
0010
0001
0010
0100
0010
0100
0010
1000
0010
1000
0010
0100
0010
0100
,
0010
1000
0010
1000
0101
0000
0000
0010
0101
0000
0000
1000
0110
0000
0000
0010
,
2100
0000
0000
0000
0000
0000
0000
0000
3001
1000
0001
1000
0001
0100
0010
0100
0012
0000
0000
0000
0103
0000
0000
0000
0010
0000
0000
0000
1000
0000
0000
0000
,
0010
0100
0001
1000
0120
1030
0001
0100
,
0010
1000
0010
0100
0012
1003
0100
0001
,
1000
0010
0100
1000
0012
1003
0010
0001
,
1000
0100
0010
0001
1000
0100
0010
0001
0100
0010
1000
0001
0100
0010
1000
0100
0011
0000
0000
0000
1000
0000
0000
0000
0010
0000
0000
0000
0100
0000
0000
0000
,
0011
1000
0110
0001
1100
0010
0100
0001
,
1100
0100
0010
1000
0011
0100
0010
1000
,
0110
0001
0110
0001
1100
0010
0100
0001
,
1100
1000
0010
0100
0012
1000
0010
0100
,
0010
1000
0010
0100
2103
0010
0001
0100
,
3210
0001
1000
0010
0312
1000
0010
0100
,
0010
1000
0100
1000
0213
0010
1000
0001
,
1302
0100
0010
1000
0213
1000
1000
0010
,
1000
0000
0001
0000
0001
0000
0010
0000
0301
0010
0100
1000
0001
0010
0100
1000
,
0010
0100
0001
1000
0100
0010
0001
1000
0110
0000
0011
0000
1100
0000
0011
0000
,
1100
0001
0010
0100
1000
0010
0010
0001
,
1000
0010
0100
0001
0001
1100
0011
1010
,
0101
1000
1000
0010
0100
0001
0100
1000
,
0100
0001
0010
1000
0010
0101
1010
0011
,
1100
0100
1000
0001
1100
0000
0000
0010
,
0110
0000
0000
0001
1100
0010
0100
0001
,
0110
0001
1000
0010
1100
0000
0002
0003
,
1000
0100
0010
0001
1000
0100
0010
0001
1000
0000
0100
0000
0011
0000
1000
0000
,
0010
0100
0011
1000
0010
0001
1100
0010
,
0001
1000
0110
1000
0011
0000
0011
1000
,
0010
0100
0011
1000
0001
0100
1010
0100
,
1000
0010
0101
0010
1000
0001
1100
0001
,
0010
1000
0011
0100
0001
1000
0110
1000
,
0001
0100
0011
1000
0010
0100
0101
0010
,
1000
0010
1010
0100
0001
1000
0110
1000
,
0001
0000
0000
0000
0100
0000
0000
0000
0110
0000
0000
0000
1000
0000
0000
0000
0001
0010
0100
1000
0001
0010
0100
1000
0002
0000
0000
0000
0000
0000
0000
0000
,
1003
0100
0010
0001
1000
0100
0010
0001
2000
0000
0000
0000
0000
0000
0000
0000
3001
0100
0010
1000
0001
0100
0010
1000
0002
0000
0000
0000
0000
0000
0000
0000
,
1003
0010
0100
0001
1000
0010
0100
0001
2000
0000
0000
0000
0000
0000
0000
0000
3001
0010
0100
1000
0001
0010
0100
1000
0002
0000
0000
0000
0000
0000
0000
0000
,
1003
0010
0100
0001
1000
0100
0010
0001
2000
0000
0000
0000
0000
0000
0000
0000
3001
0100
0010
1000
0001
0010
0100
1000
0001
0000
0000
0000
1000
0000
0000
0000
,
0010
0000
0000
0000
0000
0000
1000
0000
0000
0000
0000
0000
0001
0000
0000
0000
0000
0000
0000
0000
0001
0000
0000
0000
1000
0000
0000
0100
0000
0000
0010
0000
0000
0001
0000
0000
0010
0000
0000
0100
0000
0000
1000
0000
0000
0100
0000
0000
,
0010
0001
0010
0100
1000
0100
0010
0001
1000
0100
0010
0001
1000
0100
0010
0001
,
1000
0100
0010
0001
1000
0100
0010
0001
0100
0010
1000
0100
0010
0001
0010
1000
,
0010
0100
0001
0100
0010
1000
0010
0100
0001
0010
0100
1000
0010
0100
0001
1000
,
0010
1000
0001
0100
0001
1000
0010
0100
0001
0000
0000
0000
1000
0000
0000
0000
,
0100
0000
0010
0000
0001
0000
1000
1000
,
0100
0000
0000
0000
0000
0000
0100
0000
0000
0000
0000
0000
0010
0000
0000
0000
0000
0000
0010
0000
0000
0000
0000
0000
0001
0000
0010
0000
0100
0000
1000
0000
0000
0010
0000
0000
0100
0000
0000
0001
0000
0000
1000
0000
0000
0010
0000
0000
,
1000
0000
0100
0000
0010
0000
0001
0000
0000
0010
0000
0000
0100
0000
0000
1000
0000
0000
0010
0000
0000
0100
0000
0000
0001
0000
0000
1000
0000
0000
0001
0000
0000
0100
0000
0000
0010
0000
0000
1000
0000
0000
0001
0000
0000
1000
0000
0000
,
0001
0000
0010
0000
0100
0000
1000
0000
0000
0010
0000
0000
0100
0000
0000
1000
0000
0000
0001
0000
0000
0010
0000
0000
2000
0000
0000
0000
0000
0000
0000
0000
0000
0000
0000
0000
0000
0000
0000
0000
0000
0000
0000
0000
0000
0000
0000
0000
,
0000
0000
0000
3000
0000
0000
0001
0000
0010
0000
0100
0000
2000
0000
0000
0000
0000
0000
0000
0000
0000
3000
0000
0000
,
0001
0000
0010
0000
0100
0000
1000
0000
0000
0001
0000
0000
0100
0000
0000
0010
0000
0000
1000
0000
0000
0010
0000
0000
1000
0000
0100
0000
0010
0000
0001
0000
0000
0100
0000
0000
0010
0000
0000
1000
0000
0000
0001
0000
0000
1000
0000
0000
,
0001
0000
0100
0000
0010
0000
1000
0000
0000
0001
0000
0000
1000
0000
0000
0100
0000
0000
0010
0000
0000
0001
0000
0000
1000
0000
0100
0000
0010
0000
0001
0000
0000
0100
0000
0000
0001
0000
0000
1000
0000
0000
0100
0000
0000
1000
0000
0000
,
0001
0000
0010
0000
0100
0000
1000
0000
0000
0010
0000
0000
0100
0000
0000
0001
0000
0000
1000
0000
0000
0100
0000
0000
0011
0000
0000
0000
0000
0000
0011
0000
0000
0000
0000
0000
1100
0000
0000
0000
0000
0000
1100
0000
0000
0000
0000
0000
,
0110
0110
0011
0011
1010
1010
0101
0101
,
1000
0011
0000
0000
0001
1100
0011
0000
0011
0000
1010
0000
1010
0000
0101
0000
,
0001
0110
0000
0000
1000
0000
0100
0000
0001
0000
0010
0000
0100
0000
1000
0000
,
2000
0000
0000
0000
3001
0010
0100
1000
,
0000
0010
0100
0000
1000
0100
0010
0001
,
0000
0100
0010
0000
1000
0001
0100
0010
,
0000
0001
1000
0000
0001
0100
0001
1000
,
0010
0100
1000
0010
0100
0001
1000
0010
,
0000
0010
1000
0000
0010
1000
0001
0010
,
0000
0001
1000
0000
0010
0100
0001
0010
,
0000
0010
1000
0000
0010
0100
0001
0010
,
0000
0100
1000
0000
0010
0100
0001
1000
,
0000
0001
1000
0000
0010
0100
0001
0010
,
0100
1000
0010
0100
0001
0010
0100
1000
,
0000
0010
0100
0000
0001
0010
0100
1000
,
0000
0010
0100
0000
0100
1000
0010
0100
,
0000
0001
0010
0000
0100
1000
0010
0100
,
0000
0001
1000
0000
0102
0000
0000
0000
,
2003
3020
0032
0000
,
0203
0320
2030
0000
,
3002
0000
0203
0000
0302
0000
0000
0003
,
0011
1010
0210
0000
,
0302
2003
3020
2030
,
3002
0000
0000
0000
2003
0000
0000
0000
3101
0010
1000
0100
0011
1000
0010
0100
,
1010
0001
1000
0100
0011
0100
0001
0100
1010
0100
0001
1000
0110
1000
0010
0100
,
0011
0100
0010
1000
0110
1000
0001
0100
1010
0100
0001
0100
0001
0010
0001
0010
,
0001
0010
0001
0010
0100
1000
0100
1000
0100
1000
0100
1000
0110
1000
0001
0010
,
1100
0001
0100
0010
0101
1000
0001
0010
1100
0010
1000
0010
0101
0010
1000
0001
,
0110
0001
0100
0010
1100
0010
0100
0001
0110
0001
1000
0010
0101
0010
1000
0010
,
1000
0100
1000
0100
1000
0100
1000
0100
0010
0001
0010
0001
0010
0001
0010
0001
,
1010
0100
0001
0010
1100
0001
0100
0010
0101
1000
0001
0010
1100
0010
1000
0010
,
0101
0010
1000
0001
0110
0001
0100
0010
1100
0010
0100
0001
0110
0001
1000
0010
,
0101
0010
1000
0010
1000
0100
1000
0100
1000
0100
1000
0100
0010
0001
0010
0001
,
0010
0001
0010
0001
0110
0001
1000
0100
0011
1000
0010
0100
1010
0001
1000
0100
,
0011
0100
0001
0100
1010
0100
0001
1000
0110
1000
0010
0100
0011
0100
0010
1000
,
0110
1000
0001
0100
1010
0100
0001
0100
0001
0010
0001
0010
0001
0010
0001
0010
,
0100
1000
0100
1000
0100
1000
0100
1000
0010
0100
0010
0100
0010
0100
0010
0100
,
0010
1000
0001
1000
0001
1000
0001
1000
0012
0000
0000
0000
0000
0000
0000
0000
,
1003
2000
0000
0000
0000
0000
3020
0000
0032
0000
0000
0000
0000
0000
0000
0000
,
2003
0000
0000
0000
3020
0000
2030
0000
3200
0000
0000
0000
0000
0000
0000
0001
,
0302
0000
0000
0203
0320
0000
0131
0000
,
1100
0110
2100
0000
,
3001
0002
0000
0000
0000
0000
0203
0000
2300
0000
0000
0000
0000
0000
0000
0000
,
3002
0000
0000
0000
0203
0000
0302
0000
0023
0000
0000
0000
0000
0000
0000
1000
,
2030
0000
0000
3020
0230
0000
1310
0000
,
0011
0110
1020
0000
,
0130
0200
0000
0000
0000
0000
2300
0000
3020
0000
0000
0000
0000
0000
0000
0000
,
0230
0000
0000
0000
2300
0000
3200
0000
0302
0000
0000
0000
0000
0000
0000
0010
,
0023
0000
0000
0032
2003
0000
3011
0000
,
0101
0000
1001
0000
1000
0001
0010
0000
,
0000
0001
0010
0100
0001
1000
0010
0100
,
1000
0000
0000
0000
0001
1000
0010
0001
,
0000
0000
0002
0000
,
0000
1000
0000
0000
,
0000
0000
0003
0000
,
0000
0000
0000
0000
,
0000
0000
0000
0000
,
2000
0000
3002
0000
,
0000
0003
0020
0000
,
0230
0000
0302
2003
,
0000
0000
3200
0000
0312
1000
0010
0100
,
2003
0010
0100
0001
3020
0100
0001
1000
,
0230
0001
1000
0010
2300
0001
0100
0010
,
0001
0100
3002
0023
2030
0000
3002
0023
,
2030
0010
0100
0001
0010
0100
0010
0100
,
3002
0100
0010
0100
2003
0010
3002
0103
,
0001
0000
0010
0000
0100
0000
2000
0000
0000
3020
0000
0000
0032
0000
0000
0000
0000
0000
2003
0000
0000
0000
0000
0000
,
3002
0000
0000
0000
,
2003
0000
0000
0000
,
0000
0000
0000
0000
,
3000
0000
0000
0000
;
