#TITLE:Turtle Turtle Up;
#SUBTITLE:;
#ARTIST:Four Tet;
#TITLETRANSLIT:;
#SUBTITLETRANSLIT:;
#ARTISTTRANSLIT:;
#CREDIT:;
#BANNER:Turtleturtleup-bn.png;
#BACKGROUND:Turtle-Turtle-Up-bg.png;
#LYRICSPATH:;
#CDTITLE:!aptitle.png;
#MUSIC:08-four_tet-turtle_turtle_up-mpx.mp3;
#OFFSET:-0.276;
#SAMPLESTART:90.500;
#SAMPLELENGTH:12.000;
#SELECTABLE:YES;
#BPMS:0.000=152.477,4.000=151.228,8.000=147.692,12.000=144.060,15.000=209.780,16.000=152.480,20.000=151.240,24.000=147.700,28.000=144.060,31.000=215.800,32.000=152.480,36.000=151.240,40.000=152.220,48.000=152.480,52.000=151.240,56.000=152.220,64.000=152.480,68.000=151.240,72.000=152.200,80.000=152.480,84.000=151.240,88.000=152.200,96.000=152.480,100.000=151.240,104.000=152.200,112.000=152.480,116.000=151.240,120.000=152.220,128.000=152.480,132.000=152.000;
#STOPS:;
#BGCHANGES:;
// cache tags:
#FIRSTBEAT:0.000;
#LASTBEAT:299.750;
#SONGFILENAME:Songs/Community Keyboard Megapack - Volume 3/(AP) Turtle Turtle Up/Turtle.sm;
#HASMUSIC:1;
#HASBANNER:1;
#MUSICLENGTH:129.227;
// end cache tags

//---------------dance-single - ----------------
#NOTES:
     dance-single:
     :
     Challenge:
     11:
     0.828,1.000,0.689,0.843,0.724,551.000,89.000,109.000,0.000,24.000:  // measure 1
1000
0100
0010
0001
0010
0100
1000
0010
,  // measure 2
1000
0100
0010
0001
0010
0100
1000
0001
,  // measure 3
1000
0100
0010
0001
0010
0100
1000
0001
,  // measure 4
1000
0100
0010
0001
1000
0010
0002
0000
,  // measure 5
1003
0100
0010
0001
0010
0100
1000
0010
,  // measure 6
1000
0100
0010
0001
0010
0100
1000
0001
,  // measure 7
1000
0100
0010
0001
0010
0100
1000
0001
,  // measure 8
1000
0000
0000
0100
0000
0000
0010
0000
0000
0100
0001
0010
0000
0000
0000
0000
1000
0100
1000
0000
0000
0000
0000
0000
,  // measure 9
1001
0000
0000
0100
0000
0000
0010
0000
0000
0100
0000
0000
0012
0000
0000
0003
0100
0000
1000
0010
1000
0001
0010
0001
,  // measure 10
1000
0100
1000
0010
1100
0000
0001
0000
0000
0110
0000
0000
2002
0000
0000
0000
0000
0000
3003
0000
0000
0000
0000
0000
,  // measure 11
1001
0000
0000
0100
0000
0000
0010
0000
0000
0100
0000
0000
0012
0000
0000
0000
0000
0000
0003
0000
0000
0000
1000
0000
,  // measure 12
0010
0100
0010
1000
0100
1000
0002
0000
0000
0003
0000
0000
,  // measure 13
1001
0000
0000
0010
0000
0000
0100
0000
0000
0010
0000
0000
2001
0000
0000
3000
0100
0000
0010
0100
0010
1000
0100
1000
,  // measure 14
0001
0100
0001
1000
0110
0000
0001
0000
0000
1001
0000
0000
2020
0000
0000
0000
0000
0000
3030
0000
0000
0000
0000
0000
,  // measure 15
1001
0000
0000
0100
0000
0000
0010
0000
0000
0100
0000
0000
0012
0000
0000
0000
0000
0000
0003
0000
0000
0000
0010
0000
,  // measure 16
0100
0001
0100
0010
1000
0100
0022
0000
0000
0033
0000
0000
,  // measure 17
0101
0000
0000
0010
0000
0000
0100
0000
0000
0010
0000
0000
2001
0000
0000
3000
0100
0000
0010
0100
0010
1000
0100
0010
,  // measure 18
0001
0100
0001
0100
1010
0000
0100
0000
0000
1001
0000
0000
0202
0000
0000
0000
0000
0000
0303
0000
0000
0000
0000
0000
,  // measure 19
1010
0000
0000
0100
0000
0000
0010
0000
0000
0100
0000
0000
0012
0000
0000
0000
0000
0000
0003
0000
0000
0000
1000
0000
,  // measure 20
0010
0100
1000
0100
0001
1000
0022
0000
0000
0033
0000
0000
,  // measure 21
1001
0000
0000
0100
0000
0000
0010
0000
0000
0100
0000
0000
1002
0000
0000
0013
0000
0000
0100
0001
0100
0010
1000
0010
,  // measure 22
0100
0001
0010
0100
1001
0000
0010
0000
0000
0101
0000
0000
2002
0000
0000
0000
0000
0000
3003
0000
0000
0000
0000
0000
,  // measure 23
1001
0000
0000
0100
0000
0000
0010
0000
0000
0100
0000
0000
1002
0000
0000
0000
0000
0000
0003
0000
0000
0000
0100
0000
,  // measure 24
0010
1000
0010
0100
0001
0100
2002
0000
0000
3003
0000
0000
,  // measure 25
1000
0000
0010
0101
0000
0010
1100
0000
1000
0110
0000
0010
0101
0000
0001
0110
,  // measure 26
0000
1000
0110
0000
0010
0101
0000
0100
1010
0000
1000
0011
0000
0001
0110
0000
,  // measure 27
1001
0000
0000
0000
0020
0000
0030
0100
0001
0100
0000
0020
0000
0000
1030
0000
,  // measure 28
1001
0000
0000
0010
0001
0100
0010
1000
2000
0000
3020
0000
0030
0200
0000
0300
,  // measure 29
0002
0000
0003
2000
0000
3000
0010
0100
0002
0003
0100
0000
0010
0000
0100
0000
,  // measure 30
0001
0000
2000
0000
0000
0000
3000
0000
0020
0000
0030
0100
0000
0002
0000
0000
,  // measure 31
0003
0000
0000
0020
0000
0000
0000
0000
0030
0020
0000
0000
0000
0000
0030
0020
,  // measure 32
0000
0000
0000
0030
0000
0000
0100
0000
0000
0000
0000
0000
1000
0000
0000
0000
0000
0000
0200
0000
0000
0000
0000
0000
0302
0000
0000
0003
0000
0000
1000
0000
0000
0000
0000
0000
0000
0000
0100
0000
0000
0000
0010
0000
0000
0000
1000
0000
,  // measure 33
0000
0000
0010
0000
0000
0000
0100
0000
0000
0000
0010
0000
0000
0000
2000
0000
3000
0000
0000
0000
0002
0000
0000
0000
0000
0000
0000
0000
0000
0000
0203
0000
0000
0000
0000
0000
0000
0000
0000
0000
0000
0000
0300
0000
0000
0020
0000
0000
,  // measure 34
0000
0000
0000
0000
0030
2000
0000
0000
0002
0000
0003
0000
0002
0000
0000
0003
,  // measure 35
3020
0000
0230
0302
0020
0003
0002
0000
0003
0000
0032
0020
0003
0000
0000
0000
,  // measure 36
0002
0000
0033
0000
0020
0002
0000
0033
0000
0000
0000
0000
0200
0000
0000
0300
,  // measure 37
0200
0000
0000
0002
0000
0000
0000
0000
,  // measure 38
0000
0000
0000
0000
0000
0000
0000
0000
0000
0000
0000
0000
0320
0000
0000
0030
,  // measure 39
0000
0020
0033
0020
0002
0030
0023
0000
0002
0000
0003
0000
0000
0000
0030
0000
,  // measure 40
0202
0000
0000
0003
0000
0000
0000
0000
0000
0000
0000
0000
0300
0000
0000
0000
,  // measure 41
1000
0100
0010
0001
1000
0100
0010
0001
,  // measure 42
1000
0100
0010
0001
1000
0100
0010
0001
,  // measure 43
1000
0010
0000
0000
0000
0000
1000
0010
0000
0000
0000
0000
0100
0000
0000
0000
0000
0000
1000
0010
0000
0000
0000
0000
,  // measure 44
0100
0010
0000
0000
0000
0000
1000
0000
0000
0000
0000
0000
0100
0000
0000
0000
0000
0000
0000
0000
0000
0000
0000
0000
,  // measure 45
1001
0100
0010
0100
0010
0100
0010
0100
,  // measure 46
0010
0100
0010
0100
0022
0000
0033
0000
,  // measure 47
2002
0000
3200
0000
,  // measure 48
2323
0000
0101
0000
,  // measure 49
3131
0000
0000
0010
0000
0000
0100
0000
0010
0000
0100
0000
1001
0000
0000
0000
0010
0000
0100
0001
0100
0010
1000
0100
,  // measure 50
0010
0001
0100
0010
1001
0000
0000
0000
0000
1010
0000
0000
0022
0000
0000
0000
0000
0000
0033
0000
0000
0000
0000
0000
,  // measure 51
2002
0000
3210
0000
,  // measure 52
2323
0000
0101
0000
,  // measure 53
3131
0000
0000
0010
0000
0000
0100
0000
0010
0000
0100
0000
1001
0000
0000
0000
0010
0000
0100
0001
0100
0010
1000
0100
,  // measure 54
0010
0001
0100
0010
1001
0000
0000
0000
0000
1010
0000
0000
0000
0000
0000
0000
0000
0000
0000
0000
0000
0000
0000
0000
,  // measure 55
1000
0100
0000
0000
0010
0000
1000
0100
0000
0000
0010
0000
2002
0000
0000
3003
0010
0000
0001
0000
0100
0000
0010
0000
,  // measure 56
1000
0100
0010
0001
0100
1000
0100
0001
1000
0100
0010
1000
,  // measure 57
0001
0100
0110
0100
0001
0100
0110
0100
,  // measure 58
0001
0100
0110
0100
0001
0100
0110
0100
,  // measure 59
1001
1001
0110
0001
1001
1001
0110
0001
,  // measure 60
1001
1001
0110
0001
2020
0000
3030
0000
,  // measure 61
2002
0000
3200
0000
,  // measure 62
2323
0000
0100
0000
0000
0000
0100
3030
,  // measure 63
1000
0010
0000
0000
0000
0000
1000
0010
0000
0000
0000
0000
0100
0000
0000
0000
0000
0000
1000
0010
0000
0000
0000
0000
,  // measure 64
0100
0001
0000
0000
0000
0000
0100
0001
0000
0000
0000
0000
1100
0000
0000
0000
0000
0000
0010
0000
0000
0000
0000
0000
,  // measure 65
2002
0000
3200
0000
,  // measure 66
2323
0000
0100
0000
0000
0000
0100
3030
,  // measure 67
1000
0000
0000
0100
0000
0000
0010
0000
0001
0000
0010
0000
0001
0000
0000
0100
0000
0000
0010
0000
1000
0000
0010
0000
1000
0000
0000
0001
0000
0000
0100
0000
0010
0000
0100
0000
0010
0000
0000
1000
0000
0000
0100
0000
0010
0000
0001
0000
,  // measure 68
1000
0000
0000
0010
0000
0000
0100
0000
0001
0000
0010
0000
0001
0000
0000
1000
0000
0000
0010
0000
0100
0000
0001
0000
0100
0000
0000
0010
0000
0000
1000
0000
0100
0000
1000
0000
0100
0000
0000
0010
0000
0000
0001
0000
0100
0000
0010
0000
,  // measure 69
2002
0000
3200
0000
,  // measure 70
2323
0000
0100
0000
0000
0000
0100
3030
,  // measure 71
1000
0000
0000
0100
0000
0000
0010
0000
0001
0000
0010
0000
0001
0000
0000
0100
0000
0000
0010
0000
1000
0000
0010
0000
1000
0000
0000
0001
0000
0000
0100
0000
0010
0000
0100
0000
0010
0000
0000
1000
0000
0000
0100
0000
0010
0000
0001
0000
,  // measure 72
1000
0000
0000
0010
0000
0000
0100
0000
0001
0000
0010
0000
0001
0000
0000
1000
0000
0000
0010
0000
0100
0000
0001
0000
0100
0000
0000
0010
0000
0000
1000
0000
0100
0000
1000
0000
0100
0000
0000
0010
0000
0000
0001
0000
0100
0000
0010
0000
,  // measure 73
2002
0000
3200
0000
,  // measure 74
2323
0000
0000
0000
0000
0000
0000
0000
0000
0000
0000
0000
0000
0000
0000
0000
0000
0000
0100
0000
0000
0000
0000
0000
3030
0000
0000
0000
0000
0000
0100
0000
0000
0000
0000
0000
1000
0000
0000
0100
0000
0000
0010
0000
0001
0000
0010
0000
,  // measure 75
2000
0000
3010
0000
0110
0000
0011
0000
1100
0000
0200
0300
0000
0000
0020
0030
;
