#TITLE:Love Paradise;
#SUBTITLE:W.L.O. Sekai Renai Kikou OP theme;
#ARTIST:Katakiri Retka;
#TITLETRANSLIT:;
#SUBTITLETRANSLIT:;
#ARTISTTRANSLIT:;
#CREDIT:;
#BANNER:Love Paradise.png;
#BACKGROUND:Love Paradise2.jpg;
#LYRICSPATH:;
#CDTITLE:cdtitle.png;
#MUSIC:Love Paradise.mp3;
#OFFSET:1.110;
#SAMPLESTART:73.500;
#SAMPLELENGTH:21.020;
#SELECTABLE:YES;
#BPMS:0.000=166.000;
#STOPS:;
#BGCHANGES:3.125=Love Paradise.avi=1.000=1=0=1,
99999=-nosongbg-=1.000=0=0=0 // don't automatically add -songbackground-
;
// cache tags:
#FIRSTBEAT:15.000;
#LASTBEAT:323.500;
#SONGFILENAME:Songs/alice 4th complete step/Love Paradise/Love Paradise.sm;
#HASMUSIC:1;
#HASBANNER:1;
#MUSICLENGTH:117.925;
// end cache tags

//---------------dance-single - ----------------
#NOTES:
     dance-single:
     :
     Hard:
     8:
     0.632,0.728,0.449,0.237,0.051,441.000,53.000,28.000,0.000,0.000:
0000
0000
0000
0000
,
0000
0000
0000
0000
,
0000
0000
0000
0000
,
0000
0000
0000
0110
,
1001
0100
0010
0100
1000
0100
0010
0001
,
0100
0000
0000
0000
,
0001
0100
0001
1000
0001
0010
0100
1000
,
0001
0000
0000
0000
,
1000
0010
0100
0010
1000
0001
0010
0001
,
0100
0010
1000
0001
1000
0100
1000
0000
,
0001
0100
0010
0100
0001
1000
0100
0010
,
0000
0000
0000
0000
,
1100
0000
0101
0000
1000
0100
1000
0010
,
1000
0001
1000
0100
1000
0010
0100
0000
,
0101
0000
1100
0000
0001
0100
0001
0010
,
0001
1000
0001
0010
0001
0100
0010
0000
,
0110
0000
1001
0000
1000
0100
1000
0010
,
0100
1000
0100
0001
0020
0000
0130
0000
,
1001
0000
1000
0000
0101
0000
1000
0100
,
0000
0100
1000
0010
0100
0001
0001
0000
,
0101
0000
0011
0000
0100
1000
0100
0010
,
0100
1000
0001
0100
1000
0100
0010
0000
,
1010
0000
1100
0000
0010
0001
0010
0100
,
0010
0001
0100
1000
0001
0010
0100
0001
,
1001
0000
0220
0000
0000
0330
1000
0001
,
0000
0001
0100
0001
1000
0000
0100
0000
,
1100
0000
0010
0000
1001
0000
0001
0001
,
0000
1000
0010
1000
0010
0000
0100
0000
,
0001
0000
0101
0000
1000
0000
1100
0001
,
0000
0001
1000
0000
0020
0000
0130
0000
,
1000
0000
1100
0000
0001
0000
0101
1000
,
0000
1000
0001
0000
0200
0000
0310
0100
,
0001
0000
0011
0000
1000
0000
1100
0010
,
0000
0010
0100
0000
2001
0000
3100
1000
,
0010
0000
1010
0000
0100
0000
0101
0010
,
0000
0010
0100
0000
1001
0001
0100
0000
,
0010
0000
0000
0000
1000
0000
0000
0000
0001
0000
0000
0001
0100
0000
0000
0100
,
0001
0000
0000
0000
1000
0000
0000
0000
0010
0000
0000
1000
0001
0000
0100
0000
,
0001
0000
0000
0000
1000
0000
0000
0000
0001
0000
0000
1000
0100
0000
0000
0100
,
1000
0000
0000
0000
0001
0000
0000
0000
0100
0000
0000
0001
1000
0000
0010
0000
,
0100
0000
0000
0000
0100
0000
0000
0000
0001
0000
0000
0001
1000
0000
0000
1000
,
0100
0000
0000
0000
1000
0000
0000
0000
0001
0000
0000
0100
0001
0000
0010
0000
,
0001
0000
0000
0000
0100
0000
0000
0000
0010
0000
0000
0010
1000
0000
0000
1000
,
0100
0000
0000
0000
1000
0000
0000
0001
0100
0000
0001
0000
1000
0000
0001
0000
,
0010
0100
0010
0100
1000
0010
0100
0001
,
0100
0010
0100
0010
1000
0001
0010
0001
,
1000
0010
0100
0010
1000
0001
0010
0001
,
0000
0101
0000
1000
0000
0010
1000
0100
,
0000
0100
1000
0010
0100
0001
0100
0010
,
1000
0001
0100
0001
0010
0001
1000
0100
,
0000
1001
0000
0001
0000
0101
0000
1000
,
0000
1000
0000
0001
0101
0000
0000
0000
,
0101
0000
1100
0000
0001
0100
0001
0010
,
0001
1000
0001
0100
0001
0010
0100
1000
,
1100
0000
0101
0000
1000
0100
1000
0010
,
1000
0001
0100
0010
1000
0010
0100
0001
,
0110
0000
1001
0000
0001
0100
0001
0010
,
0100
0001
0100
1000
0020
0000
0130
0000
,
1001
0000
0001
0000
1100
0000
0001
0100
,
0000
0100
0001
0010
0100
1000
1000
0010
,
0110
0000
1001
0000
0100
0001
0100
0010
,
0100
0001
1000
0100
0001
0100
0010
0001
,
0101
0000
1010
0000
0010
1000
0010
0100
,
0010
1000
0100
0001
1000
0010
0100
1000
,
1001
0000
0220
0000
0000
0330
0001
1000
,
0000
1000
0100
1000
0001
0000
0100
0000
,
0101
0000
1100
0000
0101
0000
1001
0110
,
0000
0110
1000
0001
0100
0000
1001
0000
,
0000
0000
0000
0000
0000
0000
0000
0000
0000
0000
0000
0000
0000
0000
0000
0000
0200
0300
0000
0000
0000
0000
0000
0000
0000
0000
0000
0000
0000
0000
0000
0000
0000
0000
0000
0000
0000
0000
0000
0000
0000
0000
0000
0000
0000
0000
0000
0000
0000
0000
0000
0000
0000
0000
0000
0000
0000
0000
0000
0000
0000
0000
0000
0000
,
1000
0000
0000
0000
0000
0000
0000
0000
0100
0000
0000
0000
0000
0000
0000
0000
0020
0030
0000
0000
0000
0000
0000
0000
0001
0000
0000
0000
0000
0000
0000
0000
1000
0000
0000
0000
0000
0000
0000
0000
0100
0000
0000
0000
0000
0000
0000
0000
0020
0030
0000
0000
0000
0000
0000
0000
0100
0000
0000
0000
0000
0000
0000
0000
,
1000
0000
0000
0000
0000
0000
0000
0000
0010
0000
0000
0000
0000
0000
0000
0000
0002
0003
0000
0000
0000
0000
0000
0000
0010
0000
0000
0000
0000
0000
0000
0000
0100
0000
0000
0000
0000
0000
0000
0000
0001
0000
0000
0000
0000
0000
0000
0000
2000
3000
0000
0000
0000
0000
0000
0000
0001
0000
0000
0000
0000
0000
0000
0000
,
0100
0000
0000
0000
0000
0000
0000
0000
0010
0000
0000
0000
0000
0000
0000
0000
2000
3000
0000
0000
0000
0000
0000
0000
0100
0000
0000
0000
0000
0000
0000
0000
1000
0000
0000
0000
0000
0000
0000
0000
0010
0000
0000
0000
0000
0000
0000
0000
0002
0003
0000
0000
0000
0000
0000
0000
0010
0000
0000
0000
0000
0000
0000
0000
,
0100
0000
0000
0000
0000
0000
0000
0000
0001
0000
0000
0000
0000
0000
0000
0000
0020
0030
0000
0000
0000
0000
0000
0000
0001
0000
0000
0000
0000
0000
0000
0000
1000
0000
0000
0000
0000
0000
0000
0000
0100
0000
0000
0000
0000
0000
0000
0000
0002
0003
0000
0000
0000
0000
0000
0000
0200
0300
0000
0000
0000
0000
0000
0000
,
1000
0000
0000
0000
0000
0000
0000
0000
0010
0000
0000
0000
0000
0000
0000
0000
0200
0300
0000
0000
0000
0000
0000
0000
0010
0000
0000
0000
0000
0000
0000
0000
0001
0000
0000
0000
0000
0000
0000
0000
0010
0000
0000
0000
0000
0000
0000
0000
2000
3000
0000
0000
0000
0000
0000
0000
0001
0000
0000
0000
0000
0000
0000
0000
,
0100
0000
0000
0000
0000
0000
0000
0000
0010
0000
0000
0000
0000
0000
0000
0000
2000
3000
0000
0000
0000
0000
0000
0000
0100
0000
0000
0000
0000
0000
0000
0000
1000
0000
0000
0000
0000
0000
0000
0000
0010
0000
0000
0000
0000
0000
0000
0000
0200
0300
0000
0000
0000
0000
0000
0000
0001
0000
0000
0000
0000
0000
0000
0000
,
1000
0000
0000
0000
0000
0000
0000
0000
0100
0000
0000
0000
0000
0000
0000
0000
0002
0003
0000
0000
0000
0000
0000
0000
0100
0000
0000
0000
0000
0000
0000
0000
1000
0000
0000
0000
0000
0000
0000
0000
0001
0000
0000
0000
0000
0000
0000
0000
0200
0300
0000
0000
0000
0000
0000
0000
1000
0000
0000
0000
0000
0000
0000
0000
,
0100
0000
0000
0000
0000
0000
0000
0000
0001
0000
0000
0000
0000
0000
0000
0000
0020
0030
0000
0000
0000
0000
0000
0000
0100
0000
0000
0000
0000
0000
0000
0000
1000
0000
0000
0000
0000
0000
0000
0000
0001
0000
0000
0000
0000
0000
0000
0000
0200
0300
0000
0000
0000
0000
0000
0000
0010
0000
0000
0000
0000
0000
0000
0000
,
2000
0000
0000
0000
,
3000
0000
0000
0000
;

//---------------dance-single - ----------------
#NOTES:
     dance-single:
     :
     Challenge:
     14:
     1.000,1.000,1.000,0.500,1.000,760.000,229.000,59.000,0.000,50.000:
0000
0000
0000
0000
,
0000
0000
0000
0000
,
0000
0000
0000
0000
,
0000
0000
0000
2100
,
3001
0010
0001
0100
0010
1000
0010
0100
0001
0010
1000
0010
0001
0010
1000
0010
,
0200
0000
0000
0000
0300
0000
0000
0010
,
1000
0100
1000
0010
1000
0100
0001
0010
1000
0100
0001
0100
1000
0010
0100
0001
,
0020
0000
0000
0000
0200
0000
0330
1001
,
1000
0000
0100
0000
0000
0000
1000
0000
0010
0000
0000
0000
0100
0000
0001
0000
0000
0000
1000
0000
0010
0000
0001
0000
0200
0000
0000
0300
0000
0000
0020
0000
0000
0030
0000
0000
1000
0000
0001
0000
0100
0000
0010
0000
0000
0000
0000
0000
,
1000
0000
0000
0100
0000
0000
1000
0000
0000
0001
0000
0000
0100
0000
0000
0010
0000
0000
1000
0000
0001
0000
0100
0000
0020
0000
0000
0000
0000
0000
1000
0000
0000
0000
0000
0000
1030
0000
0000
0000
0000
0000
0101
0000
0000
0000
0000
0000
,
1000
0000
0100
0000
1000
0000
0001
0000
0010
0000
0001
0000
0100
0000
0010
0000
1000
0000
0100
0000
0010
0000
0001
0000
1000
0000
0000
0100
0000
0000
1000
0000
0000
0010
0000
0000
0100
0000
0000
0001
0000
0000
1000
0000
0000
0010
0000
0000
,
0000
0000
0000
0000
0000
0000
0000
0000
0000
0000
1000
0010
0001
0000
0001
0100
,
1010
0000
0001
1100
0001
0000
1000
0101
1000
0000
0001
1100
0001
0000
1000
0101
,
1000
0000
0001
1100
0001
0000
1000
0101
1000
0000
0110
1000
0001
0000
1001
0010
,
0100
0000
0001
1010
0001
0000
1000
0011
1000
0000
0001
1010
0001
0000
1000
0011
,
1000
0000
0001
1010
0001
0000
1000
0011
1000
0000
0110
0000
1001
0000
1010
0001
,
1100
0000
0001
0110
0001
0000
1000
0011
0100
0000
0001
0110
0001
0000
1000
0011
,
0100
0000
0001
0110
0001
0000
1000
0011
0100
0000
0001
0110
0001
0000
1000
0011
,
0200
0000
0001
0010
0001
0000
0010
1300
0021
0000
0100
1000
0100
0000
0001
0030
,
1100
0000
0001
0000
2010
0000
0000
3100
0011
0000
0100
1000
0110
0000
0001
0100
,
1010
0000
0001
1100
0010
0000
1000
0110
1000
0000
0001
1100
0010
0000
1000
0110
,
1000
0000
0001
1100
0010
0000
1000
0110
1000
0000
1001
0010
0100
0000
1010
0100
,
0001
0000
0010
1100
0010
0000
1000
0101
1000
0000
0010
1100
0010
0000
1000
0101
,
1000
0000
0010
1100
0010
0000
1000
0101
1000
0000
0011
0000
0110
0000
1100
0000
,
1002
0000
0010
0103
1002
0000
0100
0010
0103
0000
0010
1000
0101
0000
0001
0010
,
1100
0000
0010
1000
0101
0000
0001
0010
1100
0000
0010
1000
0101
0000
1010
0000
,
1001
0000
0100
0000
1100
0000
0010
0000
0101
0000
1000
0010
0110
0000
1001
0000
,
0000
0000
0000
1001
0000
0000
1111
0000
0000
0110
0000
0000
1001
0000
0000
0000
0000
0000
0110
0000
0000
1000
0100
0010
,
0002
0000
0000
0000
2103
0000
0000
3000
0120
0000
0000
0030
2100
0000
3021
0000
,
0000
1030
0102
0000
0223
0000
0332
0000
,
2013
0000
0000
0000
3012
0000
0000
0003
0210
0000
0000
0300
0012
0000
1203
0000
,
0000
0301
2010
0000
3220
0000
0332
2003
,
3020
0000
0132
0000
2103
0000
3012
1203
,
0000
0310
2001
0000
3220
0000
2330
3002
,
0213
0000
1302
0000
1023
0000
0132
2013
,
0000
0000
3100
0000
0021
0000
0000
0100
1030
0000
0110
0000
2001
0000
0110
0000
,
0001
0000
0000
3000
0101
0000
0000
0000
1101
0000
0000
0000
1001
0000
0010
0000
,
1000
0000
0000
0000
1010
0000
0000
0000
1011
0000
0000
0100
1001
0000
0010
0000
,
1000
0000
1100
0000
1101
0000
1010
0100
,
1001
0000
0000
0000
0011
0000
0000
0000
1011
0000
0000
0100
1001
0000
0110
0000
,
1000
0000
0000
0000
1001
0000
0000
0000
0101
0000
0000
0010
1100
0000
0001
0000
,
0010
0000
0000
0000
1001
0000
0000
0000
1010
0000
0000
0100
0011
0000
1000
0000
,
0100
0000
0000
0000
0110
0000
0000
0000
1001
0000
0000
0010
1100
0000
0001
0000
,
0110
0000
0000
0000
1001
0000
0000
0010
1100
0000
1000
0000
0102
0000
1003
0000
,
0110
0000
0001
0010
1000
0000
0001
0010
0100
0000
0001
0010
1000
0000
0001
0010
,
0100
0000
0001
0010
1000
0000
0001
0010
0100
0000
0001
0010
1000
0000
1100
0000
,
1001
0000
0100
1000
0010
0000
0100
1000
0001
0000
0100
1000
0010
0000
0100
1000
,
0001
0000
0100
1000
0010
0000
0100
1000
0001
0000
0100
1000
0010
0000
0110
0000
,
1001
0000
0010
1000
0100
0000
0100
0001
0010
0000
0010
1000
0100
0000
0100
0001
,
0010
0000
0010
0100
1000
0000
0100
0010
0001
0000
0010
0100
1000
0000
1010
0000
,
0101
0000
1000
0000
1010
0000
0100
0000
0110
0000
0000
0010
1001
0000
0110
0000
,
0000
0000
0110
0000
0000
0000
1010
0000
1001
0000
0010
0100
0001
0000
0001
0010
,
1100
0000
0001
0110
0001
0000
1000
0101
1000
0000
0001
0110
0001
0000
1000
0101
,
1000
0000
0001
0110
0001
0000
1000
0101
1000
0000
0110
1000
0001
0000
1001
0010
,
0100
0000
0001
1010
0001
0000
1000
0011
1000
0000
0001
1010
0001
0000
1000
0011
,
1000
0000
0001
1010
0001
0000
1000
0011
1000
0000
0101
0000
1010
0000
1100
0001
,
0110
0000
0001
1100
0001
0000
1000
0011
0100
0000
0001
1100
0001
0000
1000
0011
,
0100
0000
0001
1100
0001
0000
1000
0011
0100
0000
0001
1100
0001
0000
1000
0011
,
0200
0000
0010
0001
1000
0000
0001
1300
0021
0000
0100
1000
0001
0000
1000
0031
,
1100
0000
0001
0000
2010
0000
0000
3010
1001
0000
0100
1000
0011
0000
0001
0010
,
1100
0000
1000
0011
0100
0000
0001
1100
0010
0000
1000
0011
0100
0000
0001
1100
,
0010
0000
1000
0011
0100
0000
0001
1100
0010
0000
1001
0100
0010
0000
0110
1000
,
0001
0000
0100
0011
0100
0000
0010
1100
0001
0000
0100
0011
0100
0000
0001
1100
,
0010
0000
0100
0011
0100
0000
0010
1100
0001
0000
1100
0000
0101
0000
1010
0000
,
2001
0000
0010
3100
1002
0000
0100
1000
0013
0000
0010
1000
0101
0000
0001
0010
,
1100
0000
0100
1000
0011
0000
0010
0100
1001
0000
0100
0001
1010
0000
0101
0000
,
1001
0000
0010
0000
0011
0000
1000
0000
1110
0000
0001
1000
0110
0000
1001
0000
,
0000
1001
1111
0110
1001
0000
1111
0000
,
0000
0000
0210
0000
0000
0300
0000
0000
,
1000
0100
1000
0010
0101
0010
1000
0001
0100
0010
0100
0001
1100
0010
1000
0001
,
0100
1000
0010
0001
0110
0001
1000
0010
0100
0001
0100
1000
0011
0100
0001
0010
,
1000
0100
1000
0010
0101
0010
1000
0001
0100
0010
0100
0001
1010
0001
0100
0010
,
1000
0100
1000
0010
1100
0001
0100
0010
1000
0001
0010
1000
0011
0100
0001
0010
,
1000
0100
1000
0010
0101
0010
1000
0001
0100
0010
0100
0001
1010
0100
0001
1000
,
0010
0001
0100
0001
1010
0001
0100
0010
1000
0100
0001
0100
1010
0100
0001
1000
,
0010
0001
0010
0001
1100
0010
0100
0001
1000
0010
1000
0010
0101
1000
0100
0010
,
1000
0001
0020
0000
1100
0000
0001
0100
1031
0000
0110
0000
1002
0000
0100
0000
,
0223
0000
0000
0000
0000
0000
0000
0000
1000
0000
0000
1000
0000
0000
1000
0000
,
0000
0000
1000
0000
1000
0000
0000
0000
0001
0000
0000
0001
0000
0000
0001
0000
,
0000
0000
0001
0000
1000
0000
0000
0000
0001
0000
0000
0001
0000
0000
0001
0000
,
0000
0000
1000
0000
0001
0000
0000
0000
1000
0000
0000
1000
0000
0000
1331
0000
;

//---------------dance-single - ----------------
#NOTES:
     dance-single:
     :
     Medium:
     6:
     0.491,0.522,0.509,0.000,0.000,345.000,60.000,0.000,0.000,0.000:
0000
0000
0000
0000
,
0000
0000
0000
0000
,
0000
0000
0000
0000
,
0000
0000
0000
0100
,
1001
0000
0000
0000
,
0000
0000
0000
0000
0000
0000
0000
0001
,
1000
0000
0000
0000
,
0000
0000
0000
0000
0000
0000
0000
1000
,
0101
0000
0000
0000
,
0000
0000
0000
0000
0000
0010
0010
0100
,
0001
0000
1000
0000
0010
0000
0100
1001
,
0000
0000
0000
0000
,
1100
0101
1000
0001
,
1000
0100
1000
0001
0100
0001
1000
0000
,
0101
1100
0001
1000
,
0001
0100
0001
1000
0100
1000
0001
0000
,
0110
0000
1001
0000
0010
0100
1000
0000
,
0010
0100
0001
1000
0100
0000
0010
0000
,
1001
0000
0001
0000
0101
0000
0001
0010
,
0000
0010
0100
1000
0100
0000
0010
0000
,
0101
1100
0001
1000
,
0001
0010
0001
1000
0010
1000
0001
0000
,
1100
0101
1000
0001
,
1000
0010
1000
0001
0010
0001
1000
0000
,
1001
0000
0110
0000
0010
1000
0001
0000
,
0010
0100
1000
0010
0001
0000
0010
0000
,
1001
0000
0100
0000
1001
0000
0100
0010
,
0000
0010
1000
0001
0100
0000
0001
0000
,
1000
0001
1000
0010
,
1000
0001
1000
0110
,
0001
1000
0001
0100
,
0001
0000
1000
0000
0001
0000
0100
0010
,
1000
0001
1000
0100
,
1000
0000
0001
0000
1000
0000
0010
0100
,
0001
0000
1000
0000
0001
0000
0100
0010
,
0000
1000
0001
0000
0100
0000
0100
0010
,
1000
0001
1000
0001
,
1000
0000
0101
0000
1000
0000
0010
0100
,
0001
1000
0001
1000
,
0001
0000
1100
0000
0001
0000
0010
0100
,
1000
0001
0100
0010
,
1000
0000
0011
0000
0100
0000
0010
1000
,
0001
0100
0010
1000
,
0001
0000
1001
0000
0100
0010
0001
0100
,
0010
1000
0010
1000
0100
0000
0010
0100
,
0010
0001
1000
0001
0100
0000
0100
0100
,
0001
1000
0100
1000
0010
0000
0010
0100
,
0000
1001
0000
0100
0000
1001
0000
0000
,
1000
0100
1000
0100
0010
0000
0001
0100
,
0010
1000
0100
1000
0010
0000
1000
0001
,
0100
0000
0001
0000
1000
0000
0010
0100
,
0000
0110
0000
0001
1000
0000
0000
0000
,
1100
0000
0101
0000
1000
0100
0001
0000
,
1000
0100
1000
0001
0100
0001
1000
0000
,
0101
0000
1100
0000
0001
0100
1000
0000
,
0001
0100
0001
1000
0100
1000
0001
0000
,
0110
0000
1001
0000
0010
0100
0010
0000
,
0001
1000
0100
0010
0001
0000
0100
0000
,
1001
0000
0001
0000
1100
0000
1000
0010
,
0000
0010
0100
0001
1000
0000
0010
0000
,
0101
0000
1100
0000
0001
0100
1000
0000
,
0001
0100
0001
1000
0010
1000
0001
0000
,
1100
0000
0101
0000
1000
0100
0001
0000
,
1000
0010
1000
0001
0010
0001
1000
0000
,
1001
0000
0110
0000
0010
1000
0001
0000
,
0100
1000
0100
0001
0010
0000
0100
0000
,
1001
0000
0001
0000
0101
0000
0010
0100
,
0000
0100
1000
0001
0100
0000
1001
0000
,
0000
0000
0000
0000
,
1000
0110
0001
0110
,
1000
0110
0001
0110
,
1000
0101
0001
1100
,
1000
0000
0101
0000
0001
0000
1100
1000
,
0010
0101
0010
1100
,
0010
0101
0010
1100
,
0010
1001
0100
1001
,
1000
0000
0110
0000
0001
0010
0100
1000
,
1100
0000
0000
0000
;

//---------------dance-single - ----------------
#NOTES:
     dance-single:
     :
     Easy:
     2:
     0.138,0.198,0.017,0.034,0.000,108.000,2.000,4.000,0.000,0.000:
0000
0000
0000
0000
,
0000
0000
0000
0000
,
0000
0000
0000
0000
,
0000
0000
0000
0000
,
1001
0000
0000
0000
,
0000
0000
0000
0000
,
0010
0000
0000
0000
,
0000
0000
0000
0000
,
0010
0000
0000
0000
,
0010
0000
0000
0000
,
0200
0000
0000
0000
0000
0000
0000
0300
,
0000
0000
0000
0000
,
1000
1000
0000
0000
,
0000
0000
0000
0000
,
0001
0001
0000
0000
,
0000
0000
0000
0000
,
1000
1000
0000
0000
,
0000
0000
0000
0000
,
1000
0000
0001
0000
,
0100
0000
0010
0000
,
0001
0001
0000
0000
,
0000
0000
0000
0000
,
1000
1000
0000
0000
,
0000
0000
0000
0000
,
0010
0100
0000
0000
,
0000
0000
0000
0000
,
0001
0000
1000
0000
,
0000
0010
0100
0010
,
0000
1000
0000
1000
,
0000
1000
0000
1000
,
0000
0001
0000
0001
,
0000
0001
0000
0002
,
0003
0100
0000
0010
,
0000
0100
0000
0010
,
0000
1000
0000
0001
,
0000
1000
0000
0002
,
0003
0000
0000
0000
,
0000
0000
0000
0000
,
0000
0000
0000
0000
,
0000
0000
0000
0000
,
1000
0000
0001
0000
,
0100
0000
0001
0000
,
0001
0000
1000
0000
,
0010
0000
0100
0000
,
0001
0001
0010
0000
,
0100
0000
0100
0000
,
1000
1000
0010
0000
,
0100
0000
0100
0000
,
0001
1000
0100
0000
,
1000
0000
0010
0000
,
1000
0001
1000
0000
,
0100
0000
0000
0000
,
1000
1000
0000
0000
,
0000
0000
0000
0000
,
0001
0001
0000
0000
,
0000
0000
0000
0000
,
0010
0010
0000
0000
,
0000
0000
0000
0000
,
1000
0000
0100
0000
,
0001
0000
0100
0000
,
0001
0001
0000
0000
,
0000
0000
0000
0000
,
1000
1000
0000
0000
,
0000
0000
0000
0000
,
0100
0010
0000
0000
,
0000
0000
0000
0000
,
1000
0000
0001
0000
,
0100
0000
0100
0010
,
0000
1001
0000
0000
,
0000
1000
0000
0001
,
0000
1000
0000
0001
,
0000
0100
0000
0010
,
0000
1000
0000
0001
,
0000
0010
0000
0100
,
0000
0010
0000
0100
,
0000
0001
0000
1000
,
0000
0001
0000
0100
,
0200
0000
0000
0000
,
0300
0000
0000
0000
;
