#TITLE:Suppuration-core-;
#SUBTITLE:Kannazuki no Miko O.S.T;
#ARTIST:KOTOKO;
#TITLETRANSLIT:;
#SUBTITLETRANSLIT:;
#ARTISTTRANSLIT:;
#CREDIT:ALICE_;
#BANNER:Suppuration-core-.png;
#BACKGROUND:Suppuration-core-.jpg;
#LYRICSPATH:;
#CDTITLE:cdtitle.png;
#MUSIC:Suppuration-core-.mp3;
#OFFSET:-0.030;
#SAMPLESTART:60.820;
#SAMPLELENGTH:25.260;
#SELECTABLE:YES;
#BPMS:0.000=135.000;
#STOPS:;
#BGCHANGES:;
// cache tags:
#FIRSTBEAT:14.250;
#LASTBEAT:743.875;
#SONGFILENAME:Songs/alice 4th complete step/Suppuration-core-/Suppuration-core-.sm;
#HASMUSIC:1;
#HASBANNER:1;
#MUSICLENGTH:337.324;
// end cache tags

//---------------dance-single - ----------------
#NOTES:
     dance-single:
     :
     Hard:
     15:
     0.966,1.000,0.376,0.216,1.000,2079.000,127.000,73.000,122.000,12.000:
0000
0000
0000
0000
,
0000
0000
0000
0000
,
0000
0000
0000
0000
,
0000
0000
0000
0000
0000
0000
0000
0000
0000
1001
0000
1001
0000
1001
0000
0000
,
0MM0
0000
M000
0000
000M
0000
0000
0000
0M00
00M0
0M00
00M0
0M00
00M0
0M00
0000
1000
0000
0100
0000
0010
0000
0001
0000
0010
0000
0100
0000
1000
0000
0000
0000
,
M00M
0000
00M0
0000
0M00
0000
0000
0000
000M
M000
000M
M000
000M
M000
000M
0000
0100
0000
0010
0000
1000
0000
0001
0000
0100
0000
0010
0000
1000
0000
0000
0000
,
0M0M
0000
M000
0000
00M0
0000
0000
0000
0M00
000M
0M00
000M
0M00
000M
0M00
0000
0001
0000
0010
0000
0100
0000
1000
0000
0100
0000
0010
0000
0001
0000
0000
0000
,
M00M
0000
0M00
0000
00M0
0000
0000
0000
M000
000M
M000
000M
M000
000M
M000
0000
0010
0000
0100
0000
0001
0000
1000
0000
0010
0000
0100
0000
0002
0000
0003
0000
,
1000
0100
0010
0000
1000
0100
0001
0000
0100
0010
0001
0000
1000
0010
0001
0000
,
0100
0010
0001
0000
1000
0100
0010
0000
1000
0110
0000
0110
0000
0110
1001
0000
,
0100
0010
1000
0010
0100
0010
1000
0010
,
0100
0001
1000
0001
0100
0001
1000
0001
,
0010
1000
0010
0001
0010
1000
0010
0001
,
0100
1000
0100
0010
0100
1000
0100
0001
,
1000
0010
1000
0010
0100
0010
0100
0010
,
0001
0100
0001
0100
0010
0100
0010
0100
,
1000
0001
0100
0010
1000
0001
0100
0010
,
1000
0001
1000
0001
0000
0100
0010
1000
0001
0100
0010
0000
0000
0000
0101
0000
,
1001
1000
1000
1000
,
1000
1000
1000
1000
,
1000
1000
1000
1000
,
1000
0000
0000
0000
1000
0000
0000
0000
1000
0000
1000
0000
1000
0000
1000
1000
,
1000
0001
1000
0001
1000
0010
1000
0010
,
1000
0001
1000
0001
1000
0010
1000
0010
,
0001
0100
0001
0100
0001
1000
0001
1000
,
0M00
00M0
0M00
00M0
0M00
00M0
0M00
00M0
0M00
000M
0M00
000M
0M00
000M
0M00
000M
M000
00M0
M000
00M0
M000
00M0
M000
0000
0000
0000
0000
0000
0110
0000
0000
0000
,
1001
0000
0010
0000
0001
0100
1000
0100
0010
0000
1000
0100
0001
0100
0010
0000
,
1001
0000
0010
0000
1000
0100
0001
0100
0010
0000
1000
0001
0100
0010
1000
0000
,
0101
0000
1000
0000
0001
0010
0001
0100
0010
0000
1000
0100
0010
0100
1000
0000
,
1010
0000
0001
0000
0100
0010
1000
0010
0100
0000
0101
0000
1010
0001
0100
0001
,
0010
1000
0100
1000
0010
1000
0100
1000
0010
1000
0100
1000
0010
1000
0100
1000
,
0001
0010
0100
1000
0001
0010
0100
1000
0001
0010
0100
1000
0001
0010
0100
1000
,
0001
0010
0001
0100
1000
0010
0001
1000
0001
0010
0001
0100
1000
0010
0001
1000
,
0M00
00M0
0M00
00M0
0M00
00M0
0M00
00M0
0M00
000M
0M00
000M
0M00
000M
0M00
000M
M000
000M
M000
000M
M000
000M
M000
0000
0000
0000
0000
0000
1001
0000
0000
0000
,
0110
0000
0001
0000
1000
1000
0000
0100
0100
0000
0001
0001
0000
0010
0010
0000
,
0110
0000
1000
0000
0001
0001
0000
0100
0100
0000
1000
1000
0000
0010
0010
0000
,
1001
0000
0100
0000
0001
0001
0000
1000
1000
0000
0010
0010
0000
0100
0100
0000
,
1001
0000
0011
0000
0100
0100
0000
1000
0001
0100
0001
1000
0010
0100
0001
0001
,
1001
0000
0100
0000
0010
0000
1000
0000
0010
0000
0001
0000
0100
0000
0020
2000
,
0200
3331
1000
0100
0010
0001
0100
0010
,
0001
0000
1000
0000
0001
0100
0001
1000
0010
0000
0100
0001
0100
1000
0110
0000
,
1000
0001
0100
0000
1001
0010
0100
1000
0001
0010
0001
0010
0001
0100
0001
0000
,
0110
0000
1000
0000
0001
0001
0000
1000
1000
0000
0010
0010
0000
0100
0100
0000
,
0110
0000
0001
0000
1000
1000
0000
0010
0010
0000
0100
0100
0000
0001
0001
0000
,
1001
0000
0010
0000
1000
1000
0000
0001
0001
0000
0010
0010
0000
0100
0100
0000
,
1001
0000
1100
0000
0010
0010
0000
0001
1000
0010
1000
0001
0100
0010
1000
1000
,
1001
0000
0010
0000
0100
0000
0001
0000
0100
0000
1000
0000
0001
0000
0020
0002
,
0200
1333
0001
0100
0010
1000
0001
0100
,
1000
0000
0001
0000
1000
0010
1000
0001
0100
0000
0010
1000
0010
0001
0110
0000
,
0001
1000
0010
0000
1001
0100
0010
0001
1000
0101
0000
1100
0000
0110
0000
0000
,
1001
0100
1000
0010
1000
0100
0010
0001
0100
1000
0100
0001
0100
1000
0100
0010
,
1001
0100
0001
0100
0001
0010
0001
0010
0100
1000
0010
1000
0100
1000
0010
0100
,
1001
0010
0001
0100
0001
0010
0100
1000
0010
0001
0010
1000
0010
0001
0010
0100
,
1001
0010
1000
0010
1000
0100
1000
0100
0010
0001
0100
0001
1000
0010
0100
0000
,
1001
0010
0001
0100
1000
0010
0100
0001
0100
1000
0100
0010
1000
0100
0010
0001
,
1000
0100
1000
0010
1000
0001
0100
0010
0001
1000
0010
0100
0001
0010
0100
1000
,
0101
0010
0001
0010
0100
0010
0001
0010
1000
0001
0100
0010
0100
1000
0001
0010
,
1100
0001
1000
0001
0010
0001
0100
0010
1000
0001
0000
0001
1000
0010
1000
0010
,
0101
1000
0100
0010
1000
0001
0100
0010
1000
0001
0100
0001
0010
1000
0001
0010
,
0100
1000
0100
0001
0100
1000
0010
0100
0001
0010
0001
1000
0001
0010
0100
1000
,
0101
0010
0001
0010
0001
0100
0001
0100
0010
1000
0010
1000
0001
1000
0100
1000
,
0010
0100
0001
1000
0010
0100
0001
0010
0001
1000
0100
0010
0001
0010
0100
0000
,
1001
0010
0100
0010
1000
0100
0001
0100
1000
0010
0100
0010
0001
0010
0100
0001
,
1000
0100
1000
0010
0100
1000
0010
0100
0001
0010
1000
0001
0010
0100
1000
0010
,
0100
0001
0100
0001
1000
0001
1000
0001
0100
0010
1000
0001
0100
0010
1000
0100
,
0001
1000
0001
0000
0100
0010
1000
0001
1000
1001
0000
0110
0000
1001
0000
0000
,
0101
1000
0001
0000
0100
0010
0100
0010
0100
0000
0002
0013
0000
2000
3100
0000
,
0010
0001
1000
0000
0010
0100
0010
0100
0010
0000
1000
0001
0100
0001
2000
3000
,
1010
0001
1000
0000
0010
0100
0010
0100
0010
0000
2000
3100
0000
0002
0013
0000
,
0100
1000
0001
0000
0100
0010
0100
0010
1100
0000
0011
0000
1100
0000
0110
0000
,
0011
1000
0001
0000
0100
0010
1000
0010
0100
0000
0002
0013
0000
2000
3100
0000
,
1100
0001
1000
0000
0010
0001
0010
0100
0010
0000
1000
0100
0001
0100
2000
0000
,
3001
0010
0001
0100
0010
1000
0100
1000
0001
0010
0001
0100
0010
1000
0010
0100
,
1000
0001
0100
0001
0010
0001
0100
0010
1000
0001
1000
0001
0000
0000
0110
0000
,
1001
0000
0010
0000
0100
0100
0000
0001
0001
0000
1000
1000
0000
0010
0010
0000
,
0110
0000
0001
0000
1000
1000
0000
0010
0010
0000
0001
0001
0000
0100
0100
0000
,
1001
0000
0010
0000
1000
1000
0000
0001
0001
0000
0100
0100
0000
0010
0010
0000
,
1001
0000
1100
0000
0010
0010
0000
0001
1000
0010
0100
0001
1000
0010
0100
0100
,
0101
0000
0010
0000
1000
0000
0001
0000
0100
0000
1000
0000
0010
0000
0200
0002
,
0020
1333
0001
0010
0100
1000
0010
0100
,
1000
0000
0001
0000
1000
0010
1000
0001
0100
0000
0010
1000
0010
0001
0110
0000
,
0001
1000
0010
0000
1001
0100
0010
0001
1000
0100
1000
0100
1000
0010
1000
0000
,
0110
0000
0001
0000
1000
1000
0000
0001
0001
0000
0100
0100
0000
0010
0010
0000
,
1001
0000
0100
0000
0010
0010
0000
0100
0100
0000
0001
0001
0000
1000
1000
0000
,
1001
0000
0100
0000
0001
0001
0000
1000
1000
0000
0100
0100
0000
0010
0010
0000
,
1001
0000
0011
0000
0100
0100
0000
1000
0001
0100
0001
1000
0010
0100
0001
0001
,
1001
0000
0100
0000
0010
0000
1000
0000
0010
0000
0001
0000
1000
0000
0200
2000
,
0020
3331
1000
0010
0100
0001
1000
0010
,
0001
0000
1000
0000
0001
0100
0001
1000
0010
0100
0010
0100
0001
1000
0101
0000
,
1000
0001
0100
0000
1001
0010
0100
1000
0010
1100
0000
0011
0000
0110
0000
0000
,
1001
0010
0001
0100
0001
0010
0100
1000
0010
0001
0010
1000
0010
0001
0010
0100
,
1001
0010
1000
0010
1000
0100
1000
0100
0010
0001
0100
0001
0010
0001
0100
0010
,
1001
0100
1000
0010
1000
0100
0010
0001
0100
1000
0100
0001
0100
1000
0100
0010
,
1001
0100
0001
0100
0001
0010
0001
0010
0100
1000
0010
1000
0001
0100
0010
0000
,
1001
0100
1000
0010
0001
0100
0010
1000
0010
0001
0010
0100
0001
0010
0100
1000
,
0001
0010
0001
0100
0001
1000
0010
0100
1000
0001
0100
0010
1000
0100
0010
0001
,
1010
0100
1000
0100
0010
0100
1000
0100
0001
1000
0010
0100
0010
0100
0001
1000
,
0011
0100
0001
1000
0100
1000
0010
0100
0001
1000
0000
1000
0010
0100
0010
0100
,
1001
0010
0100
0010
0001
1000
0010
0100
0001
1000
0010
1000
0100
0001
1000
0100
,
0010
0001
0010
1000
0010
0001
0100
0010
1000
0100
1000
0001
1000
0100
0010
0001
,
1010
0100
1000
0100
1000
0010
1000
0010
0100
0001
0100
0001
1000
0001
0010
0001
,
0100
0010
1000
0001
0100
0010
1000
0100
1000
0001
0010
0100
1000
0100
0010
0000
,
1001
0100
0010
0100
0001
0010
1000
0010
0001
0100
0010
0100
1000
0100
0010
1000
,
0001
0010
0001
0100
0010
0001
0100
0010
1000
0100
0001
1000
0100
0010
0001
0100
,
0010
1000
0010
1000
0001
1000
0001
1000
0010
0100
0001
1000
0010
0100
0001
0010
,
1000
0001
1000
0000
0010
0100
0001
1000
0001
1001
0000
0110
0000
1001
0020
0000
,
0230
0000
0000
0000
,
0000
0000
0000
0000
,
0000
0000
0000
0000
,
0000
0000
0000
0000
0000
0000
0000
0310
,
1001
0001
0010
0010
0100
0100
1000
1000
,
0100
0100
0010
0010
1000
1000
0001
0001
,
0100
0010
0100
0010
1000
0001
1000
0001
0010
0100
0010
0100
0001
1000
0001
1000
,
0M00
00M0
0M00
00M0
0M00
00M0
0M00
00M0
M000
00M0
M000
00M0
M000
00M0
M000
00M0
M000
000M
M000
000M
M000
000M
M000
000M
M000
000M
M000
000M
M000
000M
M000
000M
,
0100
0010
1000
0000
0001
0100
0001
0010
0001
0010
0100
1000
0010
0100
0002
0000
,
0013
0001
0100
0000
1000
0100
1000
0010
1000
0100
0010
0001
0100
0010
2000
0000
,
3001
0100
0001
0000
1000
0010
0001
0010
1000
0100
0001
0010
0100
0001
2000
0000
,
3010
0100
0010
0000
1000
0001
0100
0001
1000
0010
0001
0010
0100
0001
2000
0000
,
3001
0010
0001
0100
0001
0010
0001
0100
0001
0010
0001
0100
0001
1000
0010
0000
,
1000
0100
1000
0010
1000
0100
1000
0010
1000
0100
1000
0001
0100
0010
1000
0000
,
0001
0100
0001
0100
0001
1000
0001
1000
0001
0010
0001
0010
0001
0100
0001
0100
,
1000
0100
0010
0001
1000
0100
0010
0001
1000
0110
0000
1001
0000
0010
2100
0000
,
3002
0003
0020
0000
0000
0000
0000
0000
0000
0000
0230
0000
0000
0000
2300
0000
,
0000
3200
0000
0302
0000
0000
0000
0023
,
0000
0000
0230
0000
0000
0000
2300
0000
3002
0020
0000
0003
0230
0000
2300
0000
,
0000
3020
0000
0230
0000
0320
0000
2030
,
3001
0010
0001
0010
0001
0010
0001
0010
0001
0100
0010
1000
0100
1000
0100
1000
,
0010
0100
0001
1000
0001
1000
0010
0100
0001
0010
0001
1000
0100
0001
0100
1000
,
0010
0001
0100
0100
0010
0001
1000
1000
0100
0010
1000
1000
0100
0001
0010
0010
,
1000
0001
0100
0001
1000
0001
0100
0001
2000
3200
0320
0032
0023
0230
2300
3020
,
0232
0000
0000
0000
,
2303
0000
0000
0000
,
3020
0000
0000
0000
,
0230
0000
0000
0000
0000
0000
0000
0010
,
1301
0000
0000
0000
,
0000
0000
0000
0000
,
0000
0000
0000
0000
,
0000
0000
0000
0000
0000
0000
0000
0000
0100
1001
0000
0100
0001
0010
0100
1000
,
0001
1000
0001
1000
,
0010
0100
0010
0100
,
0001
0010
0100
1000
,
1000
0000
0010
0000
0100
0000
0001
0001
,
1001
0100
0001
1000
,
0100
0010
1000
0010
,
1000
0100
1000
0010
1000
0001
1000
0010
1000
0001
0100
0010
1000
0001
0100
0010
,
1000
0100
0001
0000
1000
0010
0100
0001
1000
0011
0000
1100
0000
0001
0010
0000
,
0101
1000
0100
1000
0010
0100
0001
1000
0010
0001
0010
0100
0001
1000
0010
0100
,
0001
0010
0001
0010
0001
0100
0001
0100
0010
1000
0001
1000
0100
1000
0010
0100
,
1000
0001
0010
0001
0100
0010
1000
0010
0100
0001
0100
1000
0010
0001
0010
0100
,
1000
0010
0001
1000
0100
0001
0010
0100
0001
0010
0001
1000
0100
1000
0010
0000
,
1100
0001
1000
0001
0100
0010
1000
0010
0100
0001
1000
0001
0010
0001
1000
0100
,
0001
1000
0010
0100
1000
0001
1000
0010
0100
1000
0100
0001
1000
0010
0100
0010
,
1000
0001
1000
0001
0100
0001
0100
0001
1000
0010
1000
0001
0100
0010
1000
0001
,
0100
1000
0010
0001
0100
1000
0010
0001
0100
0010
0000
1000
0001
0100
0001
1000
,
0110
0001
1000
0001
0100
0010
1000
0010
1000
0100
1000
0010
0100
0001
0010
0001
,
1000
0100
1000
0100
0010
0100
0010
0100
1000
0001
0100
0010
1000
0001
0010
0001
,
0100
1000
0100
0010
1000
0100
0001
0100
1000
0010
0001
0100
1000
0001
0100
0010
,
1000
0001
0010
0001
1000
0010
1000
0001
0100
0010
0100
0010
1000
0001
0100
0000
,
1100
0001
1000
0001
1000
0010
1000
0010
0100
0001
0100
0001
1000
0010
0100
0010
,
1000
0001
0100
0001
1000
0010
0001
0100
0010
1000
0010
0100
0001
1000
0100
1000
,
0001
0010
0001
0100
0001
1000
0001
0100
0001
0010
0100
1000
0001
0010
0100
1000
,
0010
0001
0100
0000
0100
0010
1000
0001
1100
0010
0000
0010
1001
0100
0001
0010
,
1000
0100
1000
0001
1000
0100
1000
0001
0100
0010
1000
0001
0100
0010
2000
0000
,
3001
0010
0001
1000
0001
0010
0001
1000
0010
0100
0001
1000
0010
0100
0002
0000
,
1003
0100
1000
0010
0100
0001
0100
0001
1000
0010
0001
0010
0100
0001
2000
0000
,
3010
0001
0100
0010
0100
0001
0010
0010
1000
0100
1000
0100
0001
0100
1000
0100
,
0001
0010
0001
1000
0010
0001
0100
0010
1000
0100
1000
0001
0100
1000
0010
0100
,
1000
0010
1000
0100
0010
0001
0100
0001
1000
0010
1000
0100
0010
0001
0100
0001
,
1000
0010
0001
0010
0100
0010
1000
0001
0100
1000
0100
0001
0010
0100
0001
1000
,
0010
0100
0010
0000
0110
0000
0110
0000
1000
0001
1000
0001
1000
0001
1000
0001
,
0100
0010
0100
0010
1000
0010
0100
0001
1000
0100
0010
0001
0100
0010
2000
0000
,
3001
0010
0001
0010
1000
0001
1000
0100
0001
0010
0100
1000
0010
0001
0200
0000
,
0301
1000
0001
1000
0010
1000
0010
1000
0100
1000
0010
1000
0001
0100
0001
0010
,
1000
0100
0001
0100
1000
0001
0100
0010
1000
0001
1000
0001
0110
0000
1001
0000
,
0100
1000
0100
1000
0010
0100
0010
0100
0001
0010
0001
0010
1000
0001
1000
0001
,
0100
0010
0100
0010
1000
0100
1000
0100
0001
0010
0001
0010
1000
0001
1000
0001
,
0100
0010
1000
0010
0100
0001
1000
0001
0100
0010
1000
0100
0010
0001
1000
0100
,
0001
1000
0001
0000
1001
0000
1001
0000
0100
0010
0100
0010
0100
0010
0100
0010
,
1000
0000
0100
0000
0001
0001
0000
1000
1000
0000
0010
0010
0000
0100
0100
0000
,
0001
0000
1000
0000
0010
0010
0000
0100
0100
0000
0001
0001
0000
1000
1000
0000
,
0100
0000
0001
0000
1000
1000
0000
0010
0010
0000
0001
0001
0000
0100
0100
0000
,
1000
0000
0010
0000
1000
1000
0000
0100
0101
0000
1010
0000
0101
0000
1010
0000
,
0001
0100
0002
0000
0013
1000
0020
0000
0130
1000
0200
0000
0301
1000
0002
0000
,
1003
0010
2000
0000
3100
0001
0200
0000
0310
0001
0020
0000
0031
1000
0002
0000
,
0103
0010
2000
0000
3100
0010
0001
0010
1000
0001
0100
0010
1000
0001
0020
0000
,
0130
0000
1100
0000
1100
0000
1100
0000
1100
0011
1100
0011
1100
0011
1100
1011
;

//---------------dance-single - ----------------
#NOTES:
     dance-single:
     :
     Challenge:
     19:
     1.000,1.000,1.000,0.219,1.000,2719.000,802.000,74.000,0.000,20.000:
0000
0000
0000
0000
,
0000
0000
0000
0000
,
0000
0000
0000
0000
,
0000
0000
0000
0000
0000
0000
0000
0000
0000
0100
0000
0100
0000
0100
0000
0000
,
0110
0000
1000
0000
0001
0000
0000
0000
0100
0010
0100
0010
0100
0010
0100
0000
0100
0000
1000
0000
0100
0000
0010
0000
1000
0000
0001
0000
0100
0000
0000
0000
,
1001
0000
0010
0000
0100
0000
0000
0000
0001
1000
0001
1000
0001
1000
0001
0000
0001
0000
0010
0000
1000
0000
0001
0000
0010
0000
0100
0000
1000
0000
0000
0000
,
0101
0000
1000
0000
0010
0000
0000
0000
0100
0001
0100
0001
0100
0001
0100
0000
0100
0000
0010
0000
1000
0000
0001
0000
0100
0000
0001
0000
0010
0000
0000
0000
,
1001
0000
0100
0000
0010
0000
0000
0000
1000
0001
1000
0001
1000
0001
1000
0000
1000
0000
0010
0000
0001
0000
0100
0000
1000
0000
0001
0000
0020
0000
0030
0000
,
1000
0100
0001
0001
1000
0010
0001
0001
1000
0100
0001
0001
1000
0010
0001
0001
,
0100
0010
0001
0001
1000
0100
0010
0010
1000
0011
0100
0101
1000
0011
0100
0100
,
1001
0010
0100
0010
1001
0010
0100
0010
1001
0010
0100
0010
1001
0010
0100
0010
,
1100
0001
0010
0001
1100
0001
0010
0001
1100
0001
0010
0001
1100
0001
0010
0001
,
1010
0100
0001
0100
1010
0100
0001
0100
1010
0100
0001
0100
1010
0100
0001
0100
,
0011
1000
0100
1000
0011
1000
0100
1000
0011
1000
0100
1000
0011
1000
0100
1000
,
1001
0100
0010
0100
1001
0100
0010
0100
1001
0100
0010
0100
1001
0100
0010
0100
,
1010
0100
0001
0100
1010
0100
0001
0100
1010
0100
0001
0100
1010
0100
0001
0100
,
0011
1000
0100
1000
0011
1000
0100
1000
0011
1000
0100
1000
0011
1000
0100
1000
,
0001
0100
0001
0100
0001
0100
0001
0000
0000
0000
0010
0000
1000
0000
0010
0000
0100
0000
0001
0000
0100
0000
0000
0000
0000
0000
0000
0000
0010
0000
0000
0000
,
0101
1000
0010
1000
0100
1000
0001
0100
0010
0001
1000
0010
0001
1000
0010
0100
,
0001
0010
0001
1000
0100
0010
0100
1000
0001
0100
0010
0100
0001
1000
0100
1000
,
0010
0001
0100
0010
1000
0100
0001
0010
1000
0001
0100
0001
1000
0010
0100
0010
,
1000
0100
0001
0100
1000
0010
0100
0010
1000
0100
0010
0001
0100
0010
1000
0001
,
1100
0010
0001
0100
1010
0001
0110
1000
0011
1100
0001
0010
1001
0100
0010
1001
,
0100
0010
1100
0001
1010
0100
1001
0010
0100
1001
0010
1000
0100
0011
1000
0010
,
0101
0010
1100
0001
0110
1000
0101
1000
0011
0100
1000
0100
1010
0001
1100
0001
,
0100
0010
0100
0010
0100
0010
0100
0010
0100
0001
0100
0001
0100
0001
0100
0001
1000
0010
1000
0010
1000
0010
1000
0000
0000
0000
0000
0000
0110
0000
0000
0000
,
1001
0010
0101
0000
1100
0010
1000
0101
1001
0000
0110
0001
1000
0110
1001
0000
,
0011
1000
0110
0000
0101
0010
1001
1100
0011
0000
1001
0100
2020
0001
3200
0330
,
1001
0010
0101
0000
1100
0010
1000
0101
1001
0000
0110
0001
1000
0110
1001
0100
,
0011
1000
0110
0000
0101
0010
1001
1100
0011
0000
1001
0100
0011
1000
0110
1001
,
0110
0100
1010
0000
0101
0010
1000
0001
0110
0000
0011
1000
0101
1000
0011
0000
,
0110
0001
1010
0000
0101
0001
1000
0010
1100
0001
1000
0100
2002
0010
3200
0303
,
1001
1000
0110
0000
1001
0001
0100
1010
1001
0000
0010
0001
1100
0001
2010
3000
,
0100
0010
0100
0010
0100
0010
0100
0010
0100
0001
0100
0001
0100
0001
0100
0001
1000
0001
1000
0001
1000
0001
1000
0000
0000
0000
0000
0000
1001
0000
0000
0000
,
1000
0000
0001
0000
1100
0011
0000
0011
1100
0000
1100
0011
0000
0110
1001
0000
,
0001
0000
1000
0000
0011
1100
0000
1100
0011
0000
0011
1100
0000
0110
1001
0000
,
0100
0000
0110
0000
1001
0110
0000
0110
1001
0000
1001
0110
0000
1010
0101
0000
,
0010
0000
0110
0000
0110
1001
0000
1001
0110
0000
1010
0000
0101
0010
1001
0001
,
0101
1000
0100
0010
0101
1000
0011
1000
0101
1000
0110
1000
0001
0010
1002
0203
,
0320
0000
1130
0001
0110
1000
0110
0001
1100
0010
1100
0001
0100
1000
0010
0001
,
0100
1000
0100
0010
1000
0001
0100
0010
1000
0010
0001
0100
0010
1000
0100
0001
,
1000
0000
0110
0000
0000
0000
0000
0000
1000
0001
1000
0001
1000
0001
1000
0000
0010
0000
0101
0000
0010
0000
1000
0000
0011
0000
0100
0000
1001
0000
1000
0000
,
0010
0000
0101
0000
1100
1001
0000
1001
1100
0000
1010
1001
0000
0011
1001
0000
,
0110
0000
0110
0000
1001
0101
0000
0101
1001
0000
0110
1010
0000
0110
0011
0000
,
1100
0010
1100
0000
0011
0101
0000
0101
0011
0000
1010
1100
0000
1100
1001
0000
,
0101
0010
0101
0000
0110
1001
0000
1001
0110
0000
1010
0000
0101
0010
1001
1000
,
0101
1000
0100
0010
0101
1000
0011
1000
0101
1000
0110
1000
0001
0010
1002
0203
,
0320
0000
1130
0001
0110
1000
0110
0001
1100
0010
1000
0001
0100
1000
0010
0001
,
0110
0000
1000
0000
0001
0000
0010
0000
0100
0000
0011
0000
1000
0000
0101
0000
1000
0000
0010
0000
0100
0000
0010
0000
1001
0000
0100
0000
0010
1000
0010
1000
,
0010
0000
0000
0000
1001
0000
0000
0000
0011
0000
0101
0000
1000
0000
0110
0000
1000
0001
1000
0001
1000
0001
0100
0000
0000
0000
0011
0000
0000
0000
0100
1000
,
0011
0100
0001
0011
1100
0010
1000
0001
0110
1000
0100
0010
1001
0100
0001
0010
,
1100
0001
1000
1000
0101
0010
1000
0100
1001
0010
0001
0100
1010
0100
0001
1000
,
0011
0100
0010
1000
0101
0010
1000
0100
1001
0010
0001
0100
0011
1000
0100
0010
,
1001
0100
1000
0010
1100
0001
0100
0010
0101
1000
0010
0100
1001
0010
0001
0100
,
1010
0001
0100
0010
1100
0001
0010
1000
0101
1000
0010
0001
0110
1000
0001
0010
,
1001
0100
0001
1000
0110
1000
0001
0010
0101
1000
0010
0100
1001
0010
0100
0001
,
0110
1000
0010
1000
0101
0010
1000
0001
0110
1000
0100
0001
1010
0100
0001
0100
,
0011
1000
0101
0000
1001
0000
0110
0000
1001
1001
0000
0010
0101
1000
0011
0100
,
1100
0001
1000
1100
0011
0100
0001
1000
0110
0001
0010
0100
1001
0010
1000
0100
,
0011
1000
0001
0101
1010
0100
0001
0010
1100
0001
0100
0010
1001
0100
0001
0010
,
1100
0001
1000
0010
0101
1000
0010
0001
0110
0001
1000
0100
1010
0001
0100
0010
,
1001
0110
0001
0100
0011
1000
0010
0100
1010
0001
0100
0010
1001
0100
1010
0100
,
1001
0010
0001
0101
1010
1000
0100
0001
1010
0001
0100
1000
0110
0001
1000
0100
,
1001
0010
1000
0001
0110
0001
1000
0100
1010
0001
0100
0010
1001
0100
0010
1000
,
0110
0001
0100
0001
1010
0100
0001
1000
0110
0001
0010
1000
0101
0010
1000
0010
,
1100
0001
1010
0000
1001
0001
0100
1010
1100
0011
0000
0101
0000
0001
1100
0010
,
1001
0100
1010
0000
0011
1000
0010
0110
1001
0000
0110
1000
0001
0110
1001
0000
,
1100
0001
0110
0000
1010
1000
0100
0100
0011
0000
1001
0010
0202
1000
0023
0330
,
1001
0100
1010
0000
0011
0100
0001
1010
1001
0000
0110
1000
0001
0110
1001
0000
,
1100
0001
0110
0000
1001
0001
1100
1000
0101
0010
1100
0001
1010
0100
1001
0010
,
0110
1000
0101
0000
1010
0100
0001
1000
0110
0000
1100
0001
1010
0001
1100
0000
,
0110
1000
0101
0000
1010
1000
0001
0100
0011
1000
0001
0010
2002
0100
0023
3030
,
1001
0001
0110
0000
1001
1000
0010
0101
1001
0000
0100
1000
0011
1000
0201
0300
,
0001
1000
0001
1000
0001
1000
0001
1000
0010
1000
0010
1000
0010
1000
0010
1000
0010
0100
0010
0100
0010
0100
0010
0000
0000
0000
0000
0000
0110
0000
0000
0000
,
1001
0000
1001
0000
1100
1100
0000
0101
0101
0000
0110
0110
0000
1001
0110
0000
,
1001
0000
1001
0000
0101
0101
0000
1100
1100
0000
0110
0110
1001
0100
2020
3030
,
0101
1010
0101
0000
1100
1100
0000
1001
1001
0000
0110
0110
0000
1001
0110
0000
,
1010
0101
1010
0000
1001
1001
0000
0110
0110
0000
0011
1100
0011
1000
0110
0010
,
1001
0100
1000
0010
0101
1000
0110
0001
1010
0100
0001
0010
1100
0001
1020
0230
,
0302
0000
1013
0100
0001
1000
0010
0100
1001
0100
0011
0100
1010
0100
1001
0010
,
0100
1000
0001
0100
1010
0001
0001
0100
0010
1000
0100
1000
0011
0100
0001
0010
,
1100
0000
0001
0000
0000
0000
0000
0000
1000
0001
1000
0001
1000
0001
1000
0000
1000
0000
0001
0000
0010
0000
0001
0000
0100
0000
0001
0000
0010
0000
0100
0000
,
1001
0000
1001
0000
0011
0011
0000
1010
1010
0000
1001
0110
0000
0110
1001
0000
,
0101
0010
0101
0000
1010
1010
0000
0101
0101
0000
1001
0011
1000
0010
0200
0300
,
0001
1000
0101
0000
1010
1010
0000
0101
1001
0000
0110
1010
0000
0110
1001
0000
,
0100
0001
1010
0000
0101
0101
0000
1010
0110
0000
1001
0110
1001
0100
0011
1000
,
1100
0001
0010
0100
1010
0001
0110
1000
0101
0010
1001
0100
0010
1000
0201
0320
,
2030
0000
3011
0100
0010
1000
0001
0100
1001
0010
0100
0010
0101
1000
0010
0100
,
1001
0000
1000
0000
0010
0000
1000
0000
0100
0000
0011
0000
0100
0000
0011
0000
1000
0100
0010
0001
0010
0100
1000
0000
0001
0010
0100
1000
0100
0010
0001
0010
,
1000
0000
0100
0000
1000
0000
0001
0000
0100
0000
0010
0000
1000
0001
1000
0000
0000
0000
0110
0000
0000
0000
0110
0000
0000
0000
0110
0000
0000
0000
0000
0000
,
1100
0001
1000
1010
0011
0100
0001
1000
0110
0001
0010
0100
1001
0100
0010
1000
,
0011
0100
0001
1001
1010
0100
0001
0010
1001
0100
1000
0010
0101
0010
1000
0001
,
1100
0010
0100
0001
1010
0100
0001
0010
1001
0100
1000
0010
1100
0001
0010
0100
,
1001
0010
0001
0100
0011
1000
0010
0100
1010
0001
0100
0010
1001
0100
1100
0010
,
1001
1000
0010
0100
0011
1000
0100
0001
1010
0001
0100
1000
0110
0001
1000
0100
,
1001
0010
1000
0001
0110
0001
1000
0100
1010
0001
0100
0010
1001
0100
0010
1000
,
0110
0001
0100
0001
1010
0100
0001
1000
0110
0001
0010
1000
0101
0010
1000
0010
,
1100
0001
1010
0000
1001
0000
0110
0000
1001
1001
0000
0100
1010
0001
1100
0010
,
0011
1000
0001
0101
1100
0010
1000
0001
0110
1000
0100
0010
1001
0100
0001
0010
,
1100
0001
1000
1010
0101
0010
1000
0100
0011
1000
0010
0100
1001
0010
1000
0100
,
0011
1000
0001
0100
1010
0001
0100
1000
0110
1000
0001
0010
0101
1000
0010
0100
,
1001
0110
1000
0010
1100
0001
0100
0010
0101
1000
0010
0100
1001
0010
0101
0010
,
1001
0100
1000
1010
0101
0001
0010
1000
0101
1000
0010
0001
0110
1000
0001
0010
,
1001
0100
0001
1000
0110
1000
0001
0010
0101
1000
0010
0100
1001
0010
0100
0001
,
0110
1000
0010
1000
0101
0010
1000
0001
0110
1000
0100
0001
1010
0100
0001
1000
,
0110
0100
0110
0000
1001
0001
1100
0011
1000
0110
0000
1001
0000
0110
1001
0000
,
0100
1000
0100
0010
0100
1000
0010
0001
0100
1000
0010
0001
0100
1000
0010
0001
,
0010
0100
0010
0001
0010
1000
0100
0001
0010
1000
0100
0001
0010
1000
0100
0001
,
0010
1000
0100
1000
0001
0100
1000
0010
0001
0100
1000
0010
0001
0100
1000
0010
,
0100
0001
0010
0001
1000
0010
0100
0001
1000
0010
0100
0001
1000
0010
0100
0001
,
1001
0100
1000
0100
0010
0100
0010
0100
0001
0010
0001
0010
0100
0010
0100
0010
,
0100
1000
0100
1000
0010
0100
0010
0100
0010
0001
0010
0001
0100
0010
0100
0010
,
1000
0001
0100
0001
0010
0001
0100
0001
1000
0010
0100
1000
0001
0100
0010
0001
,
0100
0010
0100
0010
0100
0010
0100
0010
1000
0010
1000
0010
1000
0010
1000
0010
1000
0001
1000
0001
1000
0001
1000
0001
1000
0001
1000
0001
1000
0001
1000
0001
,
0100
0010
0100
0000
1010
0001
0100
0010
1001
0100
0001
1010
0101
1000
0110
0000
,
0100
0010
0100
0000
0011
1000
0100
0010
1001
0100
1000
0011
1100
0001
0110
0000
,
0001
1000
0001
0000
0110
1000
0001
0010
0101
1000
0010
0101
1001
0100
0011
0000
,
1000
0001
1000
0000
0110
1000
0001
0100
1001
0010
0101
1000
0011
1000
0110
0110
,
1001
1000
0220
0330
0101
1000
0010
0100
1001
0010
0001
0100
0110
1000
0001
0000
,
1010
0010
0202
0303
1100
1000
0010
0100
1001
0001
0010
1000
0110
0001
2020
3030
,
1100
0100
1001
0000
0101
1000
0001
0010
0110
1000
0001
0100
0010
1000
0001
0010
,
1000
0001
1000
0001
1000
0001
1000
0001
1000
0000
0010
0000
0100
0000
0010
0000
1000
0000
0101
0000
0000
0000
1010
0000
0000
0000
1001
0000
0110
0000
0010
0000
,
1001
0100
2000
0000
0000
0000
0000
0000
3000
0000
0200
0000
0300
0000
2000
0000
,
3000
0200
0300
0020
0000
0000
0030
0002
,
0003
0000
0200
0000
0000
0300
0002
0003
0002
0023
0000
0030
0200
0300
2000
0000
,
3000
0000
0200
0000
0000
0300
2000
0000
0000
3000
0200
0000
0000
0300
0020
0030
,
1001
0000
0110
0000
1001
0000
0110
0000
1001
0000
0110
0000
1001
0000
0110
0000
0002
0003
2000
3000
0020
0030
0200
0300
1001
0000
0110
0000
1001
0000
0110
0000
,
2000
3000
0200
0300
1001
0000
0110
0000
1001
0000
0110
0000
0002
0003
0020
0030
1001
0000
0110
0000
1001
0000
0110
0000
2000
0000
3000
0000
0112
0000
0003
0000
,
1001
0000
0110
0000
1001
0000
0110
0000
1000
0000
0011
0000
0100
0000
1010
0000
0100
0000
0001
0000
0110
0000
1001
0000
0100
0000
0010
0000
0001
0010
0100
0001
,
0010
0000
1000
0000
0101
0000
1000
0000
0010
0000
0001
0000
0100
1000
0010
0000
0000
0000
1001
0000
0000
0000
0110
0000
0000
0000
1001
0000
0000
0000
0000
0000
,
1111
0001
0100
0001
1000
0010
1000
0001
0100
0010
1000
0001
0100
0010
1000
0001
,
0100
1000
0100
1000
0010
1000
0010
1000
0001
0100
0001
0100
0001
0010
0001
0010
,
1000
0001
0100
1000
0001
0100
0010
0001
1000
0010
0100
0010
0001
1000
0010
0100
,
0001
0001
0010
1000
0100
1000
0001
0100
0002
0000
0103
0020
0000
1030
0201
0000
,
1301
0010
0001
0100
0010
1000
0001
0100
0001
1000
0100
0010
0001
0100
1000
0010
,
0100
1000
0100
0001
0100
1000
0100
0010
1000
0001
0100
0001
1000
0010
0100
0010
,
1000
0001
0001
0100
0010
1000
0100
0010
0001
1000
0100
1000
0010
0100
1000
0001
,
0100
1000
0010
0001
1000
0100
0010
0001
1000
0110
0000
1000
0011
0100
1001
0110
,
1000
0001
1000
0001
,
1000
0001
1000
0001
,
0100
0000
0010
0000
1000
0000
0010
0000
0100
0001
0000
0001
0100
0000
0001
0000
,
1000
0000
0010
0000
0100
0001
0010
0000
2000
0000
3010
0200
0000
0301
0020
0000
,
1030
0000
0001
0000
0100
1000
0001
0000
1000
0010
0000
0010
1000
0000
0001
0000
,
0100
0000
0010
0000
0001
1000
0100
0000
0010
0001
0000
0001
0010
0000
0001
0000
,
1000
0100
0010
0001
1000
0100
0010
0001
1000
0100
0010
0001
1000
0100
0010
0001
1000
0100
0010
0001
1000
0100
0010
0001
1000
0100
0010
0001
1000
0100
0010
0001
,
0100
0000
1000
0000
1010
0000
0000
0000
1000
0000
0001
0000
0100
0010
0100
0010
1000
0000
1001
0000
0000
0000
1001
0000
0010
0000
0100
0000
0001
0000
0010
0000
,
0101
1000
0010
0110
1001
0010
1000
0001
0110
1000
0100
0010
1001
0010
0100
0001
,
1100
0010
1000
1001
0101
0010
1000
0100
1001
0010
0001
0100
1010
0100
0001
1000
,
0011
0100
0010
1000
0101
0010
1000
0100
1001
0010
0001
0100
0011
1000
0100
0010
,
1001
0100
1000
0010
1100
0001
0100
0010
0101
1000
0010
0100
1001
0010
0011
0100
,
1001
0010
0100
0010
1100
0001
0010
1001
0101
1000
0010
0001
0110
1000
0001
0010
,
1001
0100
0001
1000
0110
1000
0001
0010
0101
1000
0010
0100
1001
0010
0100
0001
,
0110
1000
0010
1000
0101
0010
1000
0001
0110
1000
0100
0001
1010
0100
0001
0100
,
0011
1000
0101
0000
1001
0000
0110
0000
1001
1101
0000
0010
0101
1000
0011
0100
,
1100
0001
1000
1010
0011
0100
0001
1000
0110
0001
0010
1100
1001
0010
1000
0100
,
0011
1000
0001
0101
1010
0100
0001
0010
1100
0001
0100
0010
1001
0100
0001
0010
,
1100
0001
1000
0010
0101
1000
0010
0001
0110
0001
1000
0100
1010
1001
0100
0010
,
1001
0110
0001
0100
0011
1000
0010
0100
1010
0001
0100
0010
1001
0100
1010
0100
,
1001
0010
0001
0101
1010
1000
0100
0001
1010
0001
0100
1000
0110
0001
1000
0100
,
1001
0010
1000
0001
0110
0001
1000
0100
1010
0001
0100
0010
1001
0100
0010
1000
,
0110
0001
0100
0001
1010
0100
0001
1000
0110
0001
0010
1000
0101
0010
1000
0001
,
0110
0010
0110
0000
1001
1000
0011
1100
0001
0110
0000
1001
0000
0110
1001
0000
,
1011
0100
0010
1000
1001
0001
0100
0010
1010
1000
0010
0100
1001
0010
1002
0000
,
1013
1000
0100
0001
1001
0001
0100
0010
1100
1000
0001
0110
1001
0100
2010
0000
,
3101
0001
1000
0010
0101
0100
0010
1000
1001
0010
0100
0011
1100
0010
2002
0000
,
3113
0001
0100
1000
0101
0010
0100
1000
0011
0100
0011
1000
0110
0001
1010
1000
,
1001
0100
0010
0100
0011
0101
0010
1000
0101
1000
0010
0100
1010
0100
2002
3003
,
0011
0100
1000
0100
1010
0100
0001
0100
1100
1000
0011
0100
1001
0001
1100
0010
,
0101
0001
1000
0010
1100
1000
0001
0010
0101
1000
0010
0101
1001
0010
1100
1000
,
0001
0010
0100
1000
0001
0010
0100
1000
0001
0010
0100
1000
0001
0010
0100
1000
0011
0000
0001
0000
0110
0000
0100
0000
1001
0000
1000
0000
0110
0000
0010
0000
,
1001
0001
0010
0001
1100
0010
0100
1001
0011
0100
0001
1010
1001
0100
0010
1000
,
0011
0100
0001
1000
0011
1100
0010
0100
1001
0010
0100
1001
0011
0100
1010
0100
,
0001
1000
0110
1000
0011
1100
0010
1001
1100
0010
1000
0101
1001
0010
0100
0001
,
1100
0011
1000
0001
1100
0001
0100
1010
1001
0100
0010
0001
1100
0010
0101
0010
,
1100
0001
1000
0001
1010
0001
1000
0001
1100
0001
1000
0011
1010
0001
1000
0001
,
0101
0010
1000
0001
1100
0010
0100
0011
1001
0100
0001
0010
1100
0001
0100
0010
,
1001
0000
1000
0000
0110
0000
0000
0000
0001
0000
1100
0000
0010
0000
1100
0000
0001
0000
1000
0000
0010
0000
0100
0000
0010
0000
1000
0000
0100
0010
0001
1000
,
0100
0000
0001
0000
1000
0000
0010
0000
0001
0000
1000
0000
0100
1000
0010
0100
0001
0000
1000
0000
0001
0000
1010
0000
0011
0000
0100
0000
1001
0000
0110
0000
,
1000
0000
1100
0000
0001
0001
0000
0010
0010
0000
0001
0001
0000
0100
0010
0000
,
0001
0000
1100
0000
0001
0001
0000
0100
0100
0000
0010
0010
0000
1000
0001
0000
,
0100
0000
0110
0000
1000
1000
0000
0001
0001
0000
0100
0010
0000
1000
0001
0000
,
0010
0000
0101
0000
0000
1000
1000
0000
0011
0010
0100
0001
1000
0010
0101
0100
,
1001
0010
0001
0100
0001
0010
0001
0100
0001
0010
0001
0100
0001
0010
0001
0100
,
0010
1000
0100
0001
0010
1000
0100
0001
0010
1000
0100
0001
0010
1000
0100
0001
,
1010
0100
1001
0000
0110
0100
0000
0001
0101
0000
1000
1010
0000
0100
0010
0000
,
1000
0001
1000
0001
1000
0001
1000
0001
1000
0001
1000
0001
1000
0001
1000
0001
0100
0010
0100
0010
0100
0010
0100
0010
0100
0010
0100
0010
0100
0010
0100
0010
;
