#TITLE:Maximizer;
#SUBTITLE:;
#ARTIST:Cli-max S.;
#TITLETRANSLIT:;
#SUBTITLETRANSLIT:;
#ARTISTTRANSLIT:;
#CREDIT:;
#BANNER:Maximizer-bn.png;
#BACKGROUND:Maximizer-bg.png;
#LYRICSPATH:;
#CDTITLE:paranoivm2.png;
#MUSIC:MAXIMIZER.mp3;
#OFFSET:-2.860;
#SAMPLESTART:31.499;
#SAMPLELENGTH:12.000;
#SELECTABLE:YES;
#BPMS:0.000=95.000,5.000=190.000,40.000=379.998,43.000=190.000,133.000=95.000,134.000=190.000,162.000=95.000,164.000=190.000;
#STOPS:5.000=0.496
,5.500=0.140
,45.500=0.480
,133.000=0.632
,209.500=1.263
;
#BGCHANGES:;
// cache tags:
#FIRSTBEAT:1.500;
#LASTBEAT:276.000;
#SONGFILENAME:Songs/juju steps/Maximizer/MAXIMIZER.sm;
#HASMUSIC:1;
#HASBANNER:1;
#MUSICLENGTH:97.941;
// end cache tags

//---------------dance-single - ----------------
#NOTES:
     dance-single:
     :
     Challenge:
     10:
     0.831,0.983,1.000,0.082,0.117,456.000,106.000,8.000,0.000,2.000:
0000
0000
0000
1002
0103
2001
3100
1000
,
0101
1010
1001
0011
1000
0100
0010
0001
,
1000
0010
0100
0001
1000
0000
1010
0000
,
0110
0000
0100
0100
0100
0000
0001
0000
,
1000
0010
0100
0001
1000
0100
0010
0001
,
0010
0001
0100
0010
1000
0000
0011
0000
,
1000
0010
0100
0001
1001
0000
0110
0000
,
1010
0000
0100
0001
0011
0000
1100
0000
,
1000
0100
1000
0000
1000
0100
0010
0000
,
0001
0000
0010
0001
0100
0010
1000
1000
,
1000
0010
1000
0010
1000
0010
0100
0000
,
0010
0001
1000
0100
1000
0100
0100
1000
,
0100
0010
0001
0010
0001
0100
0010
1000
,
0001
0010
0001
0100
0010
0000
1000
0010
,
0001
0010
1000
0100
0001
0000
1000
0000
,
0010
1000
0001
0000
0011
0000
1001
0000
,
1000
0000
0010
0100
0001
0000
0100
1000
,
0100
0010
0100
0001
0001
1001
0000
1100
,
0000
1010
0000
0110
0000
0101
0000
0001
,
1000
0001
0000
0011
0000
0101
0000
0100
,
0010
1000
0001
0010
0001
0100
0010
1000
,
0010
0110
0000
0101
0000
1001
0000
1100
,
0000
0101
0000
0011
0000
1000
0100
1000
,
0010
0100
0001
1000
0000
1001
0000
0101
,
0000
0110
1010
0000
0110
0000
0100
0001
,
0001
1000
0100
0010
0001
1000
0100
0000
,
0010
0001
0100
0000
0010
1000
0100
0000
,
0010
0001
0100
1000
0100
0001
0020
0000
,
1030
0010
0001
0000
1000
0100
0001
0010
,
1000
0000
0001
0100
1000
0100
0000
1100
,
0000
1000
0100
0001
0000
0011
0000
0001
,
1000
0000
1100
0000
1100
0110
0011
1001
,
0001
0100
0000
0010
0010
1000
0010
0100
,
0001
1000
0010
0100
1000
0000
0000
0000
1000
0000
0010
0000
0100
0000
0001
0000
,
1000
0100
0000
0100
1000
0100
0010
0001
0100
0000
0000
0000
1000
0000
0010
0000
,
0100
0001
0000
0001
1000
0100
0010
0001
0010
0000
0001
0000
0010
0000
0001
0100
,
0000
0100
0010
1000
0100
0010
0001
1000
0010
0000
0000
0000
1001
0000
0101
0000
,
0110
1010
0101
0011
1200
0000
0310
0100
,
0010
0100
0000
0100
0010
0001
1000
0100
0010
0000
0001
0000
0010
0000
0001
0000
,
0100
0010
0000
0010
1000
0010
0100
0001
1000
0000
1100
0000
0110
0000
0011
0000
,
1001
1010
0101
1100
0012
0203
1320
0132
,
1003
0000
0110
1010
0000
1001
0000
1100
,
0000
0011
0000
1001
0000
0101
1000
0001
,
0011
0000
0001
0000
0000
1001
0000
1100
,
0000
0011
0000
0110
0000
0011
1001
0000
,
0110
0011
0000
1001
0000
0101
0000
0110
,
0000
0011
0000
1000
1001
0100
0110
0000
,
0110
0000
0000
0110
0000
1001
0000
0101
,
0000
0110
0000
1010
1001
0000
1001
0010
,
0000
1001
0000
1010
0000
0101
0000
0110
,
0000
1010
0100
1001
0110
0000
0101
0000
,
0000
0001
0000
1000
0000
0001
0000
0010
,
0000
0001
1000
0110
0101
0000
0100
0001
,
0100
0001
0000
1000
0001
1000
0000
0100
,
1000
0100
0010
0100
0100
0000
0010
0001
,
0100
0010
1000
0010
0100
0001
1000
0001
,
0000
1000
1100
0000
1000
0100
0010
0001
,
0100
0010
1000
0001
1000
0010
0100
0001
,
1000
0001
0010
0001
0100
0010
0001
1000
,
0100
0010
1000
0100
0110
0100
0001
1010
,
0100
0100
0110
0000
1001
0001
1000
0100
,
0001
0100
1000
0010
0001
1000
0100
0001
,
0100
1000
0100
0001
0010
1000
0010
0001
,
0100
0010
1000
0010
0100
0001
1000
0001
,
0010
0001
1000
0010
0001
0010
0001
1000
,
0100
0010
0100
0001
0010
1000
0100
1000
,
0010
0001
0100
0001
1000
1000
0010
0100
,
0001
0001
0001
0000
1001
0000
0100
1000
,
0010
0100
0001
0000
1001
0000
0110
0000
;

//---------------dance-single - ----------------
#NOTES:
     dance-single:
     :
     Hard:
     10:
     0.964,0.951,0.602,0.143,0.664,587.000,59.000,14.000,0.000,6.000:
0000
0000
0000
0000
0000
0000
0010
0001
0100
0010
1000
0100
0010
0001
0100
0000
,
0110
1001
0200
1310
1000
0001
0100
0001
,
1000
0010
0100
0001
0010
0001
1000
0010
,
0100
0000
0001
1000
0200
0000
0000
0000
0310
0000
0100
0000
1000
0000
0001
0000
,
0010
0000
0001
0000
0100
0010
1000
0000
0010
0000
0100
0000
0001
0000
1000
0000
,
0100
1100
0100
0000
0010
0001
1000
1000
,
0100
1000
0010
0100
0001
1000
0010
0100
,
0001
0010
0000
0011
0001
1000
0100
0010
,
0001
0010
0001
0100
0001
1000
0010
0001
,
0010
0000
1000
0000
0100
0000
0001
0100
1000
0000
0000
0000
1200
0000
0000
0000
,
1300
0001
0100
0001
1000
0001
0010
0000
,
0100
1000
0001
0021
0000
0031
0011
0001
,
1000
0001
0100
0010
1000
0001
0010
0001
,
0100
0010
1010
0000
0010
1000
0010
0001
,
0010
0000
0100
0000
0010
0000
1000
0001
0010
0000
0001
0000
0100
0000
0010
0000
,
1000
0101
1000
0110
0000
1000
0010
0100
,
1000
0000
0100
0000
0001
0000
0100
0000
0010
0000
0001
0000
1000
0100
0010
0000
,
0100
1000
0001
0100
1000
0000
0010
1001
,
0100
1001
0010
1001
0100
1001
0010
1001
,
0100
0000
1001
0000
0010
0000
1001
0000
1000
0100
0010
0001
0100
0000
1010
0000
,
0100
0011
0100
1010
0100
0011
1000
0110
,
0001
0000
0010
0000
1000
0000
0100
0000
0010
0100
1000
0000
0100
0000
0010
0001
,
1000
0100
0010
0000
0100
0000
1000
0010
0100
0001
1000
0000
0001
0000
0010
0000
,
0001
0100
0001
0000
1000
0001
1000
0100
1000
0100
0010
0000
0001
0000
0010
0001
,
0100
0010
1000
0010
0100
0000
0001
0000
1000
0000
0001
0000
0010
0000
0001
0000
,
1001
0201
0000
0000
0310
0000
1010
1001
,
0000
0100
0000
1001
0000
0011
0000
0010
,
0100
1000
0001
0100
0010
0000
0110
0000
,
0010
0000
1001
0000
0000
0011
0000
0101
,
0000
0100
1000
0001
0100
0010
1000
0010
,
0000
0100
1000
0001
0010
1000
0010
0001
,
0000
1000
0100
0010
0100
0000
1001
0000
,
0011
0000
0000
0000
0010
0000
0001
0000
1000
0000
0010
0000
0100
0000
0001
1000
,
0100
0010
0001
0100
0020
0000
0000
0000
1031
0000
1000
0000
0010
0000
0100
0001
,
0000
0001
1000
0100
0010
0001
0100
0010
1000
0000
1000
0010
0000
1000
0000
0010
,
0100
0000
0001
1000
0100
0010
0001
0100
0010
0000
1000
0010
0100
0000
0001
1000
,
0001
0010
0000
0001
0010
0001
0100
0010
1000
0010
0100
0001
1000
0001
0010
0001
,
0100
0000
0010
1000
0010
0100
0001
1000
0001
0000
1000
0000
0100
0000
1000
0100
,
0000
0100
1000
0100
0010
0100
0001
0000
0100
0000
0010
0000
0100
0010
0000
0010
,
0100
0001
1000
0100
0010
0000
0001
0000
0010
0000
0001
0010
0000
0010
0001
0100
,
0010
1000
0010
0000
0100
0001
1000
0000
0001
0000
0021
0000
2031
0000
3120
0000
,
0131
0000
0000
0000
0011
0000
1001
0000
1000
0001
1000
0000
0000
0000
0110
0000
,
0000
0000
1001
0000
0000
0000
1100
0000
0000
0000
0100
0010
0001
0010
0001
0000
,
1010
0000
0000
0000
0200
0000
0000
0000
0310
1000
0100
0000
0000
0000
1010
0000
,
0000
0000
0101
0000
0000
0000
1010
0000
0000
0000
0001
1000
0010
0000
0000
0000
,
0001
0010
0100
0000
0000
0000
0001
0000
0000
0000
1010
0000
0000
0000
0101
0000
,
0000
0000
0011
0000
0000
0000
0100
0010
1000
0100
0010
0001
0200
0000
0000
0000
,
1311
0000
0000
0011
0000
0110
0000
1100
,
1000
0001
1000
0000
1000
0001
0100
0000
0010
0000
0000
0000
1000
0000
0100
0000
,
0000
0000
0100
0000
0010
0100
1000
0000
0100
0000
0000
0000
0000
0000
0010
0000
,
0010
0100
0001
0000
0100
0000
0010
0000
1000
0000
0000
0000
0100
0000
0000
0000
,
0000
0101
0000
1010
0000
0101
0000
0020
,
0000
0000
0031
1000
0100
0010
2000
0000
3010
0001
0010
0000
0010
0000
0001
0010
,
0000
0010
0001
0000
1000
0000
0100
1000
0000
0010
0100
0000
0001
0000
1000
0001
,
0000
0001
0010
0000
0001
0000
0100
0010
0000
0010
0001
0000
1000
0000
0100
1000
,
0000
1000
0100
0000
0010
0000
0100
0001
0000
0001
1000
0000
0100
0010
0001
1000
,
0000
0100
0100
0000
0100
1000
0000
0010
0000
0100
0001
0000
1000
0001
0010
0001
,
0000
0001
0010
0001
0100
0000
0010
1000
0000
0010
0000
0100
0001
1000
0100
0010
,
0001
0001
0000
1000
0000
0100
1000
0010
0000
0100
0001
0000
1000
0001
0000
0010
,
0000
0001
0100
0000
0010
0000
1000
0010
0000
0100
0001
1000
0001
0010
0000
0001
,
0000
0100
0010
1000
0010
0100
0000
0001
1000
0100
0010
0000
0001
0000
1000
0000
,
0010
0100
0001
1000
0001
0100
0010
1000
,
0001
0010
0001
1000
0010
0100
0001
1000
,
0010
0100
0001
0010
0001
1000
0010
1000
,
0100
1000
0001
0100
0001
0010
1000
0010
,
0001
0100
1000
0100
0010
0100
0010
0001
,
1000
0001
0010
1000
0100
0001
1000
0100
,
0100
0000
1000
0000
0010
0000
0100
0000
0001
0000
1000
0000
0010
1000
0100
0000
,
0010
0001
0100
0000
0010
1000
0100
0010
0001
0100
0010
1000
0200
0000
0000
0000
,
0300
0000
0000
0000
;
