#TITLE:Swordsmen in the Plain;
#SUBTITLE:Dynasty Warriors 5;
#ARTIST:Toru Hasebe;
#TITLETRANSLIT:;
#SUBTITLETRANSLIT:;
#ARTISTTRANSLIT:;
#CREDIT:;
#BANNER:Swordsmen In The Plain.png;
#BACKGROUND:Swordsmen In The Plain-bg.png;
#LYRICSPATH:;
#CDTITLE:melonman67.png;
#MUSIC:Swordsmen In The Plain.mp3;
#OFFSET:2.540;
#SAMPLESTART:26.300;
#SAMPLELENGTH:11.840;
#SELECTABLE:YES;
#BPMS:0.000=149.980;
#STOPS:;
#BGCHANGES:;
// cache tags:
#FIRSTBEAT:7.000;
#LASTBEAT:392.000;
#SONGFILENAME:Songs/VGMP 2/Swordsmen In The Plain (Melonman67)/Swordsmen In The Plain.sm;
#HASMUSIC:1;
#HASBANNER:1;
#MUSICLENGTH:170.187;
// end cache tags

//---------------dance-single - Copied from----------------
#NOTES:
     dance-single:
     Copied from:
     Hard:
     11:
     1.000,1.000,1.000,0.552,0.664,947.000,245.000,94.000,0.000,0.000:
0000
0000
0000
0000
,
0000
0000
0000
0000
0000
0000
1000
0100
,
0021
0030
0110
1001
0100
0120
0001
0030
,
0012
0000
0003
0000
0101
0000
0000
1010
0101
0000
0012
0000
1000
0000
0003
0000
,
2001
3000
1010
0101
1000
0210
0301
0020
,
0130
0000
0010
0001
0120
0000
0001
0000
0000
0000
0031
0000
1001
0000
0100
0000
,
1200
0300
0110
1001
0010
0210
0001
0300
,
2001
0000
3000
0000
1010
0000
0000
0101
1010
0000
2100
0000
0001
0000
3000
0000
,
1002
0003
0101
1010
0001
0120
1030
0200
,
0310
0002
0000
1000
0000
1000
0000
0003
,
1000
0000
0010
0000
0101
0000
0001
1000
0010
0100
0001
0000
1100
0000
1000
0001
,
0100
0000
0010
0000
1001
0000
1000
0010
0100
0001
0010
0000
1100
0010
0001
0010
,
0100
0000
1000
0000
1001
0000
0001
0100
0010
1000
0100
0000
0011
0000
0001
1000
,
0010
0000
0100
0000
0101
0000
0010
1000
0100
0010
0001
0000
1001
0100
0010
0100
,
1000
0000
0100
0000
0022
0000
0033
0100
1000
0000
0100
0000
0022
0000
0033
0100
,
1000
0000
0100
0000
0022
0000
0033
0100
1000
0000
0100
0000
0010
0001
0010
0001
,
1000
0000
0001
0000
1001
0000
1000
0010
0100
0001
0010
0000
1100
0000
1000
0001
,
0100
0000
0010
0000
0101
0000
0100
0010
1000
0100
0010
0000
0011
0100
1000
0100
,
1001
0000
0011
0000
1001
0000
1100
0000
0001
0010
0100
2000
0000
3000
0012
0000
,
1003
0000
0101
0000
1001
0000
1010
0000
0010
0100
0001
0200
0000
0000
0310
0000
,
1000
0000
0011
0000
1100
0000
0011
0000
1000
0001
0100
0020
0000
2030
0001
3000
,
0010
0000
0101
0000
1100
0000
0101
0000
0100
0001
0000
0200
0000
0000
0310
0000
,
1001
0000
1010
0000
1100
0000
0010
0001
1000
0001
0010
0000
1001
0000
1000
0100
,
0011
0000
1001
0000
1100
0000
0001
1000
0010
0100
0001
0000
1001
0000
1000
0010
,
0101
0000
1010
0000
1001
0000
1000
0100
0001
0100
1000
0000
1100
0000
0010
0001
,
0110
0000
1100
0000
1001
0000
0001
1000
0010
0100
0010
0000
1010
0000
0100
0001
,
1010
0000
0010
1000
0100
0000
0010
0001
0100
0000
0010
1000
0100
0010
0001
1000
,
0001
0000
1000
0000
0011
0000
1000
0001
0100
0010
1000
0000
0101
0000
0010
1000
,
0100
0000
0010
0000
0011
0000
0001
1000
0010
0100
0001
0000
1001
0010
0100
1000
,
0001
0000
1000
0000
0101
0000
0001
1000
0010
0100
0001
0000
1010
0000
1000
0001
,
0100
0000
0010
0000
0110
0000
0100
0001
0010
0100
1000
0000
1010
0100
0001
1000
,
0001
0000
0100
0000
2020
0000
3030
0100
0001
0000
0100
0000
2020
0000
3030
0100
,
0001
0000
0100
0000
2020
0000
3030
0100
0001
0000
0100
0000
0010
1000
0010
1000
,
0100
0000
0010
0000
1001
0000
1000
0001
0100
0010
1000
0000
0101
0000
0010
1000
,
0100
0000
0010
0000
0011
0000
0001
1000
0010
0100
0001
0000
1001
0010
0100
1000
,
0001
0000
0101
0000
1001
0000
1100
0000
0001
0010
0100
2000
0000
3000
0012
0000
,
1003
0000
1010
0000
0101
0000
0110
0000
0010
1000
0100
0020
0000
0000
0031
0000
,
1000
0000
0011
0000
1100
0000
1001
0000
0001
0100
0010
2000
0000
3002
1000
0003
,
0100
0000
0011
0000
1100
0000
1001
0000
0001
0100
0000
0002
0000
0000
1003
0000
,
1001
0000
1010
0000
0101
0000
0001
1000
0100
0001
0100
0000
1100
0000
1000
0001
,
1010
0000
0101
0000
0011
0000
0010
0100
1000
0100
0010
0000
0011
0000
0001
1000
,
0011
0000
0110
0000
1100
0000
1000
0001
0100
0010
1000
0000
1001
0000
0100
0001
,
1010
0000
0101
0000
0101
0000
0101
0000
0100
0001
0000
0200
0000
0000
0300
0000
,
1001
0100
0001
0000
1001
0000
0002
0000
1003
0000
0001
0000
1100
0000
1000
0010
,
1001
0010
1000
0000
1010
0000
2000
0000
3010
0000
0200
0000
0301
0000
1000
0010
,
1001
0100
0010
0000
0011
0000
0002
0000
1003
0000
0001
0000
1010
0000
0001
0100
,
1010
0000
0002
0000
1000
0000
0013
0000
1002
0000
0010
0000
1003
0000
0010
0100
,
1001
0010
0001
0000
1100
0000
0120
0000
0031
0000
1000
0000
0011
0000
1000
0010
,
1001
0100
0001
0000
1001
0000
0201
0000
0310
0000
1020
0000
1030
0000
0100
0010
,
0101
1000
0100
0000
1100
0000
0002
0000
1003
0000
0001
0000
0011
0000
0001
0100
,
1010
0102
0010
1003
0102
0010
1000
0013
,
1001
0000
1100
0000
1001
0000
0011
0000
1000
0100
0010
0002
0000
0003
2100
0000
,
3001
0000
1010
0000
1001
0000
0101
0000
0100
0010
1000
0020
0000
0000
0130
0000
,
0001
0000
1100
0000
0011
0000
1100
0000
0001
1000
0010
0200
0000
0301
1000
0000
,
0100
0000
1010
0000
0011
0000
1010
0000
0010
1000
0000
0020
0000
0000
0130
0000
,
1001
0000
0101
0000
0011
0000
0100
1000
0001
1000
0100
0000
1001
0000
0001
0010
,
1100
0000
1001
0000
0011
0000
1000
0001
0100
0010
1000
0000
1001
0000
0001
0100
,
1010
0000
0101
0000
1001
0000
0001
0010
1000
0010
0001
0000
0011
0000
0100
1000
,
0110
0000
0011
0000
1001
0000
1000
0001
0100
0010
0100
0000
0101
0000
0010
1000
,
0101
0000
0010
1000
0100
0000
0010
0100
2000
0000
3100
0010
0200
0010
0301
1000
,
0021
0000
0001
0000
0100
0000
0000
1000
1000
0000
0001
0000
0100
0000
1030
0000
,
0002
0000
0010
0000
1003
0000
0020
0100
0100
0000
0031
0000
0210
0000
0310
0000
,
2001
0000
0100
0000
0001
0000
0000
0001
0001
0000
0001
0000
0100
0000
3010
0000
,
0120
0000
0100
0000
0001
0000
0030
0100
0210
0000
0010
0000
0001
0000
0310
0000
,
1020
0000
1000
0000
0001
0000
0000
1000
1000
0000
1000
0000
0001
0000
1030
0000
,
0102
0000
0100
0000
0013
0000
0020
0100
1000
0000
0130
0000
1200
0000
0310
0000
,
2001
0000
0001
0000
0010
0000
0000
0001
0001
0000
0100
0000
0010
0000
3100
0000
,
0210
0000
0001
0000
0010
0000
0300
0001
0021
0000
0001
0000
1000
0000
0031
0000
,
0001
0000
1000
0000
0011
0000
1000
0001
1000
0010
1000
0001
0110
0000
0100
0000
,
1000
0000
0010
0000
0101
0000
0010
1000
0100
0000
0010
0000
1001
0000
1000
0000
,
0010
0000
0100
0001
1010
0100
0010
0001
1000
0000
0100
0000
0101
0000
0100
0000
,
1000
0000
0100
0010
1001
0000
1000
0000
0001
0000
1000
0010
0101
0000
0001
0000
,
1000
0000
0100
0000
0011
0000
1000
0001
0100
0010
1000
0100
0011
0000
0001
0000
,
1000
0000
0010
1000
0101
0000
0010
0000
1000
0000
0100
0010
1001
0100
0010
0001
,
0010
0100
1010
0100
0001
0010
0011
1000
,
0001
0010
0110
0100
1000
0001
1100
0100
,
1001
0000
0010
0000
1000
0000
0001
1000
0010
0100
0001
0000
1000
0000
0001
0100
,
1001
0000
0100
0000
0001
0000
1010
0100
0001
1000
0001
0000
1100
0000
1000
0100
,
0011
0000
0001
0000
1000
0000
0001
0100
0010
1000
0100
0000
0010
0000
0001
1000
,
0011
0000
0100
0000
1000
0000
0010
0100
1001
0010
0100
0000
1000
0000
0100
1000
,
0011
0000
1000
0000
0001
0000
1000
0010
0100
0001
1000
0000
0100
0000
0010
0001
,
0110
0000
1000
0000
0001
0000
1010
0001
0100
0010
1000
0000
0101
0000
0010
0100
,
1001
0000
0010
0000
0100
0000
1000
0001
1000
0010
0100
0000
0001
0000
0010
0100
,
1001
0000
0100
0000
0010
0000
0001
1000
0011
0100
1000
0000
0001
0000
1000
0100
,
0021
0000
0001
0000
1000
0000
0001
1000
0100
0000
1000
0000
0001
0000
0130
0010
,
1002
0000
0100
0000
0013
0000
0021
0100
0001
0000
0130
0000
1200
0000
1300
0001
,
2010
0000
0001
0000
0100
0000
3010
0100
1002
0000
0010
0000
1000
0000
0103
0010
,
0201
0000
0010
0000
1000
0000
0001
0010
0001
0000
1000
0000
0001
0000
0310
1000
,
0102
0000
0013
0000
0120
0000
0130
1000
0210
0000
1300
0000
2001
0000
3001
0010
,
1200
0000
1000
0000
0001
0000
1300
0001
1000
0000
0210
0000
0310
0000
1200
0310
,
1001
0000
0001
0000
1100
0000
1000
0001
0100
0010
1000
0000
0011
0000
0001
1000
,
0010
0000
0100
0000
1001
0000
0001
0100
0010
1000
0100
0000
0011
0100
1000
0100
,
0010
0000
0001
0000
1001
0000
1000
0010
0100
0001
0010
0000
1100
0000
1000
0001
,
0100
0000
0010
0000
1010
0000
0100
0001
0010
0100
1000
0000
1001
0010
0100
0010
,
0001
0000
0010
0000
2200
0000
3300
0010
0001
0000
0010
0000
2200
0000
3300
0010
,
0001
0000
0010
0000
2200
0000
3300
0010
0001
0000
0010
0000
0100
1000
0100
1000
,
0001
0000
1000
0000
1001
0000
0001
0100
0010
1000
0100
0000
0011
0000
0001
1000
,
0010
0000
0100
0000
1010
0000
0010
0100
0001
0010
0100
0000
1100
0010
0001
0010
,
1001
0000
0000
0000
;
