#TITLE:Definitive KeyBoard MegaPack Theme;
#SUBTITLE:;
#ARTIST:KBSP Creators;
#TITLETRANSLIT:;
#SUBTITLETRANSLIT:;
#ARTISTTRANSLIT:;
#CREDIT:Leone510, Cxt!, SonicX, Cibersammy, B4-NoA, TyperMARS, OldCartoon, Distegard159, KOMBO.;
#BANNER:Definitive ban.png;
#BACKGROUND:Background.png;
#LYRICSPATH:;
#CDTITLE:cdtitle.png;
#MUSIC:Definitive KeyBoard MegaPack Theme.mp3;
#OFFSET:1.686;
#SAMPLESTART:1.760;
#SAMPLELENGTH:26.280;
#SELECTABLE:YES;
#BPMS:0.000=138.010;
#STOPS:;
#BGCHANGES:8.000=KOMBO=1.000=0=0=1,
18.000=Cxt!=1.000=0=0=1,
28.000=B4-NoA=1.000=0=0=1,
38.000=Disregard159=1.000=0=0=1,
48.000=Leone510=1.000=0=0=1,
58.000=KillerSxK=1.000=0=0=1,
68.000=OldCartoon=1.000=0=0=1,
78.000=SonicX=1.000=0=0=1,
88.000=TypeMARS=1.000=0=0=1,
100.000=Alejostone=1.000=0=0=1,
111.000=B4-NoA=1.000=0=0=1,
121.000=Cibersammy=1.000=0=0=1,
131.000=Cxt!=1.000=0=0=1,
141.000=Disregard159=1.000=0=0=1,
151.000=KillerSxK=1.000=0=0=1,
162.000=KOMBO=1.000=0=0=1,
172.000=Leone510=1.000=0=0=1,
182.000=TypeMARS=1.000=0=0=1,
194.000=SonicX=1.000=0=0=1,
196.000=All Steppers=1.000=0=0=1,
99999=-nosongbg-=1.000=0=0=0 // don't automatically add -songbackground-
;
// cache tags:
#FIRSTBEAT:8.000;
#LASTBEAT:208.000;
#SONGFILENAME:Songs/Definitive Keyboard Megapack/Definitive KeyBoard Megapack Theme  (KBSP Creators)/Definitive KeyBoard MegaPack Theme.sm;
#HASMUSIC:1;
#HASBANNER:1;
#MUSICLENGTH:99.194;
// end cache tags

//---------------dance-single - KOMBO----------------
#NOTES:
     dance-single:
     KOMBO:
     Hard:
     12:
     1.000,1.000,1.000,0.050,1.000,621.000,108.000,5.000,0.000,0.000:

0000
0000
0000
0000
,
0000
0000
0000
0000
,
1001
0000
0000
0000
0000
1000
0000
0100
,
0000
0000
0000
0000
0000
0000
0001
0000
0000
0000
0000
0000
0000
0000
0000
0000
0000
0000
1000
0000
0000
0000
0000
0000
0001
0000
0000
0000
0000
0000
0000
0000
0000
0000
0000
0000
0010
0000
0000
0000
0000
0000
0000
0000
0000
1000
0001
0100
,
0010
0000
0000
0000
0000
0001
0000
1000
,
0000
0010
0000
0001
0000
0100
0000
0010
,
0001
0010
0001
0000
0000
0000
0000
1000
,
0000
0100
0000
0001
0000
0100
0000
0010
,
0100
0010
0100
0000
0000
0000
0000
0000
,
0000
0000
0000
0000
0000
0000
0000
0000
0000
0000
0000
0000
0000
0000
0000
0000
0000
0000
1000
0000
0000
0000
0001
1000
0100
0000
0001
0000
1000
0000
0010
0000
,
1001
0000
0011
0000
1100
0010
0101
0100
,
1010
0000
0000
0000
0000
0000
1000
0000
0000
0000
0000
0000
0101
0000
0000
0000
0000
0000
0001
0000
0000
0000
0000
0000
1010
0000
0000
0000
0000
0000
0000
0000
0000
0000
0000
0000
0110
0000
0000
0000
0000
0000
0000
0000
0000
0100
0001
1000
,
0020
0030
0000
0000
0000
0000
0000
0000
0000
0000
0000
0000
1100
0000
0000
0000
0000
0000
0000
0000
0000
0000
0000
0000
0011
0000
0000
0000
0000
0000
0100
0000
0000
0000
0000
0000
1001
0000
0000
0000
0000
0000
0001
0000
0000
0000
0000
0000
,
1100
0100
0011
0001
1100
0001
0110
1000
,
0011
0100
1100
0010
0011
0000
0101
0010
,
1001
0001
0110
0100
1001
0001
1010
0100
,
0101
0010
1010
1000
0110
0000
1001
0000
,
0001
1000
0001
1000
0001
1000
0001
1000
0001
1000
0001
1000
0001
1000
0001
1000
,
1001
0100
0001
0100
1010
0100
0001
1000
0100
1000
0010
0100
1001
0100
0010
1000
,
0001
0100
0010
0100
1001
0100
0010
0100
0001
1000
0010
1000
0011
0100
0010
0100
,
0001
1000
0010
0100
1001
0100
1000
0010
1000
0010
0001
0010
1100
0010
0100
0001
,
1000
0000
0010
0000
0100
0000
0001
0000
1100
0000
0010
0000
0100
0000
0001
0000
1000
0000
0010
0000
0100
0000
0001
0000
0110
0000
1000
0100
0001
0000
0100
0000
,
0010
1000
0001
0100
0011
1000
0001
0100
0010
0100
0001
0010
1001
0100
0010
0100
,
0001
0100
0010
0100
1010
0100
0001
0010
0100
0010
1000
0001
1100
0010
0100
0001
,
1000
0010
0100
0001
1100
0010
0100
0001
0100
0010
1000
0010
0101
0010
0100
0001
,
0100
0000
0010
0000
1000
0000
0001
0000
1100
0000
0010
0000
0100
0000
0001
0000
1000
0000
0010
0000
1000
0000
0001
0000
1100
0000
0001
1000
0100
0000
0010
0000
,
0100
1000
0001
1000
0011
1000
0001
0100
0010
0100
0010
0100
1001
0100
0010
1000
,
0001
0100
0010
1000
0011
0100
0010
1000
0100
1000
0001
1000
0011
0100
0010
1000
,
0001
1000
0001
0100
1010
0100
0001
0100
0010
1000
0001
0100
0011
1000
0001
0100
,
0001
0000
1000
0000
0010
0000
0100
0000
1001
0000
0010
0000
1000
0000
0001
0000
0100
0000
0001
0000
1000
0000
0010
0000
1100
0000
0010
0001
0100
0000
0010
0000
,
1000
0001
1000
0001
0110
1000
0001
1000
0100
0001
1000
0010
0101
1000
0010
1000
,
0001
0100
0010
1000
0011
0100
0010
0100
0001
1000
0010
1000
0011
0100
0010
1000
,
0001
1000
0010
0100
0011
0100
0001
1000
0010
1000
0001
0100
1010
0001
0100
0010
,
1000
0001
1000
0001
1000
0001
1000
0001
1000
0001
1000
0001
1000
0001
1000
0001
,
1001
0100
1000
0010
1100
0001
1000
0010
0101
1000
0001
1000
0110
0001
1000
0100
,
0011
0000
0000
1000
0000
0000
0001
0000
0000
0100
0000
0000
1010
0000
0000
0100
0000
0000
0001
0000
0000
1000
0000
0000
0110
0000
0000
1000
0000
0000
0001
0000
0000
0100
0000
0000
0011
0000
0000
1000
0000
0000
0100
0000
0000
0001
1000
0010
,
0200
0300
0000
1000
0000
0000
0001
0000
0000
1000
0000
0000
0110
0000
0000
0001
0000
0000
0100
0000
0000
0010
0000
0000
1100
0000
0000
0010
0000
0000
0001
0000
0000
1000
0000
0000
0011
0000
0000
1000
0000
0000
0001
0000
0000
0100
0000
0000
,
1001
0100
0001
1000
0110
1000
0001
0100
1010
0100
0001
1000
0011
0100
0001
1000
,
0110
0001
0100
0010
1100
0001
0100
0010
1001
0100
0010
0100
1001
0100
0010
1000
,
0110
1000
0001
0100
1001
0100
0001
0100
1010
0100
0001
0100
1001
0100
0010
0100
,
0011
1000
0001
0100
1001
0100
0001
1000
0011
0100
0010
0100
1001
0010
0100
0001
,
1100
0010
0100
0010
1001
0100
0001
1000
0110
1000
0001
0100
1001
0100
0011
0100
,
1001
0010
1000
0001
1100
0001
0100
0001
1000
0010
1000
0010
0101
1000
0001
0100
,
0010
0000
0000
1000
0000
0000
0001
0000
0000
0100
0000
0000
1001
0000
0000
0100
0000
0000
0010
0000
0000
1000
0000
0000
0001
0000
0000
1000
0000
0000
0100
0000
0000
1000
0000
0000
0011
0000
0000
0100
0000
0000
0010
0000
0000
1000
0100
0001
,
0020
0030
0000
1000
0000
0000
0010
0000
0000
0100
0000
0000
1001
0000
0000
0100
0000
0000
0010
0000
0000
0100
0000
0000
0001
0000
0000
0100
0000
0000
0010
0000
0000
1000
0000
0000
0011
0000
0000
1000
0000
0000
0001
0000
0000
0100
0000
0000
,
0010
1000
0100
0001
0110
1000
0010
0100
0011
0100
0001
1000
0101
0010
1000
0010
,
0100
0001
0100
0010
1100
0001
1000
0001
0100
0010
1000
0001
1100
0010
1000
0001
,
0100
0010
0100
0001
1100
0010
0100
0001
1000
0010
0100
0001
1100
0010
0100
0001
,
1000
0001
0100
0010
1001
0100
0001
1000
0001
0100
0010
1000
0110
1000
0010
0100
,
0001
0100
0010
1000
0001
1000
0001
1000
0001
1000
0001
1000
0001
1000
0001
1000
,
2002
0000
0000
0000
,
0000
0000
0000
0000
,
3003
0000
0000
0000
;
