#TITLE:On The Break;
#SUBTITLE:;
#ARTIST:Mrmilkcarton;
#TITLETRANSLIT:;
#SUBTITLETRANSLIT:;
#ARTISTTRANSLIT:;
#CREDIT:owenviau1;
#BANNER:../owenviau1 Simfiles 5-bn.png;
#BACKGROUND:BG.PNG;
#LYRICSPATH:;
#CDTITLE:../ov1_title.png;
#MUSIC:On The Break - Mrmilkcarton.mp3;
#OFFSET:-0.028;
#SAMPLESTART:123.356;
#SAMPLELENGTH:29.999;
#SELECTABLE:YES;
#DISPLAYBPM:140.000;
#BPMS:0.000=70.000,144.000=140.000;
#STOPS:;
#BGCHANGES:;
// cache tags:
#FIRSTBEAT:0.000;
#LASTBEAT:400.000;
#SONGFILENAME:Songs/owenviau1 Simfiles 5/On The Break - [owenviau1] v1.3/On The Break.sm;
#HASMUSIC:1;
#HASBANNER:1;
#MUSICLENGTH:233.195;
// end cache tags

//---------------dance-single - ----------------
#NOTES:
     dance-single:
     :
     Hard:
     10:
     0.659,1.000,0.026,0.099,0.701,1047.000,6.000,23.000,137.000,0.000:


2MM1
0MM0
0MMM
0MMM
0MMM
0MMM
0MMM
0MMM
0MMM
0MMM
0MMM
0MMM
0MMM
00MM
02MM
00MM
,
30MM
000M
M02M
M00M
M30M
M00M
MM0M
MM0M
MM00
MM02
MM00
MM30
0M00
2MM0
0MM0
0MM3
,
0M00
0M2M
0M0M
3M0M
0M0M
MM0M
MM0M
MM0M
M00M
M20M
M00M
M030
M002
M0M0
M3M0
M0M0
,
0MM0
2MM0
0MM0
0MM3
0MMM
0MMM
0MMM
0MMM
0MM0
0MM2
0MM0
3MM0
0MM0
0000
0000
0000
,
0020
0003
0000
0000
0000
0000
0000
0200
,
0030
2000
0300
0000
0200
3000
0020
0300
,
0000
0002
0030
0000
0000
0000
0000
0000
,
0000
0020
0003
0000
0200
0030
0000
0000
,
1300
0100
0100
0010
0001
0001
0100
0010
0010
1000
0001
0001
1000
0100
0010
0001
,
0100
0010
0010
1000
0001
0001
1000
0010
0010
0100
0001
0010
0100
1000
0001
0100
,
0010
1000
1000
0001
0010
0010
0100
1000
1000
0001
1000
0100
0001
0100
1000
0010
,
0001
0100
0100
0010
1000
1000
0001
0010
0010
0100
1000
0001
0100
0010
1000
0010
,
1001
0010
0100
0001
1000
0001
0100
0010
1000
0100
0010
0001
1000
0010
0100
0001
,
0100
0010
1000
0100
0010
0001
0010
0100
1000
0001
1000
0001
0100
0010
0001
0100
,
1000
0001
1000
0100
0010
0001
0010
0100
0010
0001
1000
0001
0100
0010
1000
0100
,
1000
0001
0100
0010
1000
0100
0010
0001
1000
0100
1000
0010
0001
0100
1000
0001
,
0010
0001
1000
0010
0100
0001
0010
0100
1000
0001
0100
0010
1000
0010
0100
0001
,
1000
0010
0100
1000
0001
0010
1000
0010
0100
0001
0100
0001
0010
0100
0010
0100
,
0010
0001
1000
0010
0100
0001
1000
0100
1000
0001
0100
0001
0010
0100
1000
0001
,
0100
0010
1000
0100
0010
0001
0010
0100
1000
0001
0100
0010
1000
0100
0001
0010
,
0100
0000
1000
0001
1000
0000
0001
0000
1000
0010
0100
0000
1000
0000
0001
0000
0100
0000
1000
0100
0010
0000
0001
0000
1000
0001
0010
0000
0001
0000
0100
0000
,
0010
0000
1000
0100
0010
0000
0100
0000
1000
0100
0010
0000
0001
0000
1000
0000
0010
0000
1000
0001
1000
0000
0001
0000
1000
0100
0010
0000
0001
0000
0010
0000
,
0100
0000
0001
1000
0001
0000
0010
0000
0100
1000
0010
0000
1000
0000
0001
0000
0010
0000
0100
0001
0100
0000
0010
0000
0001
1000
0100
0000
0010
0000
1000
0000
,
0100
0000
0001
1000
0001
0000
0100
0000
0001
1000
0001
0000
0100
0000
0001
0000
1000
0000
0010
0100
0001
0000
1000
0000
0001
1000
0100
0000
0001
0000
0100
0000
,
0010
0000
0001
1000
0001
0000
0100
0000
0001
1000
0010
0000
1000
0000
0010
0000
0100
0000
0001
1000
0100
0000
0010
0000
0001
1000
0001
0000
0010
0000
0100
0000
,
1000
0000
0001
1000
0100
0000
0010
0000
0001
0100
0001
0000
1000
0000
0010
0000
0100
0000
0001
1000
0001
0000
1000
0000
0001
0100
0010
0000
1000
0000
0001
0000
,
0100
0000
0001
1000
0100
0000
1000
0000
0100
1000
0001
0000
0100
0000
0010
0000
1000
0000
0001
0100
0001
0000
1000
0000
0001
0100
0010
0000
1000
0000
0100
0000
,
0010
0000
0100
0001
1000
0000
0100
0000
0001
0010
0001
0000
0100
0000
0001
0000
0100
0000
0010
0001
0010
0000
0100
0000
0001
1000
0100
0000
0010
0000
0001
0000
,
0010
0000
1000
0001
1000
0000
0001
0000
1000
0010
0100
0000
1000
0000
0001
0000
0100
0000
1000
0100
0010
0000
0001
0000
1000
0001
0010
0000
0100
0000
0010
0000
,
0001
0000
1000
0100
0010
0000
0001
0000
0001
1000
0010
0000
0001
0000
1000
0000
0010
0000
1000
0001
1000
0000
0001
0000
1000
0100
0010
0000
0001
0000
0100
0000
,
0010
0000
1000
0001
1000
0000
0010
0000
0001
1000
0010
0000
1000
0000
0100
0000
0010
0000
0100
0001
0100
0000
0010
0000
0100
1000
0100
0000
0001
0000
1000
0000
,
0001
0000
1000
0100
1000
0000
0001
0000
0010
0100
0010
0000
1000
0000
0001
0000
0010
0000
0100
0001
1000
0000
0010
0000
0001
0100
0001
0000
0010
0000
0100
0000
,
0010
0000
1000
0001
0100
0000
1000
0000
0001
1000
0010
0000
0100
0000
0001
0000
1000
0000
0001
0100
0010
0000
1000
0000
0010
0100
0001
0000
0010
0000
0100
0000
,
1000
0000
0100
0010
0001
0000
1000
0000
0001
0100
0010
0000
1000
0000
0001
0000
0010
0000
0100
0001
1000
0000
0001
0000
0010
1000
0100
0000
0010
0000
0001
0000
,
1000
0000
0010
0001
1000
0000
0010
0000
0001
0100
0001
0000
1000
0000
0001
0000
0100
0000
0010
1000
0001
0000
0100
0000
1000
0010
1000
0000
0100
0000
0010
0000
,
0100
0000
0000
0000
0000
0000
0001
0000
0000
1000
0000
0000
0100
0000
0000
0000
0000
0000
0001
0000
0000
0000
0000
0000
0010
0000
0000
0100
0000
0000
0001
0000
0000
0000
0000
0000
1000
0000
0000
0000
0000
0000
0001
0000
0000
0000
0000
0000
1000
0000
0000
0010
0000
0000
1000
0000
0000
0010
0000
0000
1000
0000
0000
0001
0000
0000
1000
0000
0000
0001
0000
0000
2000
0000
0000
0000
3200
0000
0000
0000
0320
0000
0000
0000
0030
0000
0000
1000
0000
0000
0001
0000
0000
0000
0000
0000
,
1100
0100
0010
0001
1000
0010
0100
0001
,
0010
0001
1000
0001
0100
0010
1000
0100
,
0010
0001
0100
0010
1000
0100
0010
0001
,
0100
0010
1000
0001
0010
0001
1000
0001
,
0100
0010
1000
0100
0010
0001
1000
0100
,
1000
0010
0100
0001
0010
0001
1000
0001
,
0100
0010
1000
0100
0010
0001
1000
0010
,
1000
0001
0100
0010
1000
0100
0010
0001
,
0010
0100
1000
0001
0100
0010
1000
0001
,
0100
0010
0001
1000
0100
0010
0001
0100
,
1000
0100
0001
0010
0001
1000
0010
0001
,
0100
0010
1000
0100
0010
0001
1000
0100
,
1000
0010
0100
0001
0010
0001
1000
0001
,
0100
0010
1000
0100
0010
0001
0100
0010
,
1000
0001
0010
0001
1000
0001
0100
0010
,
1000
0100
1000
0001
1000
0010
0100
0001
,
1001
0100
0010
1000
0100
0010
0001
0100
,
0010
1000
0001
0010
0001
0100
0010
1000
,
0100
0010
0001
1000
0010
1000
0100
0010
,
0001
0100
0010
1000
0001
0010
0001
1000
,
0001
0100
0010
1000
0100
0010
0001
0010
,
0100
1000
0001
0100
0010
1000
0100
1000
,
0010
0100
0001
0010
0001
1000
0001
0100
,
0010
1000
0100
0010
0001
0100
0010
1000
,
0001
0010
0001
0100
0010
1000
0100
0010
,
0001
0100
0010
1000
0001
0010
0100
1000
,
0001
0100
0010
1000
0100
1000
0010
0100
,
0001
0010
0001
1000
0001
0100
0010
1000
,
0100
0010
0001
0100
0010
1000
0001
0100
,
0010
1000
0100
0010
0001
0100
0010
1000
,
0010
0100
0010
1000
0001
0100
0001
0010
,
0100
1000
0010
0100
0001
1000
0100
0010
,
1001
0001
0100
0001
1000
0001
0100
0010
,
1000
0100
1000
0010
1000
0001
1000
0010
,
0100
0001
0010
0100
1000
0010
0100
0001
,
0010
0001
0100
0010
1000
0001
0010
0001
,
1000
0010
0100
0001
0010
0100
1000
0001
,
0100
0010
1000
0100
0010
0001
1000
0010
,
0100
0001
0010
0100
1000
0010
1000
0001
,
0100
0001
0010
0001
1000
0010
0100
0001
,
0010
0100
1000
0010
0100
0001
1000
0001
,
0100
0001
0010
0100
1000
0010
0100
0001
,
1000
0010
0100
0010
1000
0001
0100
0010
,
0100
0001
0010
0001
1000
0010
0100
0001
,
0010
0100
1000
0010
0100
0001
0010
0001
,
1000
0100
0010
0001
0100
0010
1000
0001
,
1000
0010
1000
0100
0010
0001
0100
0001
,
1000
0100
1000
0010
0100
0001
1000
0100
,
0110
0001
1000
0100
0010
0001
1000
0010
,
0100
0001
0010
0100
1000
0010
0100
0001
,
1000
0001
0010
0001
1000
0010
0100
0001
,
0010
0100
1000
0100
1000
0010
0100
0001
,
1000
0001
0010
0001
0100
0010
1000
0100
,
1000
0010
0100
0001
1000
0001
0010
0001
,
1000
0010
0100
0001
0010
0100
1000
0010
,
1000
0100
0010
0001
0100
0010
1000
0001
,
1000
0100
1000
0010
0100
0001
0010
0001
,
0100
0010
1000
0010
0100
0001
0010
0100
,
1000
0010
0100
0001
1000
0001
0010
0001
,
0100
0010
1000
0100
1000
0001
0100
0010
,
1000
0001
0010
0001
1000
0010
0100
0001
,
0010
0100
1000
0010
0100
0001
1000
0001
,
0010
0001
0100
0010
1000
0001
0010
0100
,
1000
0000
0001
0000
1000
0000
0001
0000
1000
0000
0001
0000
1000
0000
0001
0000
2000
0000
0000
0000
0000
0000
0000
0000
3000
0000
0000
0000
0000
2000
0000
0000
,
3000
0000
0000
0000
;

//---------------dance-single - ----------------
#NOTES:
     dance-single:
     :
     Challenge:
     12:
     0.914,1.000,1.000,0.099,0.971,1173.000,296.000,23.000,141.000,0.000:

2MM1
0MM0
0MMM
0MMM
0MMM
0MMM
0MMM
0MMM
0MMM
0MMM
0MMM
0MMM
0MMM
00MM
02MM
00MM
,
30MM
000M
M02M
M00M
M30M
M00M
MM0M
MM0M
MM00
MM02
MM00
MM30
0M00
2MM0
0MM0
0MM3
,
0M00
0M2M
0M0M
3M0M
0M0M
MM0M
MM0M
MM0M
M00M
M20M
M00M
M030
M002
M0M0
M3M0
M0M0
,
0MM0
2MM0
0MM0
0MM3
0MMM
0MMM
0MMM
0MMM
0MM0
0MM2
0MM0
3MM0
0MM0
0000
0000
0000
,
0020
0003
0000
0000
0000
0000
0000
0200
,
0030
2000
0300
0000
0200
3000
0020
0300
,
0000
0002
0030
0000
0000
0000
0000
0000
,
0000
0020
0003
0000
0200
0030
0000
0000
,
1300
0100
0100
0010
0001
0001
0100
0010
0010
1000
0001
0001
1000
0100
0010
0001
,
0100
0010
0010
1000
0001
0001
1000
0010
0010
0100
0001
0010
0100
1000
0001
0100
,
0010
1000
1000
0001
0010
0010
0100
1000
1000
0001
1000
0100
0001
0100
1000
0010
,
0001
0100
0100
0010
1000
1000
0001
0010
0010
0100
1000
0001
0100
0010
1000
0010
,
1001
0010
0100
0001
1000
0001
0100
0010
1000
0100
0010
0001
1000
0010
0100
0001
,
0100
0010
1000
0100
0010
0001
0010
0100
1000
0001
1000
0001
0100
0010
0001
0100
,
1000
0001
1000
0100
0010
0001
0010
0100
0010
0001
1000
0001
0100
0010
1000
0100
,
1000
0001
0100
0010
1000
0100
0010
0001
1000
0100
1000
0010
0001
0100
1000
0001
,
0010
0001
1000
0010
0100
0001
0010
0100
1000
0001
0100
0010
1000
0010
0100
0001
,
1000
0010
0100
1000
0001
0010
1000
0010
0100
0001
0100
0001
0010
0100
0010
0100
,
0010
0001
1000
0010
0100
0001
1000
0100
1000
0001
0100
0001
0010
0100
1000
0001
,
0100
0010
1000
0100
0010
0001
0010
0100
1000
0001
0100
0010
1000
0100
0010
0001
,
0110
0000
1000
0001
1000
0000
0101
0000
1000
0010
0100
0000
1001
0000
0001
0000
0101
0000
1000
0100
0010
0000
1001
0000
1000
0001
0010
0000
0101
0000
0100
0000
,
0110
0000
1000
0100
0010
0000
0101
0000
0001
1000
0010
0000
1001
0000
1000
0000
0110
0000
1000
0001
1000
0000
0011
0000
1000
0100
0010
0000
1001
0000
0011
0000
,
0110
0000
0001
1000
0001
0000
0101
0000
0001
1000
0010
0000
1010
0000
0010
0000
0110
0000
0100
0001
0100
0000
1001
0000
0001
1000
0100
0000
1100
0000
0110
0000
,
0011
0000
0001
1000
0001
0000
0101
0000
0001
1000
0001
0000
0101
0000
0001
0000
1010
0000
0010
0100
0001
0000
1001
0000
0001
1000
0100
0000
1100
0000
0100
0000
,
0110
0000
0001
1000
0001
0000
0101
0000
0001
1000
0010
0000
1010
0000
0110
0000
0101
0000
0001
1000
0100
0000
1001
0000
0100
0010
0001
0000
0011
0000
0100
0000
,
0110
0000
0100
1000
0100
0000
1001
0000
0001
0100
0001
0000
1010
0000
0010
0000
0110
0000
0001
1000
0001
0000
1001
0000
0001
0100
0010
0000
1010
0000
0101
0000
,
0110
0000
0001
1000
0100
0000
1001
0000
0100
1000
0001
0000
0101
0000
0010
0000
1001
0000
0001
0100
0001
0000
1001
0000
0001
0100
0010
0000
1010
0000
0010
0000
,
0110
0000
0100
0001
1000
0000
1100
0000
0100
0010
0001
0000
0110
0000
0001
0000
1100
0000
1000
0001
0010
0000
0101
0000
0001
1000
0100
0000
1010
0000
0001
0000
,
0110
0000
1000
0001
1000
0000
0101
0000
1000
0010
0100
0000
1001
0000
0001
0000
0101
0000
1000
0100
0010
0000
1001
0000
1000
0001
0010
0000
0101
0000
0100
0000
,
0110
0000
1000
0100
0010
0000
0101
0000
0001
1000
0010
0000
1001
0000
1000
0000
0110
0000
1000
0001
1000
0000
0011
0000
1000
0100
0010
0000
1001
0000
0001
0000
,
0110
0000
0001
1000
0001
0000
0101
0000
0001
1000
0010
0000
1010
0000
0010
0000
0110
0000
0100
0001
0100
0000
1001
0000
0001
1000
0100
0000
1001
0000
0100
0000
,
0011
0000
1000
0100
1000
0000
1001
0000
0001
0100
0010
0000
1010
0000
0010
0000
0110
0000
0100
0001
1000
0000
1100
0000
0100
0010
0001
0000
0110
0000
0100
0000
,
1100
0000
1000
0001
0100
0000
1010
0000
0001
1000
0010
0000
0110
0000
0001
0000
1001
0000
0001
0100
0010
0000
1010
0000
0010
0100
0001
0000
0011
0000
0100
0000
,
1100
0000
0100
0010
0001
0000
1001
0000
0001
0100
0010
0000
1010
0000
0010
0000
0110
0000
0100
0001
1000
0000
1001
0000
0001
1000
0100
0000
1100
0000
0100
0000
,
0110
0000
0010
0001
1000
0000
1001
0000
0001
0100
0001
0000
1001
0000
0001
0000
0101
0000
0010
1000
0010
0000
0110
0000
1000
0010
1000
0000
1010
0000
0010
0000
,
0101
0000
0000
0000
0000
0000
0000
0000
0000
0000
0000
0000
0001
0000
0000
0000
0000
0000
1000
0000
0000
0000
0000
0000
0100
0000
0000
0000
0000
0000
0000
0000
0000
0000
0000
0000
0011
0000
0000
0000
0000
0000
0000
0000
0000
0000
0000
0000
0010
0000
0000
0000
0000
0000
0100
0000
0000
0000
0000
0000
1000
0000
0000
0000
0000
0000
0000
0000
0000
0000
0000
0000
1001
0000
0000
0000
0000
0000
0000
0000
0000
0000
0000
0000
0001
0000
0000
0000
0000
0000
0000
0000
0000
0000
0000
0000
1000
0000
0000
0000
0000
0000
0010
0000
0000
0000
0000
0000
1000
0000
0000
0000
0000
0000
0010
0000
0000
0000
0000
0000
1000
0000
0000
0000
0000
0000
0001
0000
0000
0000
0000
0000
1000
0000
0000
0000
0000
0000
0001
0000
0000
0000
0000
0000
2000
0000
0000
0000
0000
0000
0000
0000
3200
0000
0000
0000
0000
0000
0000
0000
0320
0000
0000
0000
0000
0000
0000
0000
0030
0000
0000
0000
0000
0000
1000
0000
0000
0000
0000
0000
0001
0000
0000
0000
0000
0000
0000
0000
0000
0000
0000
0000
,
1100
0000
0001
1000
0010
0000
1001
0000
0001
0010
0100
0000
1001
0000
0001
0000
,
0101
0000
1000
0100
0010
0000
1001
0000
1000
0001
0010
0000
0101
0000
0100
0000
,
0110
0000
1000
0100
0010
0000
0101
0000
0001
1000
0010
0000
1001
0000
1000
0000
,
0110
0000
1000
0001
1000
0000
0011
0000
1000
0100
0010
0000
1001
0000
0011
0000
,
0110
0000
0001
1000
0001
0000
0101
0000
0001
1000
0010
0000
1010
0000
0010
0000
,
0110
0000
0100
0001
0100
0000
1001
0000
0001
1000
0100
0000
1100
0000
0110
0000
,
0011
0000
0001
1000
0001
0000
0101
0000
0001
1000
0001
0000
0101
0000
0001
0000
,
1010
0000
0010
0100
0001
0000
1001
0000
0001
1000
0100
0000
1100
0000
0100
0000
,
0110
0000
0001
1000
0001
0000
0101
0000
0001
1000
0010
0000
1010
0000
0110
0000
,
0101
0000
0001
1000
0100
0000
1001
0000
0100
0010
0001
0000
0011
0000
0100
0000
,
0110
0000
0100
1000
0100
0000
1001
0000
0001
0100
0001
0000
1010
0000
0010
0000
,
0110
0000
0001
1000
0001
0000
1001
0000
0001
0100
0010
0000
1010
0000
0101
0000
,
0110
0000
0001
1000
0100
0000
1001
0000
0100
1000
0001
0000
0101
0000
0010
0000
,
1001
0000
0001
0100
0001
0000
1001
0000
0001
0100
0010
0000
1010
0000
0010
0000
,
0110
0000
0100
0001
1000
0000
1100
0000
0100
0010
0001
0000
0110
0000
0001
0000
,
1100
0000
1000
0001
0010
0000
0101
0000
0001
1000
0100
0000
1010
0000
0001
0000
,
M11M
0000
1000
0001
1000
0000
0101
0000
1000
0010
0100
0000
1001
0000
0001
0000
,
0101
0000
1000
0100
0010
0000
1001
0000
1000
0001
0010
0000
0101
0000
0100
0000
,
0110
0000
1000
0100
0010
0000
0101
0000
0001
1000
0010
0000
1001
0000
1000
0000
,
0110
0000
1000
0001
1000
0000
0011
0000
1000
0100
0010
0000
1001
0000
0001
0000
,
0110
0000
0001
1000
0001
0000
0101
0000
0001
1000
0010
0000
1010
0000
0010
0000
,
0110
0000
0100
0001
0100
0000
1001
0000
0001
1000
0100
0000
1001
0000
0100
0000
,
0011
0000
1000
0100
1000
0000
1001
0000
0001
0100
0010
0000
1010
0000
0010
0000
,
0110
0000
0100
0001
1000
0000
1100
0000
0100
0010
0001
0000
0110
0000
0100
0000
,
1100
0000
1000
0001
0100
0000
1010
0000
0001
1000
0010
0000
0110
0000
0001
0000
,
1001
0000
0001
0100
0010
0000
1010
0000
0010
0100
0001
0000
0011
0000
0100
0000
,
1100
0000
0100
0010
0001
0000
1001
0000
0001
0100
0010
0000
1010
0000
0010
0000
,
0110
0000
0100
0001
1000
0000
1001
0000
0001
1000
0100
0000
1100
0000
0100
0000
,
0110
0000
0010
0001
1000
0000
1001
0000
0001
0100
0001
0000
1001
0000
0001
0000
,
0101
0000
0010
1000
0010
0000
0110
0000
1000
0010
1000
0000
1010
0000
0010
0000
,
0101
0000
0001
1000
0100
0000
0011
0000
0010
0100
1000
0000
1001
0000
0001
0000
,
1010
0000
0100
0010
0001
0000
1001
0000
1000
0010
0100
0000
1100
0000
0010
0000
,
1001
0000
0010
0001
1000
0000
1001
0000
0001
0010
0100
0000
1001
0000
0001
0000
,
0101
0000
1000
0100
0010
0000
1001
0000
1000
0001
0010
0000
0101
0000
0100
0000
,
0110
0000
1000
0100
0010
0000
0101
0000
0001
1000
0010
0000
1001
0000
1000
0000
,
0110
0000
1000
0001
1000
0000
0011
0000
1000
0100
0010
0000
1001
0000
0011
0000
,
0110
0000
0001
1000
0001
0000
0101
0000
0001
1000
0010
0000
1010
0000
0010
0000
,
0110
0000
0100
0001
0100
0000
1001
0000
0001
1000
0100
0000
1100
0000
0110
0000
,
0011
0000
0001
1000
0001
0000
0101
0000
0001
1000
0001
0000
0101
0000
0001
0000
,
1010
0000
0010
0100
0001
0000
1001
0000
0001
1000
0100
0000
1100
0000
0100
0000
,
0110
0000
0001
1000
0001
0000
0101
0000
0001
1000
0010
0000
1010
0000
0110
0000
,
0101
0000
0001
1000
0100
0000
1001
0000
0100
0010
0001
0000
0011
0000
0100
0000
,
0110
0000
0100
1000
0100
0000
1001
0000
0001
0100
0001
0000
1010
0000
0010
0000
,
0110
0000
0001
1000
0001
0000
1001
0000
0001
0100
0010
0000
1010
0000
0101
0000
,
0110
0000
0001
1000
0100
0000
1001
0000
0100
1000
0001
0000
0101
0000
0010
0000
,
1001
0000
0001
0100
0001
0000
1001
0000
0001
0100
0010
0000
1010
0000
0010
0000
,
0110
0000
0100
0001
1000
0000
1100
0000
0100
0010
0001
0000
0110
0000
0001
0000
,
1100
0000
1000
0001
0010
0000
0101
0000
0001
1000
0100
0000
1010
0000
0001
0000
,
M11M
0000
1000
0001
1000
0000
0101
0000
1000
0010
0100
0000
1001
0000
0001
0000
,
0101
0000
1000
0100
0010
0000
1001
0000
1000
0001
0010
0000
0101
0000
0100
0000
,
0110
0000
1000
0100
0010
0000
0101
0000
0001
1000
0010
0000
1001
0000
1000
0000
,
0110
0000
1000
0001
1000
0000
0011
0000
1000
0100
0010
0000
1001
0000
0001
0000
,
0110
0000
0001
1000
0001
0000
0101
0000
0001
1000
0010
0000
1010
0000
0010
0000
,
0110
0000
0100
0001
0100
0000
1001
0000
0001
1000
0100
0000
1001
0000
0100
0000
,
0011
0000
1000
0100
1000
0000
1001
0000
0001
0100
0010
0000
1010
0000
0010
0000
,
0110
0000
0100
0001
1000
0000
1100
0000
0100
0010
0001
0000
0110
0000
0100
0000
,
1100
0000
1000
0001
0100
0000
1010
0000
0001
1000
0010
0000
0110
0000
0001
0000
,
1001
0000
0001
0100
0010
0000
1010
0000
0010
0100
0001
0000
0011
0000
0100
0000
,
1100
0000
0100
0010
0001
0000
1001
0000
0001
0100
0010
0000
1010
0000
0010
0000
,
0110
0000
0100
0001
1000
0000
1001
0000
0001
1000
0100
0000
1100
0000
0100
0000
,
0110
0000
0010
0001
1000
0000
1001
0000
0001
0100
0001
0000
1001
0000
0001
0000
,
0101
0000
0010
1000
0010
0000
0110
0000
1000
0010
1000
0000
1010
0000
0010
0000
,
0101
0000
0001
1000
0100
0000
0011
0000
0010
0100
1000
0000
1001
0000
0001
0000
,
1000
0000
0100
0000
0010
0000
0001
0000
1000
0000
0010
0000
1000
0000
0001
0000
0200
0000
0000
0000
0000
0000
0000
0000
0000
0000
0300
0000
0000
0200
0000
0000
,
0300
0000
0000
0000
;
