#TITLE:Reality;
#SUBTITLE:;
#ARTIST:The Berzerker;
#TITLETRANSLIT:;
#SUBTITLETRANSLIT:;
#ARTISTTRANSLIT:;
#CREDIT:;
#BANNER:BerzerkerL.gif;
#BACKGROUND:TheBerzerker19.jpg;
#LYRICSPATH:;
#CDTITLE:AngelofDeath.png;
#MUSIC:Berzerker -  Reality.mp3;
#OFFSET:0.040;
#SAMPLESTART:30.100;
#SAMPLELENGTH:12.500;
#SELECTABLE:YES;
#BPMS:0.000=259.000;
#STOPS:;
#BGCHANGES:;
// cache tags:
#FIRSTBEAT:43.000;
#LASTBEAT:340.000;
#SONGFILENAME:Songs/mongol/Reality/Reality.sm;
#HASMUSIC:1;
#HASBANNER:1;
#MUSICLENGTH:80.694;
// end cache tags

//---------------dance-single - ----------------
#NOTES:
     dance-single:
     :
     Challenge:
     15:
     1.000,1.000,1.000,0.124,1.000,718.000,81.000,10.000,0.000,0.000:  // measure 1
0000
0000
0000
0000
,  // measure 2
0000
0000
0000
0000
,  // measure 3
0000
0000
0000
0000
,  // measure 4
0000
0000
0000
0000
,  // measure 5
0000
0000
0000
0000
,  // measure 6
0000
0000
0000
0000
,  // measure 7
0000
0000
0000
0000
,  // measure 8
0000
0000
0000
0000
,  // measure 9
0000
0000
0000
0000
,  // measure 10
0000
0000
0000
0000
,  // measure 11
0000
0000
0000
2002
,  // measure 12
0000
0000
0000
0000
,  // measure 13
3003
0000
0110
1000
,  // measure 14
0010
0100
0001
0010
,  // measure 15
0001
0000
0000
0000
1000
0100
0010
0001
0010
0000
0000
0000
1000
0000
0000
0000
,  // measure 16
0010
0000
0100
0000
0001
0010
0100
0010
,  // measure 17
0001
0010
0100
0010
0002
0000
0000
0000
1003
0000
0100
0000
0011
0000
0100
0000
,  // measure 18
1010
0100
0011
0100
0011
0100
1010
0100
,  // measure 19
0011
0100
1001
0100
1001
0010
0101
0010
,  // measure 20
1100
0010
0101
0010
1200
0000
0000
0000
,  // measure 21
0000
0000
0000
0000
0300
0000
0001
0010
0100
1000
0001
0000
1001
0000
0001
0000
,  // measure 22
0101
0001
0011
0001
0011
0001
1001
1000
,  // measure 23
1100
1000
1010
1000
1001
0110
1001
0110
,  // measure 24
0011
1100
0011
1100
0101
1010
0101
1010
,  // measure 25
0101
1000
0010
0100
1001
1001
0010
0100
,  // measure 26
0011
0100
1000
0010
1100
0010
0100
0010
,  // measure 27
1001
0010
0001
0010
1010
0100
0010
0100
,  // measure 28
0101
1000
0010
0100
1001
0001
0010
0100
,  // measure 29
1001
0010
0100
1000
0010
0100
0010
0001
,  // measure 30
0010
0100
1000
0010
0100
0010
0001
0010
,  // measure 31
0100
1000
0100
0010
0100
0010
1000
0001
,  // measure 32
0100
0000
1000
0000
0010
0000
0100
0000
0001
1000
0001
1000
0001
1000
0001
1000
,  // measure 33
0001
1000
0001
1000
0001
1000
0001
1000
0002
0000
0000
0000
0000
0000
0000
0000
,  // measure 34
0003
0000
0000
0000
,  // measure 35
0000
0000
0000
0000
0001
0010
0100
1000
0100
0000
0000
0000
0000
0000
0000
0000
,  // measure 36
0100
0000
0000
0000
0001
0001
0001
0001
,  // measure 37
0001
1000
0001
1000
0001
0000
0000
0000
0010
1000
0010
1000
0010
1000
0010
1000
,  // measure 38
0001
0100
0001
0100
0001
0100
0001
0100
0001
1000
0001
1000
0001
1000
0001
1000
,  // measure 39
0010
0100
0010
0100
0010
0100
0010
0100
0001
0010
0100
1000
0001
0010
0100
1000
,  // measure 40
0100
0010
0001
0100
0010
1000
0100
0010
0001
0100
0010
1000
0100
0010
0001
0100
,  // measure 41
0010
0100
0010
0100
0020
0000
0000
0000
0030
0000
0000
0000
0110
0000
0000
0000
,  // measure 42
0011
0110
1001
0110
,  // measure 43
1001
0110
0101
1010
,  // measure 44
0110
1001
0011
1001
,  // measure 45
1010
0000
0110
0011
,  // measure 46
0110
1010
0101
0011
,  // measure 47
1100
1001
0110
0011
,  // measure 48
1010
1100
1010
0110
,  // measure 49
1001
0000
0000
0000
0000
0000
0000
0000
0010
0100
0010
0100
0010
0100
0010
0100
,  // measure 50
0010
1000
0010
1000
0010
1000
0010
1000
0100
0010
0001
0010
0001
1000
0100
0010
,  // measure 51
0001
0010
0001
0010
0100
1000
0100
1000
0100
0010
0001
0010
0001
0010
0100
0010
,  // measure 52
0100
0010
0001
0010
0100
0010
0100
0010
0100
1000
0100
0010
0001
0010
0100
1000
,  // measure 53
0100
0010
0001
1000
0100
0010
0001
1000
0100
0010
0001
1000
0100
0010
0001
1000
,  // measure 54
0010
0100
0001
0010
0100
1000
0001
0010
0100
1000
0100
0010
0001
1000
0100
0010
,  // measure 55
0001
0010
0100
1000
0001
0100
0010
1000
0001
0010
0100
1000
0001
0100
0010
1000
,  // measure 56
0001
0010
0100
1000
0010
0100
0001
0010
0100
1000
0010
0100
0001
1000
0100
0010
,  // measure 57
0001
0100
0010
1000
0100
0010
0001
0100
0010
1000
0001
0000
0010
0000
0001
0000
,  // measure 58
0010
1000
0010
0100
0001
0010
0100
1000
,  // measure 59
0010
0100
0010
0001
0010
0100
1000
0100
,  // measure 60
1000
0100
0001
0100
1000
0010
0100
0010
,  // measure 61
0001
0010
0100
1000
0100
0000
0110
0000
,  // measure 62
1001
0010
0100
1000
0011
0100
0010
0001
,  // measure 63
1010
0100
0010
0100
1001
0010
0001
0010
,  // measure 64
1001
0100
1000
0100
1001
0100
0001
0010
,  // measure 65
0100
1000
0010
0100
2002
0000
0000
0000
,  // measure 66
3003
0000
0000
0000
1000
0100
0010
0001
0010
0000
0000
0000
0000
0000
0000
0000
,  // measure 67
0000
0000
0000
0000
1000
0100
0010
0001
0010
0000
0000
0000
1000
0000
0000
0000
,  // measure 68
0001
0000
0000
0000
0100
0000
1000
0100
1000
0000
0001
0010
0001
0000
0010
0100
,  // measure 69
0010
0000
1000
0001
1000
0000
0000
0000
0001
0100
0001
0100
0001
0100
0001
0100
,  // measure 70
0001
0100
0001
0100
0001
1000
0001
1000
0001
1000
0001
1000
0100
1000
0100
1000
,  // measure 71
0100
1000
0100
1000
0010
1000
0010
1000
0010
1000
0010
1000
0100
0010
0001
1000
,  // measure 72
0100
0010
0001
1000
0100
0010
0001
0010
0100
1000
0001
0010
0100
1000
0001
0010
,  // measure 73
0100
1000
0100
0010
0001
0100
0010
1000
0100
0010
0001
0100
0010
1000
0001
0010
,  // measure 74
0100
1000
0010
0100
0001
0010
0100
1000
0010
0100
0001
0010
0001
0100
0001
1000
,  // measure 75
0001
1000
0100
1000
0010
1000
0001
1000
0010
1000
0010
1000
0010
1000
0010
1000
,  // measure 76
0001
1000
0001
1000
0001
1000
0001
1000
0001
0100
0001
0100
0001
0100
0001
0100
,  // measure 77
0010
0100
0010
0100
0010
0100
0010
0100
0001
0100
0010
0100
0001
0100
0010
0100
,  // measure 78
0001
0010
0100
1000
0001
0010
0100
1000
0100
0010
0001
1000
0100
0010
0001
0010
,  // measure 79
0001
0010
1000
0010
0100
0001
1000
0010
0100
0001
0010
0100
1000
0001
0010
0100
,  // measure 80
1000
0001
0100
0010
1000
0001
0100
0010
1000
0100
1000
0100
1000
0010
1000
0010
,  // measure 81
1000
0001
1000
0001
1000
0001
0100
0001
0100
0001
0010
0001
0010
0001
1000
0001
,  // measure 82
1000
0010
0100
0010
0100
0001
1000
0001
1000
0010
0100
0010
0100
1000
0001
1000
,  // measure 83
0001
0100
1000
0100
0001
0010
0001
0100
0010
0100
1000
0000
0010
0000
0001
0000
,  // measure 84
0100
0001
1000
0010
0100
0001
0100
0001
,  // measure 85
2002
0000
0000
0000
,  // measure 86
3003
0000
0000
0000
;
