#TITLE:J219;
#SUBTITLE:;
#ARTIST:Cranky;
#TITLETRANSLIT:;
#SUBTITLETRANSLIT:;
#ARTISTTRANSLIT:;
#CREDIT:;
#BANNER:j219.png;
#BACKGROUND:j219-bg.png;
#LYRICSPATH:;
#CDTITLE:!reachTitle.png;
#MUSIC:cranky - J219.mp3;
#OFFSET:-1.665;
#SAMPLESTART:42.484;
#SAMPLELENGTH:12.000;
#SELECTABLE:YES;
#BPMS:0.000=146.990;
#STOPS:;
#BGCHANGES:;
// cache tags:
#FIRSTBEAT:0.000;
#LASTBEAT:228.000;
#SONGFILENAME:Songs/Community Keyboard Megapack - Volume 1/(Reach) J219/O_O.sm;
#HASMUSIC:1;
#HASBANNER:1;
#MUSICLENGTH:98.564;
// end cache tags

//---------------dance-single - ----------------
#NOTES:
     dance-single:
     :
     Hard:
     10:
     0.816,0.983,1.000,0.213,0.649,422.000,120.000,21.000,0.000,0.000:  // measure 1
1000
0000
0100
0000
0001
0000
0100
1000
0000
0100
1000
0000
0010
0000
0001
0000
,  // measure 2
1100
0000
0010
0000
0001
0000
0100
0010
0000
0010
0100
0000
1000
0000
0010
0000
,  // measure 3
1001
0000
0100
0000
1000
0000
0010
0001
0000
0010
0001
0000
0100
0000
0010
0000
,  // measure 4
1100
0000
0010
0000
0100
0000
0010
1000
0000
0100
0001
0000
0100
0000
0010
0000
,  // measure 5
1001
0010
0001
0100
1000
0010
0100
0010
,  // measure 6
0001
0010
0100
1000
0100
0010
0100
1000
,  // measure 7
0101
1100
0101
1010
,  // measure 8
1001
0110
0101
1010
,  // measure 9
0201
0000
0000
0000
,  // measure 10
2300
0000
0000
0000
,  // measure 11
3002
0000
0000
0000
,  // measure 12
1003
0000
0000
0110
0000
0000
0110
0000
0000
1001
0000
0000
1001
0000
0110
0000
,  // measure 13
1000
0010
1000
0010
0100
0010
0001
0010
0200
0000
0000
0000
0000
0000
0300
0000
,  // measure 14
1001
0000
0000
0000
0110
0000
0000
0101
0000
0101
0000
1010
0101
0000
0110
0000
,  // measure 15
1000
0001
1000
0010
1000
0000
0101
1010
0000
0110
1001
0000
0110
0000
1001
0000
,  // measure 16
0210
0000
0000
0000
0301
1000
0001
1100
,  // measure 17
0011
0100
1000
0100
0000
0001
0010
0000
2000
0000
0000
0000
0000
0000
0000
0000
,  // measure 18
3001
0000
0000
0000
0110
0000
0000
0100
0000
0100
0000
0010
0010
0000
1001
0000
,  // measure 19
0110
0001
1000
0001
0110
0000
1000
1000
0000
0001
1000
0010
1000
0000
1001
0000
,  // measure 20
0120
0000
0000
0000
0000
0000
0000
0000
1030
0001
0000
0100
1000
0000
0100
0000
,  // measure 21
1001
0000
0000
0000
0000
0000
1100
0000
0011
0000
0000
1001
0000
0000
0110
0000
,  // measure 22
2001
0000
0000
0000
0000
0000
0001
0000
3010
0000
0000
1100
0000
0000
0101
0000
,  // measure 23
1002
1000
0000
0103
0000
1001
0000
0000
,  // measure 24
1001
0110
0000
1100
0000
0101
0000
0000
,  // measure 25
1100
0010
0001
0010
0001
0100
0001
1000
0010
1000
0100
1000
0010
1000
0001
0010
,  // measure 26
0100
1000
0100
0010
0001
0010
0100
1000
0100
0010
0100
0010
0001
0010
0100
0010
,  // measure 27
0100
1000
0001
1000
0001
0010
0100
1000
0001
1000
0100
0010
0001
1000
0001
1000
,  // measure 28
0011
0000
0000
1001
0000
0000
0110
0000
,  // measure 29
1001
0000
0100
1000
0100
0000
0001
1000
0002
0000
0000
0000
0003
0000
1100
0000
,  // measure 30
0101
0000
0000
1001
0110
0000
1010
0000
,  // measure 31
1001
0000
0010
0100
0010
0000
0001
1000
0001
0000
0010
0100
0010
0000
1000
0001
,  // measure 32
2000
3002
0203
0320
,  // measure 33
1030
0000
0001
1000
0001
0000
0010
1000
0010
0000
0100
1000
0100
0000
0010
0100
,  // measure 34
0020
0000
0000
1030
0010
0000
0110
0000
,  // measure 35
2002
3003
0100
0000
,  // measure 36
0202
0303
0100
0000
,  // measure 37
1001
0010
1000
0001
0100
0010
0001
0010
,  // measure 38
1001
0000
0000
0110
0000
0000
1001
0000
0000
0110
0000
0000
1001
0000
0110
0000
,  // measure 39
1001
0000
1010
0000
0101
0000
0000
0101
,  // measure 40
0000
1010
0000
1001
0000
1001
0000
0101
,  // measure 41
1001
0000
1001
0000
0110
1001
0101
1010
,  // measure 42
0000
0000
0001
0100
0010
1000
0001
0100
,  // measure 43
0011
0000
0011
0000
1001
0000
0000
1001
,  // measure 44
0000
1001
0000
0110
0000
0101
1010
0110
,  // measure 45
0101
0000
1010
0000
0011
1100
0110
1001
,  // measure 46
0001
1000
0000
1000
0001
0000
0010
0100
0000
0100
0010
0000
0001
0010
0100
1000
,  // measure 47
0011
0100
1000
0100
1000
0010
1000
0001
0020
0000
0000
0000
0000
0000
0000
0000
,  // measure 48
1030
0000
0000
0000
0101
0000
0000
1100
0000
1100
0000
0011
0101
0000
0110
0000
,  // measure 49
0001
0010
0100
0010
0001
0000
0100
1000
0000
0010
0001
0000
1100
0000
0110
0000
,  // measure 50
1001
0000
0000
0000
0000
0000
0000
0000
1000
0001
0010
0100
0001
1000
0010
0100
,  // measure 51
0001
0010
0100
1000
0000
0001
0010
0000
1100
0000
0000
0000
0000
0000
0000
0000
,  // measure 52
1100
0000
0000
0000
0101
0000
0000
1000
0000
1000
0000
0001
0001
0000
0110
0000
,  // measure 53
0100
1000
0100
1000
0001
0000
0100
0010
0000
0001
0010
0001
0010
0000
0110
0000
,  // measure 54
1000
0100
0010
0001
0100
0010
1000
0100
0010
0001
0100
0010
1000
0100
0010
0001
,  // measure 55
0010
0100
0010
1000
0010
0100
0001
0100
0010
1000
0010
0100
0001
0100
0010
1000
,  // measure 56
0010
0001
0100
0001
1000
0001
1000
0010
1000
0100
1000
0001
1000
0001
1000
0001
,  // measure 57
0210
0000
0000
0000
,  // measure 58
0300
0000
0000
0000
;
