#TITLE:Seikon no Qwaser OP 2;
#SUBTITLE:This can be easy BOSS song;
#ARTIST:Baptize;
#TITLETRANSLIT:;
#SUBTITLETRANSLIT:;
#ARTISTTRANSLIT:;
#CREDIT:;
#BANNER:bn.jpg;
#BACKGROUND:bg.jpg;
#LYRICSPATH:;
#CDTITLE:bombastik.png;
#MUSIC:Seikon no Qwaser OP 2.mp3;
#OFFSET:-0.400;
#SAMPLESTART:27.500;
#SAMPLELENGTH:12.000;
#SELECTABLE:YES;
#BPMS:0.000=105.000,52.000=210.000,84.000=105.000,116.000=210.000,212.000=105.000,244.000=210.000,308.000=105.000,324.000=210.000,420.000=105.000,424.000=210.000;
#STOPS:;
#BGCHANGES:;
// cache tags:
#FIRSTBEAT:4.000;
#LASTBEAT:574.000;
#SONGFILENAME:Songs/FUCK ANIME PACK/Seikon no Qwaser OP 2/Seikon no Qwaser OP 2.sm;
#HASMUSIC:1;
#HASBANNER:1;
#MUSICLENGTH:210.001;
// end cache tags

//---------------dance-single - ----------------
#NOTES:
     dance-single:
     :
     Beginner:
     15:
     1.000,1.000,1.000,0.952,1.000,2016.000,730.000,200.000,0.000,287.000:

0000
0000
0000
0000
,
1110
0010
0011
1000
0110
0001
1100
0100
1110
0010
1001
0001
0011
1000
1100
0010
,
0111
0100
0011
0010
1001
1000
0101
0001
0112
1000
0010
0100
1003
0010
0100
0001
,
1111
0000
0010
0000
1001
0000
0001
0000
1100
0001
0010
0100
0010
0100
1000
0100
1011
0000
0100
0000
0011
0000
1000
0000
0011
1000
0100
0010
0100
0010
0001
0010
,
1101
0010
0101
0001
1010
0010
1100
0001
2220
0000
3331
0010
1100
0010
0100
0001
,
1110
0000
0010
0000
1001
0000
0100
0000
0011
0100
1000
0100
0010
0001
0010
0100
1011
0000
0100
0000
1001
0000
0010
0000
1100
0010
0001
0010
0001
0010
0100
1000
,
0111
0100
1010
0001
1101
0010
0110
1000
2210
0000
0001
0001
0010
0001
0010
3310
,
1101
0000
0010
0000
1100
0000
0100
0000
1100
0001
0010
0100
0010
0100
1000
0100
1011
0000
0010
0000
0101
0000
1000
0000
0011
0100
1000
0100
0010
0001
0010
0100
,
1011
0000
0100
0000
1001
0000
0010
0000
1100
0010
0001
0010
0001
0010
0100
1000
0111
0000
0010
0000
1010
0000
0001
0000
1100
0000
0001
0000
0100
0001
0010
0100
,
1011
0100
0110
1000
0101
0010
1100
0001
0110
0011
1010
0110
1100
1100
0110
1001
,
0111
0010
1100
0001
1010
1000
0110
0001
1110
0010
0011
0100
1100
1100
0110
1001
,
1101
0010
0011
1000
1011
0001
0110
1000
0101
0010
0011
0100
0011
0011
0110
1001
,
1101
0000
0010
0000
0011
0000
0100
0000
0111
0000
0001
0000
0110
0000
1000
0000
2220
0000
0000
3330
0222
0000
0000
0333
2202
0000
0000
3303
2220
0000
0000
3330
,
1110
0001
0010
1000
0001
0100
0010
0100
1000
0100
0010
0001
1000
0010
0100
1000
,
0111
1000
0100
0010
0100
1000
0001
0010
0100
0010
0001
0010
0100
0010
0100
0010
,
1101
0010
1000
0100
0010
0001
0010
1000
0100
0010
0100
0010
0001
0010
1000
0100
,
2022
0000
0000
0000
3033
0010
0001
0010
0100
1000
0010
0100
1000
0100
0010
1000
,
0111
1000
0010
0100
0010
0100
1000
0100
0010
1000
0100
0010
0001
0010
0100
0010
,
1101
0010
0100
1000
0100
1000
0100
1000
0100
0010
0001
0010
0100
0010
0100
1000
,
0111
1000
0100
0010
0001
0010
0100
0010
0100
0010
0001
0010
0100
1000
0100
0010
,
2202
0000
0000
0000
3303
0001
1100
0001
1100
0001
1100
0001
1100
0001
1100
0001
,
1110
0000
0011
0000
0110
0000
1100
0000
0110
0000
0011
0000
0110
0000
1100
0000
0011
0000
1100
0000
0011
0000
0110
0000
1001
0100
0010
0001
0010
0100
1000
0100
,
1001
0000
0110
0000
0011
0000
0110
0000
1001
0000
1010
0000
0011
0000
1100
0000
0111
0000
0110
0000
1100
0000
0011
0000
1100
0001
0010
0001
0010
0001
0010
0001
,
1100
0000
1100
0000
1100
0000
1100
0000
1101
0000
0110
0000
0011
0000
0110
0000
1101
0000
0110
0000
1010
0000
0110
0000
0110
0001
0010
0100
0010
0100
1000
0100
,
1011
0000
0110
0000
0011
0000
1100
0000
1101
0000
0110
0000
0011
0000
1010
0000
2220
0000
0000
3330
0222
0000
0000
0333
2220
0000
0000
3330
2202
0000
0000
3303
,
2200
0000
0001
0000
0001
0000
3301
0000
1110
0000
0000
0000
0011
0000
0011
0000
0022
0000
0033
0000
2200
0000
3300
0000
0220
0000
0000
0330
2002
0000
3003
0000
,
1000
0100
0010
0001
0000
0000
0001
0010
0100
1000
0000
0000
1000
0100
0010
0001
0000
0000
0001
0010
0100
1000
0000
0000
1000
0100
0010
0001
0010
0100
1000
0100
0010
0001
0010
0100
2000
0000
0000
0000
0000
0000
3001
0000
0000
0010
0000
0000
,
1100
0000
0000
0000
0000
0000
0022
0000
0000
0000
0000
0033
2200
0000
0000
0000
0000
3300
0220
0000
0000
0000
0000
0330
1000
0100
0010
0001
0000
0000
0001
0010
0100
1000
0000
0000
1000
0100
0010
0001
0000
0000
0001
0010
0100
1000
0000
0000
,
1110
0000
0110
0000
0011
0000
0110
0000
1101
0000
0110
0000
1001
0000
0110
0000
2222
0000
0000
0000
0000
0000
0000
0000
0000
0000
0000
0000
0000
0000
0000
3333
,
1110
0001
0010
0100
1010
0100
0010
0001
0110
1000
0100
0010
1100
0010
0100
0001
,
1110
0001
0010
0100
0011
0100
1000
0100
1001
0010
0100
0010
1100
0001
0010
0100
,
1011
0100
0010
0100
1010
0100
0010
0001
1100
0010
0100
1000
0011
0100
0010
0001
,
1110
0001
0010
0001
0110
1000
0100
0010
1100
0010
0100
0010
1001
0010
0100
1000
,
0111
1100
1100
1100
1100
1100
1100
1100
,
1111
0011
0011
0011
0011
0011
0011
0011
,
1111
1100
0110
0011
0110
1100
0110
0011
,
1100
0001
1100
0001
1100
0001
1100
0001
2200
0000
0000
0000
3311
0100
0010
0001
,
1110
0001
0100
0010
1001
0100
0010
0001
1100
0010
0100
1000
0011
0100
0010
1000
,
0111
1000
0100
0010
1001
0010
0001
0010
1100
0010
0100
1000
0011
0100
1000
0100
,
2022
0000
0000
3033
2220
0000
0000
3330
0222
0000
0000
0333
2202
0000
0000
3303
,
1100
0001
1100
0001
1100
0001
1100
0001
2200
0000
0000
3300
0011
0100
0010
0100
,
1011
0100
0010
0001
0110
1000
0100
0010
1100
0010
0100
1000
0011
0100
0010
0001
,
1110
0001
0010
0100
1010
0100
0010
0001
1010
0100
0010
0001
1100
0010
0100
1000
,
0111
1000
0100
0010
1001
0100
0010
0001
1100
0001
0010
0100
0011
0100
1000
0100
,
2022
0000
0000
3033
0100
0010
0100
0010
0100
0010
0100
0010
1001
0100
0010
0100
,
2001
0110
0011
0110
0011
0101
0011
0110
,
0011
0101
0011
0101
0110
0011
0110
0011
,
0101
0110
0011
0101
0011
0011
0101
0110
,
0011
0000
0101
0000
0110
0000
0011
0000
0110
0000
0011
0000
0101
0000
0011
3000
,
0111
1000
0001
0100
0010
0100
0001
0100
0010
1000
0001
0100
0010
1000
0100
0001
,
1110
0001
0100
0001
1000
0010
0001
0100
0010
1000
0001
0100
1000
0010
0100
0001
,
1110
0001
1000
0010
0100
0001
0100
0010
1000
0001
0100
0010
1000
0001
0100
0001
,
1110
0001
1000
0010
1000
0100
0001
1000
0010
0100
0001
1000
0010
0100
0001
0100
,
1011
0110
1001
0011
1110
0011
1100
0110
1001
0110
0011
0110
1001
1001
1001
1001
,
1110
0011
0110
1001
1101
0110
1010
0110
0111
0110
1100
0011
1100
1100
1100
1100
,
1001
0010
0100
1000
0110
0000
1001
0000
1101
0000
0110
0000
0011
0000
1010
0000
1101
0000
0110
0000
1001
0000
1100
0000
0011
0000
0011
0000
0011
0000
0011
0000
,
1100
0010
0001
0010
1100
0000
0011
0000
1110
0000
0110
0000
1001
0000
1010
0000
0222
0000
0000
0333
2220
0000
0000
3330
2202
0000
0000
3303
2220
0000
0000
3330
,
2222
0000
0000
3333
0110
0000
1100
0000
0111
0000
0000
0000
1100
0000
0110
0000
2200
0000
0000
3300
2002
0000
0000
3003
0202
0000
0000
0303
2020
0000
0000
3030
,
1000
0100
0010
0001
0000
0000
0001
0010
0100
1000
0000
0000
1000
0100
0010
0001
0000
0000
0001
0010
0100
1000
0000
0000
1000
0100
0010
0001
1000
0100
0010
0001
1000
0100
0010
0001
2200
0000
0000
0000
0000
0000
3311
0000
0000
1001
0000
0000
,
2220
0000
0000
3330
0000
0000
0001
0010
0100
1000
0000
0000
0001
0010
0100
1000
0000
0000
0001
0010
0100
1000
0000
0000
1000
0100
0010
0001
0000
0000
1000
0100
0010
0001
0000
0000
1000
0100
0010
0001
0000
0000
0001
0010
0100
1000
0000
0000
,
0111
0000
1100
0000
0011
0000
1001
0000
1110
0000
0011
0000
0110
0000
1001
0000
2220
0000
3330
0000
0001
0010
0100
0010
0001
0010
0100
0010
0001
0010
0100
1000
,
0111
1000
0100
0010
1001
0100
0010
0001
1010
0100
1000
0100
1001
0010
0100
0010
,
1101
0010
0001
0010
1100
0001
0010
0100
1001
0100
0010
0001
1100
0010
0100
1000
,
0022
1133
2200
3311
0022
1133
0220
1331
,
1110
0001
0100
0010
1100
0010
0100
0001
1100
0001
1100
0001
1100
0001
1100
0001
,
1110
0001
0100
0010
1100
0010
0100
1000
0101
0010
0100
0001
1100
0010
0100
0010
,
1101
0010
0100
1000
0011
0100
0010
0100
1001
0010
0001
0010
1001
0100
0010
0001
,
1110
0001
0010
0100
0011
1000
0100
0010
1100
0010
0100
0001
1010
0100
0010
0001
,
1110
0000
1110
0000
1110
0000
2220
0000
0000
3330
0000
0000
0001
1000
0001
1000
,
0112
1000
0010
0100
1010
0100
1000
0100
1010
0100
0010
0103
1001
0100
0010
0100
,
1011
0100
0010
0001
0110
1000
0100
1000
0101
0010
0100
1000
0011
0100
0001
0010
,
2202
3313
0222
1333
2022
3133
2220
3331
,
0011
1000
0011
1000
0011
1000
0011
1000
0022
0000
0000
0000
1133
0010
0100
0001
,
1110
0001
0100
0010
1100
0001
0010
0100
1001
0100
0010
0100
0011
0100
1000
0100
,
1011
0100
0010
0001
0110
1000
0100
0010
1100
0010
0100
0010
1001
0100
0010
0001
,
1110
0001
1000
0001
0110
1000
0100
0010
1100
0010
1000
0010
1001
0010
0100
0010
,
2202
0000
0000
0000
3313
0100
0010
0100
1000
0100
0010
1000
0100
0010
0001
1000
,
0112
0110
1100
0110
1010
1100
1010
0110
1010
1100
1100
0110
1010
0110
1100
1010
,
1100
0110
0110
1010
1100
1010
1010
0110
1100
1010
0110
1100
1100
0110
1010
1103
,
0111
1100
0011
1001
0110
1001
1010
0101
1110
0011
0110
1100
0111
1001
0110
1010
,
0111
1100
0011
1001
1110
0011
0110
1100
1110
0110
1001
0101
1110
0011
1010
1100
,
0111
1000
0100
0010
0001
0010
0100
0001
0010
0100
1000
0100
0010
0100
0010
1000
,
0100
0010
0001
0010
0100
0010
0100
0010
0100
1000
0100
0010
0001
0010
0001
0010
,
1100
0010
0100
1000
0001
0010
0100
1000
0010
0100
0010
0001
0010
0100
1000
0100
,
1001
0110
1001
0110
1001
0110
1001
0110
,
1001
0100
0010
0100
0010
0100
1000
0100
0010
0001
0010
0100
0010
0100
1000
0100
,
1000
0100
0010
0001
0010
0001
0010
0100
0010
0100
1000
0100
0010
0100
1000
0100
,
1010
0001
0010
0100
1000
0100
0001
0010
0100
1000
0100
0001
1000
0001
0010
0100
,
1001
0010
1000
0010
1000
0001
0100
0001
0100
1000
0010
0100
,
1001
0100
0010
0100
0001
0100
0010
0100
0001
0100
0001
1000
0001
0100
0010
1000
,
0100
0001
0100
0001
1000
0010
0100
1000
0001
1000
0010
0100
0001
0010
0001
0100
,
0010
1000
0100
0001
0100
0010
1000
0001
1000
0001
0100
0010
1000
0100
0010
0001
,
0010
1000
0001
0100
0001
1000
0010
0100
1000
0100
0001
1000
0010
0100
0001
1000
,
0010
0001
1000
0100
0001
0010
1000
0100
0001
1000
0010
1000
0001
0100
0001
1000
,
0010
0100
0001
1000
0010
0100
0001
1000
0010
1000
0100
0001
1000
0100
0001
1000
,
0010
1000
0001
0100
0001
1000
0010
0100
1000
0001
0100
1000
0010
0001
0100
0010
,
1100
0001
1100
0001
1100
0001
1100
0001
1100
0001
1100
0001
1100
0001
1100
0001
,
2100
0001
0011
0010
0011
0010
0110
0100
,
0101
0000
0001
0000
0101
0000
0100
0000
0110
0000
0010
0000
0011
0000
0010
3000
,
0012
0100
1100
0010
1010
0100
0110
1000
,
1100
0000
0010
0000
1100
0000
0100
0000
1010
0000
1000
0000
0110
0000
0100
0003
,
1110
0001
1000
0100
0010
0100
1000
0100
0010
0001
1000
0001
1000
0100
0010
0001
,
1110
0001
1000
0100
0010
0100
0010
0001
0010
0100
0001
0010
0100
1000
0001
1000
,
0111
1000
0100
0010
1000
0100
0010
0001
0010
0100
0001
1000
0001
0100
0010
1000
,
0111
1000
0010
0100
1000
0100
0001
1000
0001
0010
0100
0001
1100
0001
1100
0001
,
2200
0000
3300
0000
0002
0000
0000
0000
0020
0000
0000
0000
0200
0000
0000
0000
2000
0000
0000
3333
2220
0000
0000
3330
2202
0000
0000
3303
0222
0000
0000
0333
,
1110
0001
0010
0100
1001
0100
0010
0100
0011
1000
0100
1000
0101
0010
0101
0010
,
0202
0000
0000
0303
2020
0000
0000
3030
2002
0000
0000
3003
0220
0000
0000
0330
,
1110
0001
0010
0100
1001
0010
0100
1000
0101
0010
0001
0010
1001
0100
0010
0100
,
0011
1000
0110
0001
1100
0010
0101
1000
0011
0100
1001
0010
0101
1000
0110
0001
,
2220
3330
1110
0000
0111
0000
1101
0000
,
1000
0100
0010
0001
0000
0000
0001
0010
0100
1000
0000
0000
1000
0100
0010
0001
0000
0000
0001
0010
0100
1000
0000
0000
,
1000
0100
0010
0001
1000
0100
0010
0001
1000
0100
0010
0001
1000
0100
0010
0001
1000
0100
0010
0001
1000
0100
0010
0001
,
2200
0001
0010
0001
0010
0001
0010
3301
,
0022
1000
0100
1000
0100
1000
0100
1033
,
1101
0010
0100
1000
0110
0001
0010
0100
1001
0010
0100
0010
1001
0010
0100
1000
,
0111
1000
0001
1000
0110
0001
0010
0100
0011
1000
0001
0010
1100
0010
0001
0010
,
1101
0010
0100
1000
0110
0001
1000
0001
1010
0100
0010
0001
1010
0100
0010
0001
,
1110
0001
0010
0001
0110
1000
0100
0010
1001
0100
1000
0100
0011
1000
0100
0010
,
1101
0010
0100
0010
1100
0001
1000
0001
1010
0100
0010
0001
1100
0010
0100
1000
,
0111
1000
0100
0010
1001
0100
0010
0001
1010
0100
1000
0100
0011
0100
1000
0100
,
1011
0100
0010
0001
1100
0010
0100
1000
0101
0010
0001
0010
1100
0010
0100
1000
,
0111
0000
0111
0000
0111
0000
0222
0000
0000
0333
0000
0000
1000
0100
0010
0001
,
2110
0001
0010
0100
0011
0100
0010
3001
1100
0010
0100
1000
0101
0010
0100
0010
,
2202
0000
0000
3303
0011
1100
0011
1100
0022
0000
0000
0033
1100
0010
0100
1000
,
0111
1000
0100
0010
1001
0100
0010
0001
1010
0100
0010
0001
1100
0010
0100
0010
,
2202
0000
3303
0000
0110
1001
0110
1001
0220
0000
0000
0330
1001
0100
0010
0001
,
1110
0001
0010
0001
1010
0100
0010
0100
1001
0010
0100
1000
0011
0100
0010
0001
,
1110
0001
1000
0001
1100
0010
0100
1000
0101
0010
0001
0010
1001
0100
0010
0001
,
1110
0001
1000
0001
1100
0010
0100
1000
0101
0010
0001
0010
0101
1000
0100
0010
,
2202
0000
3303
0000
1100
0011
1100
0011
2200
0000
3300
0000
0110
1001
0110
1001
,
0220
0330
2200
3300
,
1111
0011
0101
1010
0110
0011
1001
0110
,
1111
0011
0110
1100
0011
0110
1001
1010
,
1111
1100
0110
0011
0110
1100
0110
0011
,
1111
1001
0110
1010
1100
0101
0011
0110
,
1111
0011
0011
0110
1001
0110
1100
1100
,
1111
0110
1001
1010
0101
1001
0110
0011
,
1111
1100
0011
1010
0110
1001
0101
0110
,
1111
1100
0011
0110
0011
1001
1010
0101
,
1111
0000
0000
0000
0001
1000
0001
1000
0001
1000
0001
1000
0001
1000
0001
1000
,
0111
0000
0000
0000
0100
0010
0100
1011
0000
0000
0001
1000
0111
0000
0000
0000
,
1110
1110
1110
2220
0000
3330
0111
0111
,
0111
0222
0000
0000
0333
0000
0000
0000
;
