#TITLE:Fascination MAXX;
#SUBTITLE:;
#ARTIST:100-200-400;
#TITLETRANSLIT:;
#SUBTITLETRANSLIT:;
#ARTISTTRANSLIT:;
#CREDIT:;
#BANNER:Fascination MAXX.png;
#BACKGROUND:Fascination MAXX-bg.png;
#LYRICSPATH:;
#CDTITLE:Inujosha-cd.bmp;
#MUSIC:Fascination MAXX.mp3;
#OFFSET:-0.079;
#SAMPLESTART:19.770;
#SAMPLELENGTH:15.000;
#SELECTABLE:YES;
#BPMS:0.000=100.000,16.000=400.000,80.000=200.000,82.000=400.000,98.000=200.000,99.000=400.000,110.000=200.000,111.500=400.000,128.500=200.000,129.500=400.000,138.500=100.000,154.500=200.000,265.083=400.000,377.083=100.001,381.083=200.002,389.083=400.000;
#STOPS:250.500=2.300
,258.167=0.525
,412.000=1.000
;
#BGCHANGES:;
// cache tags:
#FIRSTBEAT:15.000;
#LASTBEAT:412.250;
#SONGFILENAME:Songs/toune 3/Fascination MAXX/Fascination MAXX.sm;
#HASMUSIC:1;
#HASBANNER:1;
#MUSICLENGTH:101.963;
// end cache tags

//---------------dance-single - Inujosha Edit----------------
#NOTES:
     dance-single:
     Inujosha Edit:
     Hard:
     10:
     0.967,1.000,1.000,0.549,0.314,529.000,105.000,56.000,0.000,0.000:
0000
0000
0000
0000
,
0000
0000
0000
0000
,
0000
0000
0000
0000
,
0000
0000
0000
0000
0000
0000
0000
0000
0000
0000
0000
0000
0000
0000
0000
0000
0000
0000
0000
0000
0000
0000
0000
0000
0001
0010
0001
0010
0001
0010
0001
0010
,
1000
0100
0001
0010
,
0001
0010
0100
0010
,
0000
0001
0100
1000
,
0100
0010
0100
1000
,
0001
0100
0000
0010
,
0000
0001
0010
0100
,
0010
0001
0010
0000
,
1000
0001
0000
0100
,
0010
0001
0010
0100
,
1000
0010
0100
1000
,
0100
0010
0001
0010
,
0000
0100
0010
0000
,
1000
0100
0010
0001
,
0010
0001
0010
0100
,
1000
0100
0010
0001
,
0010
0100
1000
0001
,
1001
0110
1001
0100
,
0010
0100
1000
0001
,
0010
0100
1000
0001
,
0010
0000
0100
1000
0100
0010
0100
1000
,
0100
1000
0100
0010
1001
0000
0100
0000
,
1000
0010
0001
0010
,
0100
1000
0010
0001
,
0100
0001
0010
1000
0100
0000
0000
1001
,
0000
0100
0000
0010
0000
1000
0000
0010
,
0000
0001
0000
1000
0000
0100
0000
1000
,
0000
0010
0000
0001
0000
0100
0000
1000
,
0000
0100
0000
0010
0001
0010
0100
1000
,
0100
0010
0000
0100
0000
0001
0000
0100
,
0000
1000
0000
0100
0000
0010
0000
0001
,
0100
1000
0010
0100
0000
1000
0000
0000
,
1000
0000
0100
0000
0000
0001
0010
0000
0000
1000
0100
0000
0010
0000
0001
0000
,
0000
0000
0000
0000
0000
0010
0000
0100
0000
0000
0000
0010
0000
0001
0000
0100
0000
0000
0000
0000
0000
1000
0000
0000
,
0000
0000
0000
0000
0000
0000
0100
0000
0000
0000
0010
0000
0000
0000
0001
0000
0000
0000
0010
0000
0000
0100
0000
0000
0000
0000
0000
0000
0000
0000
1000
0000
0000
0000
0100
0000
0000
0000
0010
0000
0000
0000
0001
0000
0000
0000
0100
0000
,
0000
0000
0000
0000
0000
0000
0000
0000
1000
0000
0000
0000
0000
0000
0000
0000
0000
0000
0000
0000
0000
0000
0000
0000
0100
0000
0000
0000
0000
0000
0000
0000
0000
0000
0000
0000
0010
0000
0000
0000
0000
0000
0000
0000
0000
0000
0000
0000
0001
0000
0000
0000
0000
0000
0000
0000
0000
0000
0000
0000
0010
0000
0000
0000
0000
0000
0000
0000
0000
0000
0000
0000
1000
0000
0000
0000
0000
0000
0100
0000
0000
0000
0000
0000
1000
0000
0000
0000
0000
0000
0100
0000
0000
0000
0000
0000
1001
0000
0000
0000
0000
0000
0100
0000
0000
0000
0000
0000
0010
0000
0000
0000
0000
0000
0100
0000
0000
0000
0000
0000
0011
0000
0000
0000
0000
0000
0000
0000
0000
0000
0000
0000
0000
0000
0000
0000
0000
0000
0000
0000
0000
0000
0000
0000
0000
0000
0000
0000
0000
0000
0000
0000
0000
0000
0000
0000
0000
0000
0000
0000
0000
0000
0000
0000
0000
0000
0000
0000
0110
0000
0000
0000
0000
0000
0000
0000
0000
0000
0000
0000
0000
0000
0000
0000
0000
0000
0000
0000
0000
0000
0000
0000
,
0000
0011
0000
0110
0000
1100
0000
0110
,
0000
0000
0011
0000
0000
0000
0110
0000
0110
0000
0011
0000
0000
0000
2002
3003
,
0000
0000
0220
0330
0000
0000
0022
0033
0000
0000
2002
3003
0000
0000
0100
0000
,
0000
1000
0000
0010
0010
0010
0000
0100
,
1000
0000
0100
0000
1000
0000
0010
0000
0001
0000
1000
0000
0000
0000
2002
3003
,
0000
0000
0010
0000
0000
0000
1000
0000
0100
0000
0022
0033
0000
0000
0100
0000
,
0000
0001
0000
0100
0000
1000
0000
0110
,
0000
0000
0011
0000
0000
0000
1000
0000
0010
0000
0100
0000
0000
0000
2200
3300
,
0000
0000
0100
0000
0000
0000
0010
0000
0000
0000
0022
0033
0000
0000
0001
0000
,
0000
0100
0000
1000
0100
1000
0000
0011
,
0000
0000
0220
0330
0000
0000
1000
0000
0100
0000
1000
0000
0000
0000
0010
0000
,
0100
0000
0010
0000
0001
0000
0010
0000
0100
0000
2002
3003
0000
0000
0010
0000
,
0000
1001
0000
0010
0000
1001
0000
0100
,
0000
0000
2002
3003
0000
0000
1000
0000
0100
0000
0001
0000
0000
0000
0220
0330
,
0000
0000
1000
0000
0000
0000
0110
0000
0000
0000
0022
0033
0000
0000
0000
0000
,
0010
0000
0001
0000
0100
0000
1000
0000
0000
0000
0220
0330
0000
0000
2200
3300
,
0000
0000
0022
0033
0000
0000
0000
0000
1000
0000
0100
0000
0010
0000
0001
0000
,
0000
0000
0100
0000
0000
0000
0001
0000
0000
0000
2020
3030
0000
0000
1000
0000
,
0010
0000
0100
0000
0000
0000
0022
0033
0000
0000
1000
0000
0010
0000
0100
0000
,
0000
0000
2002
3003
0000
0000
0110
0000
0011
0000
1100
0000
0000
0000
2002
3003
,
0000
0000
0022
0033
0000
0000
2200
3300
0000
0000
0220
0330
0000
0000
0001
0000
,
0100
0000
1000
0000
0010
0000
0001
0000
0100
0000
2002
3003
0000
0000
0220
0330
,
0000
0000
0022
0033
0000
0000
1000
0000
0010
0000
0001
0000
0100
0000
0220
0330
,
0000
0000
0000
0100
0000
0000
1000
0000
0000
0100
0000
0000
0010
0000
0000
0100
1001
0000
0100
0000
0010
0000
1001
0000
,
0010
0100
1001
0100
0010
0101
0010
0001
1010
0100
1000
0011
,
0100
0010
0101
0010
0100
0011
0100
1000
0100
1001
0100
0010
,
1001
0010
0100
0011
1000
0010
0101
1000
0100
0011
0100
1000
,
0011
0000
0100
0000
1000
0000
0001
0000
0000
0000
0000
0000
0100
0000
0000
0000
0000
0000
1000
0000
0000
0100
0000
0000
,
1000
0100
1000
0000
0010
0000
0001
0010
,
0001
0010
0001
0000
0100
0000
0010
0100
,
0010
0100
0010
0000
1000
0000
0100
0010
,
0001
0010
0100
0000
0001
0000
0100
1000
,
0100
0010
0100
0000
0010
0000
0001
0010
,
0001
0010
0001
0000
0100
0000
0010
0001
,
0100
1000
0100
0000
0010
0000
0100
0010
,
0001
1000
0100
0000
0100
0000
1000
0001
,
0010
0100
1000
0000
0010
0000
0100
0001
,
1000
0010
0001
0000
0010
0000
0001
0100
,
1000
0100
0001
0000
1000
0000
1000
0010
,
0001
0010
1000
0000
0010
0000
0100
0010
,
0100
0010
0001
0000
1000
0000
0100
0010
,
0100
1000
0010
0000
0001
0000
0100
0010
,
0001
0010
0100
0000
1000
0000
0100
0010
,
0001
0010
0100
0000
1010
0000
0010
0000
,
1001
0010
0011
1000
,
1001
0010
0110
0010
,
0011
0100
0101
0010
,
1010
0100
0011
1000
,
1100
0001
0110
0001
,
1001
0001
0011
0001
,
1100
0001
0110
1000
,
0110
1000
0101
0010
,
1010
0100
0101
1000
,
1001
0100
1100
0100
,
0101
0000
1000
0100
0010
0001
0010
0100
,
1000
0000
0100
0000
0010
1000
0100
0010
0100
0100
0100
0010
0001
0010
0001
0010
,
0010
0010
0001
0001
0001
0000
0000
0000
1000
0000
0100
0000
0000
0000
0010
0000
,
0000
0001
0100
0010
0001
0000
1000
0000
,
0001
1001
0110
0011
,
0000
1001
0110
0000
,
0011
1100
0000
1100
,
0110
0011
0110
1100
,
0011
0000
0000
0000
,
0000
0110
1100
0011
,
2002
3003
0000
0000
0000
0000
0000
0000
0000
0000
0000
0000
0000
0000
0000
0000
;
