#TITLE:What Goes Around... Comes Around;
#SUBTITLE:(Sebastien Leger Radio Edit);
#ARTIST:Justin Timberlake;
#TITLETRANSLIT:;
#SUBTITLETRANSLIT:;
#ARTISTTRANSLIT:;
#CREDIT:Jukuguy Original;
#BANNER:goes-bn.PNG;
#BACKGROUND:goes-bg.PNG;
#LYRICSPATH:;
#CDTITLE:;
#MUSIC:Justin Timberlake - What Goes Around Comes Around (Sebastien Leger Radio Edit).mp3;
#OFFSET:-0.862;
#SAMPLESTART:64.289;
#SAMPLELENGTH:12.000;
#SELECTABLE:YES;
#BPMS:0.000=127.968;
#STOPS:;
#BGCHANGES:;
// cache tags:
#FIRSTBEAT:9.500;
#LASTBEAT:256.500;
#SONGFILENAME:Songs/juju step2/What Goes Around Comes Around (Sebastien Leger Radio Edit)/Justin Timberlake - What Goes Around Comes Around (Sebastien Leger Radio Edit).sm;
#HASMUSIC:1;
#HASBANNER:1;
#MUSICLENGTH:123.096;
// end cache tags

//---------------dance-single - Basic----------------
#NOTES:
     dance-single:
     Basic:
     Easy:
     3:
     0.209,0.234,0.041,0.203,0.000,150.000,5.000,25.000,0.000,0.000:
0000
0000
0000
0000
,
0000
0000
0000
0000
,
0000
0000
0000
0000
,
0000
0000
0000
0000
,
0000
0000
0000
0000
0000
0000
0000
1000
,
0000
0000
0000
0000
0000
0000
0000
0001
,
0000
0000
0000
0000
0000
0000
0000
0100
,
0000
0000
0000
0000
0000
0000
0000
0010
,
0000
0000
0000
0000
0000
0000
0000
1000
,
0000
0100
0000
0001
0000
0000
0000
0000
,
0000
0010
0000
0100
0000
1000
0000
0000
,
0000
1001
0000
0000
0000
0100
0000
0000
,
0000
0010
0000
0001
0000
0000
0000
0100
,
0000
1000
0000
0000
0000
0100
0000
0000
,
0000
0010
0000
0000
0000
1000
0000
0001
,
0000
0100
0000
0000
0000
0010
0000
0000
,
0000
0100
0000
1000
0000
0001
0000
0100
,
0000
0010
0000
0000
0000
0010
0000
0000
,
0000
0100
0000
0000
0000
0100
0000
0000
,
0000
1000
0000
0000
0000
1000
0000
0000
,
0000
0001
0000
0002
0000
0013
0000
0020
,
0000
0000
0000
0200
0000
0330
0000
1000
,
0000
0001
0000
1000
0000
0000
0000
0100
,
0000
0100
0000
0100
0000
0000
0000
0010
,
0000
0010
0000
0010
0000
0000
0000
0000
,
1000
0100
0010
0000
,
0001
0010
0100
0000
,
1000
0000
0001
0000
1000
0000
0000
0010
,
0000
0000
0000
0100
0000
0100
0000
0000
,
1000
0010
0100
0000
,
0010
0001
0100
0000
,
0010
0000
1000
0000
0100
0000
0000
0010
,
0000
0000
0000
1000
0000
0000
0000
0020
,
0000
0000
0000
0000
0000
0030
0000
0001
,
0000
0000
0000
1000
0000
0000
0000
0100
,
0000
0100
0000
0010
0000
0001
0000
0000
,
0000
0001
0000
0000
0000
1000
0000
0000
,
0000
1000
0000
0000
0000
0100
0000
0010
,
0000
0001
0000
1000
0000
0100
0000
0001
,
0000
0002
0000
0000
0000
0003
0000
1000
,
0000
0000
0000
0100
0000
0010
0000
0100
,
0000
1001
0000
0000
0000
1001
0000
0100
,
0000
0010
0000
1000
0000
0000
0000
1000
,
0000
0200
0000
0000
0000
0300
0000
0001
,
0000
0000
0000
1000
0000
0000
0000
0020
,
0000
0000
0000
0000
0000
0030
0000
1000
,
0000
0000
0000
0100
0000
0001
0000
0100
,
0000
0100
0000
1000
0000
1000
0000
0010
,
0000
0100
0000
0001
0000
1001
0000
0200
,
0000
0300
0000
0200
0000
0300
0000
0200
,
0000
0300
0000
0200
0000
0300
0000
0010
,
0000
0001
0000
1000
0000
0000
0000
1000
,
0000
0100
0000
0001
0000
0000
0000
0020
,
0000
0030
0000
0020
0000
0030
0000
0020
,
0000
0030
0000
0020
0000
0030
0000
1000
,
0000
0001
0000
0100
0000
0000
0000
0010
,
0000
0001
0000
1000
0000
0000
0000
2000
,
0000
3000
0000
2000
0000
3000
0000
2000
,
0000
3000
0000
2000
0000
3000
0000
0010
,
0000
0001
0000
0100
0000
0000
0000
0001
,
0000
1000
0000
0100
0000
0000
0000
0200
,
0000
0300
0000
0200
0000
0300
0000
0200
,
0000
0300
0000
0200
0000
0300
0000
0010
,
0000
0001
0000
1000
0000
0001
0000
2002
,
0000
3003
0000
0000
0000
0000
0000
0000
;

//---------------dance-single - Standard----------------
#NOTES:
     dance-single:
     Standard:
     Medium:
     5:
     0.325,0.337,0.114,0.138,0.000,249.000,14.000,17.000,0.000,0.000:
0000
0000
0000
0000
,
0000
0000
0000
0000
,
0000
0000
0000
0000
,
0000
0000
0000
0000
,
0000
0000
0000
0000
0000
0000
0000
0001
,
1000
0000
0100
0000
0010
0000
0000
1000
,
0001
1000
0000
0100
0000
0010
0000
0001
,
1000
0000
0100
0000
0010
0000
0000
0001
,
1000
0100
0000
0010
0000
0001
0000
0100
,
1000
0000
0100
0000
0010
0000
0000
0001
,
1000
0001
0000
0100
0000
1000
0000
0010
,
0100
0000
0001
0000
1001
0000
0000
1000
,
0100
0010
0000
0100
0000
0110
0000
1000
,
0100
0010
0001
0000
0100
0000
0000
0001
,
0000
1000
0000
0100
0000
0010
0000
1000
,
0100
0010
0001
0000
0010
0000
0000
0001
,
0000
1000
0000
0100
0000
0010
0000
2000
,
0000
0000
0000
0000
0000
3000
0000
0001
,
0000
0000
0000
0100
0000
0000
0000
0020
,
0000
0000
0000
0000
0000
0030
0000
1000
,
0000
0100
0000
0001
0100
1000
0000
0100
,
0000
0010
0100
0000
0000
1001
0000
1000
,
0100
0010
0000
0001
0000
0100
0001
0100
,
0000
0010
0000
1000
0100
0010
0000
0100
,
0000
0010
0000
0110
0000
0100
0000
0000
,
0001
1000
0000
1000
0100
0000
0110
0000
,
0010
0001
0000
0001
0100
0000
0110
0000
,
0010
1000
0000
1000
0100
0000
0110
0010
,
0000
0001
0000
1000
0000
0100
0000
0000
,
0010
0001
0000
0001
0100
0000
0110
0000
,
0010
1000
0000
1000
0100
0000
0101
0000
,
0001
1000
0000
1000
0100
0000
0010
0100
,
0000
0001
1000
0000
0100
0000
0010
0000
,
0200
0000
0310
0000
0020
0000
0030
1000
,
0000
0100
0000
0001
0000
0100
0000
1000
,
1000
1000
0000
0000
0000
0001
0000
0100
,
0000
0010
0000
1000
0000
0100
0001
1000
,
0000
0100
0000
0100
0000
0000
0000
0001
,
1000
0100
0000
0010
0000
0001
0000
0100
,
0001
1000
0000
0010
0000
0000
0010
1000
,
0100
0000
0000
0010
0000
0010
1000
0200
,
0000
0000
0000
0000
0000
0300
0000
0010
,
0000
1000
0000
0001
0000
1000
0000
1100
,
0000
1100
0000
0000
0000
0001
0000
0100
,
0000
0110
0000
0010
0000
1010
0000
2000
,
0000
0000
0000
0000
0000
3000
0000
0010
,
0000
0001
0000
0100
0000
0001
0000
2000
,
0000
3000
0000
0020
0000
0100
0000
0100
,
0000
0130
0000
0100
0001
1000
0100
0010
,
0000
0010
0001
0010
0000
0001
1000
0001
,
0000
1000
0100
1000
0000
0010
0000
0100
,
0010
0200
0000
0000
0000
2300
0000
0000
,
0000
3200
0000
0000
0000
0310
0001
0010
,
0000
0001
1000
0001
0000
1000
0100
1000
,
0000
0010
0100
0010
0000
0001
0000
1000
,
0000
0200
0000
0000
0000
0320
0000
0000
,
0000
2030
0000
0000
0000
3100
0001
0100
,
0000
0001
1000
0001
0000
1000
0100
0010
,
0000
0001
0100
0001
0000
0010
0000
1000
,
0000
0200
0000
0000
0000
0302
0000
0000
,
0000
0023
0000
0000
0000
1030
0100
1000
,
0000
0010
0001
0010
0000
0001
0100
0001
,
0000
1000
0100
1000
0000
0010
0000
0100
,
0000
0100
0000
0010
0000
1000
0000
1001
;

//---------------dance-single - Heavy----------------
#NOTES:
     dance-single:
     Heavy:
     Hard:
     8:
     0.518,0.493,0.089,0.301,0.000,398.000,11.000,37.000,0.000,0.000:
0000
0000
0000
0000
,
0000
0000
0000
0000
,
0000
0000
0000
1000
1000
1000
0000
0010
,
0100
0001
0100
0010
0010
0010
0000
0001
,
1000
0001
1000
0100
0100
0100
0000
0010
,
0001
1000
0100
1000
1000
1000
0000
0010
,
0100
0010
0000
0100
0000
0001
0000
1000
,
0100
0001
0100
0010
0001
1000
0001
1000
,
0100
0010
0001
0010
0001
0100
0010
1000
,
0000
0001
0000
1000
0000
0100
0001
0010
,
1000
0010
0100
0001
1000
0001
0100
0002
,
0000
1000
0000
0100
0000
1000
0000
1000
,
0000
0010
0000
0100
0000
0010
0000
0013
,
0001
1000
0100
1000
0010
0100
0001
1000
,
0100
0010
0001
0010
0010
0001
0001
0002
,
0100
0100
0000
0100
0000
1000
0000
0010
,
0000
0100
0000
0010
0010
0100
0100
1003
,
1000
0001
0000
1000
0000
0100
0001
0100
,
0100
0010
1000
0010
0010
1000
0001
0200
,
0000
0010
0000
0001
0000
0010
0010
0000
,
1000
1000
0001
0301
1000
1001
0000
0020
,
0000
0000
0001
0030
0001
0000
2000
0100
,
0001
3100
0002
1000
0100
1003
0100
0010
,
0001
0100
0001
1000
1000
1000
0010
0100
,
0001
1000
0100
0010
0001
0011
1100
0000
,
0001
0100
0010
0100
0100
0001
0100
0000
,
1000
0010
0100
0010
0010
0100
0010
0000
,
0001
1000
0100
0001
0001
0100
0001
1000
,
0010
0001
0010
1000
0010
0001
0100
0000
,
0001
1000
0100
1000
1000
1000
1000
0000
,
0010
0001
0100
0001
0001
0001
0001
0000
,
0010
1000
0100
0001
1000
0001
1000
1001
,
0000
0100
0010
0000
0100
0000
2000
0000
,
0010
0000
3001
0000
0002
0000
1000
0100
,
1003
0100
1000
0000
0010
0100
0000
0101
,
0010
1000
0010
0101
0010
1000
0010
0102
,
0000
1000
0100
0010
0003
0010
0001
0020
,
0000
0100
0000
1000
0000
0130
0000
0001
,
1000
1000
0100
0100
0010
0010
1000
0001
,
0001
0200
0000
1000
0000
0010
0001
0310
,
0100
2000
0100
3001
0000
0001
2000
0010
,
0000
3100
0000
1001
0000
0010
0001
1000
,
0100
0001
0100
0020
0001
0001
0100
1000
,
0130
1000
0000
0100
0000
0001
0000
0100
,
0020
0001
0000
0031
0200
1000
0000
1300
,
0020
0001
0001
0130
0020
0100
0100
0031
,
0020
0001
0001
0130
0020
1000
1000
0031
,
0001
0200
0000
0320
0000
0230
0000
0320
,
0000
0230
0320
0230
0320
0230
1300
0001
,
0000
0010
0001
0100
0000
0100
1000
0010
,
0000
0010
0001
0100
1000
0010
0001
0100
,
1000
0020
0000
0000
0000
0000
0000
0130
,
0001
1000
0000
0000
0010
0001
0100
1000
,
0010
0001
0100
1000
0010
0001
0100
1000
,
0010
0001
0100
1000
0010
0010
0000
0100
,
0001
2000
0000
0000
0010
3001
0000
0100
,
0000
0110
0000
0001
1000
0100
0001
0020
,
0001
0001
0031
0002
0010
0010
0013
0020
,
0100
0100
0130
2000
0100
0100
3100
1100
,
0001
0100
0000
0010
0000
1000
0000
1001
,
0000
0100
0020
0100
1000
0130
1000
0100
,
0000
0001
0100
0001
0000
0010
1000
0010
,
0000
0100
0001
0100
0010
1000
0000
1000
,
0001
0200
0000
1000
1000
0310
0010
0001
;
