#TITLE:GOLDEN SKY;
#SUBTITLE:;
#ARTIST:SMILE.dk;
#TITLETRANSLIT:;
#SUBTITLETRANSLIT:;
#ARTISTTRANSLIT:;
#CREDIT:;
#BANNER:GOLDEN SKY.png;
#BACKGROUND:GOLDEN SKY-bg.png;
#LYRICSPATH:;
#CDTITLE:Dance Mania EX5.png;
#MUSIC:GOLDEN SKY.mp3;
#OFFSET:-7.127;
#SAMPLESTART:27.513;
#SAMPLELENGTH:12.000;
#SELECTABLE:YES;
#BPMS:0.000=135.008;
#STOPS:;
#BGCHANGES:;
// cache tags:
#FIRSTBEAT:0.000;
#LASTBEAT:188.000;
#SONGFILENAME:Songs/new/GOLDEN SKY/GOLDEN SKY.sm;
#HASMUSIC:1;
#HASBANNER:1;
#MUSICLENGTH:92.369;
// end cache tags

//---------------dance-single - Official SN Steps----------------
#NOTES:
     dance-single:
     Official SN Steps:
     Hard:
     6:
     0.425,0.433,0.260,0.032,0.000,248.000,24.000,3.000,0.000,0.000:
1000
0100
0010
0000
0001
0100
0010
0000
,
0100
0000
0001
0000
0010
1000
0100
0000
,
0011
1100
1010
0101
,
1000
0100
0001
0100
1000
0000
1001
0000
,
0010
0000
0001
0000
1000
0010
0100
0000
,
0001
0000
0010
0000
0100
0010
0001
0000
,
1000
0001
0100
0000
0001
1000
0010
0000
,
0100
0001
1000
0001
0100
0000
1100
0000
,
0010
0000
1000
0000
0100
0001
0010
0000
,
1000
0000
0001
0000
0010
0001
0100
0000
,
0010
0001
1000
0000
0010
1000
0100
0000
,
0102
0000
0010
1003
,
0110
0000
0001
0010
0100
0000
1000
0010
,
0100
0000
0001
1000
0010
1000
0001
0000
,
0100
0000
0010
0100
1000
0000
0010
1000
,
0100
0000
0001
0000
1000
0001
0100
0000
,
0010
0100
0001
0000
0110
0000
1000
0100
,
0001
0100
1000
0000
0010
0000
0101
0000
,
1000
0000
0010
0100
1000
0100
0010
0000
,
1001
0000
0100
0000
0010
0001
0100
0000
,
1000
0100
0010
0000
0001
0100
0010
0000
,
0100
0000
0001
0000
0010
1000
0100
0000
,
0011
1100
1010
0101
,
0010
1000
0100
1000
0010
0000
1001
0000
,
1100
0000
0010
0001
0100
0000
0010
1000
,
0100
0000
0001
0010
1000
0010
0001
0000
,
1000
0000
0010
0100
1000
0000
0001
0100
,
0010
0000
0001
0000
0010
1000
0001
0000
,
1000
0100
1000
0000
0110
0000
0001
1000
,
0100
0010
0001
0000
1000
0000
0101
0000
,
0010
0000
0001
0100
0010
0100
0001
0000
,
0010
0000
0100
0000
1000
0001
0100
0000
,
1010
0000
0001
0010
0100
0000
1000
0010
,
0100
0000
0001
1000
0010
1000
0001
0000
,
1000
0000
0010
0100
1000
0000
0010
1000
,
0100
0000
0001
0000
1000
0001
0100
0000
,
0010
0100
0001
0000
0110
0000
1000
0100
,
0001
0100
1000
0000
0010
0000
0101
0000
,
1000
0000
0010
0100
1000
0100
0010
0000
,
1001
0000
0100
0000
0010
0001
0100
0000
,
2001
0000
0010
0000
,
3100
0000
0001
0100
1000
0100
0001
1000
,
0200
0000
0010
0001
,
1300
0000
0000
0000
0100
0001
0010
0000
,
0001
0000
0100
0000
,
0010
0100
0001
0010
1000
0000
0000
0000
,
0010
0000
0001
0000
1000
0010
0100
0001
,
1000
0000
0000
0000
;

//---------------dance-single - M0dz0r Rhye edit----------------
#NOTES:
     dance-single:
     M0dz0r Rhye edit:
     Challenge:
     9:
     0.663,0.611,0.444,0.043,0.303,384.000,41.000,4.000,0.000,0.000:
1000
0000
0001
0100
0001
0000
1000
0000
0100
0000
0010
0001
0010
0000
0001
0000
,
0100
0000
0010
1000
0001
0000
0010
0000
0100
0000
1000
0000
0100
0000
0010
0000
,
0011
0000
1100
0100
0110
0010
0011
0001
,
0100
0000
0010
1000
0100
0000
0001
0000
0100
0000
1000
0000
0100
0000
0010
0000
,
0011
0001
0100
0000
1010
0010
0100
0000
,
0101
0001
0010
0100
1000
0100
0001
0100
,
1100
1000
0010
0000
1001
1000
0100
0000
,
0011
0001
0100
1000
0100
0010
1000
0100
,
0011
0010
0100
0000
1001
0001
0100
0000
,
1010
1000
0100
0001
0100
0010
0001
0100
,
1010
0010
0100
0000
1001
0100
0010
0000
,
2002
0000
0000
3003
,
1100
0000
0100
0010
0001
0000
0100
0010
1000
0000
0100
0010
0001
0000
0001
0010
,
0100
0000
1000
0010
0100
0000
0001
0000
0010
0000
0100
0000
1000
0000
0100
0000
,
0011
0000
0010
0100
1000
0000
0010
0100
0001
0000
0010
0100
1000
0000
0100
0010
,
0001
1000
0100
0001
0100
0010
0100
0000
,
1100
0000
0010
0100
0010
0000
0001
1000
0001
0000
0100
0000
0010
0000
1000
0000
,
0011
0000
1000
0100
0010
0000
0010
0100
1000
0000
0001
0010
0100
0000
0000
0000
,
1000
0000
0100
0001
0100
0010
0100
1000
,
0101
0010
1000
0100
,
0011
0000
0100
1000
0100
0000
0010
0000
0110
0000
0010
0001
0010
0000
0100
0000
,
1100
0000
1000
0010
1000
0000
0001
0000
0100
0000
1000
0000
0100
0000
0001
0000
,
1001
0000
0011
0010
0110
0100
1100
1000
,
0010
0000
0100
0001
0010
0000
0100
0000
1000
0000
0100
0000
0011
0000
0000
0000
,
0101
0000
0100
0010
1000
0000
0100
0010
0001
0000
0100
0010
1000
0000
1000
0010
,
0100
0000
0001
0010
0100
0000
1000
0000
0010
0000
0100
0000
0001
0000
0100
0000
,
1010
0000
0010
0100
0001
0000
0010
0100
1000
0000
0010
0100
0001
0000
0100
0010
,
1000
0001
0100
1000
0100
0010
0100
0000
,
0101
0000
0010
0100
0010
0000
1000
0001
1000
0000
0100
0000
0010
0000
0001
0000
,
1010
0000
0001
0100
0010
0000
0010
0100
0001
0000
1000
0010
0100
0000
0000
0000
,
0001
0000
0100
1000
0100
0010
0100
0001
,
1100
0000
1000
0100
0001
0000
0001
0100
1000
0000
0010
0100
0001
0000
0000
0000
,
1100
0000
0100
0010
0001
0000
0100
0010
1000
0000
0100
0010
0001
0000
0001
0010
,
0100
0000
1000
0010
0100
0000
0001
0000
0010
0000
0100
0000
1000
0000
0100
0000
,
0011
0000
0010
0100
1000
0000
0010
0100
0001
0000
0010
0100
1000
0000
0100
0010
,
0001
1000
0100
0001
0100
0010
0100
0000
,
1100
0000
0010
0100
0010
0000
0001
1000
0001
0000
0100
0000
0010
0000
1000
0000
,
0011
0000
1000
0100
0010
0000
0010
0100
1000
0000
0001
0010
0100
0000
0000
0000
,
1000
0000
0100
0001
0100
0010
0100
1000
,
0101
0000
0001
0100
1000
0000
1000
0100
0001
0000
0010
0100
1000
0000
0000
0000
,
2001
0000
0010
0010
0010
0000
0100
0100
,
3100
0000
1000
0100
0001
0100
0010
0001
,
0200
0000
0010
0010
0010
0000
1000
0000
,
0301
0000
1000
0100
,
0010
0001
0100
0010
0100
0000
1000
0100
,
0001
0010
0100
1000
1000
0000
0000
0000
,
0010
0000
1000
0100
0001
0100
0010
0001
,
1010
0000
0000
0000
;
