#TITLE:Follow You;
#SUBTITLE:;
#ARTIST:DJ Sharpnel;
#TITLETRANSLIT:;
#SUBTITLETRANSLIT:;
#ARTISTTRANSLIT:;
#CREDIT:;
#BANNER:follow you bn.png;
#BACKGROUND:follow you bg.png;
#LYRICSPATH:;
#CDTITLE:;
#MUSIC:Follow You.ogg;
#OFFSET:-0.455;
#SAMPLESTART:133.984;
#SAMPLELENGTH:21.524;
#SELECTABLE:YES;
#BPMS:0.000=178.400;
#STOPS:;
#BGCHANGES:;
// cache tags:
#FIRSTBEAT:29.000;
#LASTBEAT:957.000;
#SONGFILENAME:Songs/SHARPNELSTREAMZ v2/Follow You/Follow You.sm;
#HASMUSIC:1;
#HASBANNER:1;
#MUSICLENGTH:322.847;
// end cache tags

//---------------dance-single - 14 (TYLR)----------------
#NOTES:
     dance-single:
     14 (TYLR):
     Hard:
     14:
     1.000,1.000,0.040,0.090,1.000,2659.000,13.000,29.000,53.000,0.000:
0000
0000
0000
0000
,
0000
0000
0000
0000
,
0000
0000
0000
0000
,
0000
0000
0000
0000
,
0000
0000
0000
0000
,
0000
0000
0000
0000
,
0000
0000
0000
0000
,
0000
0MM0
0000
0000
,
1001
0000
0001
1000
0001
0000
0000
0000
0000
0000
1000
0010
1000
0000
0000
0000
,
0000
0000
0001
0010
0001
0000
0000
0000
0000
0000
1000
0010
1000
0000
0000
0000
,
0000
0000
0001
0100
0001
0000
0000
0000
0000
0000
1000
0100
1000
0000
0000
0000
,
0000
0000
0001
0010
0001
0000
0000
0000
0000
0000
1000
0010
1000
0000
0000
0000
,
0000
0000
0001
0010
0001
0000
0000
0000
0000
0000
1000
0001
1000
0000
0000
0000
,
0000
0000
0001
0100
0001
0000
0000
0000
0000
0000
1000
0010
1000
0000
0000
0000
,
0000
0000
0001
0010
0001
0000
0000
0000
0000
0000
1000
0100
1000
0000
0000
0000
,
0000
0000
0001
1000
0001
0000
0000
0000
0000
0000
1000
0010
1000
0000
0000
0000
,
1001
0000
0001
1000
0001
0000
1000
0000
0010
0000
0100
0001
0100
0000
0010
0000
,
1000
0000
0001
0010
0001
0000
1000
0000
0100
0000
0010
0001
0010
0000
0100
0000
,
1000
0000
0001
0100
0001
0000
1000
0000
0010
0000
0100
0001
0100
0000
0010
0000
,
1000
0000
0001
0010
0001
0000
1000
0000
0010
0000
0100
0001
0100
0000
0010
0000
,
1000
0000
0001
1000
0001
0000
0010
0000
0100
0000
1000
0001
1000
0000
0100
0000
,
0010
0000
0001
1000
0001
0000
1000
0000
0010
0000
0100
0001
0100
0000
0010
0000
,
1000
0000
0001
0010
0001
0000
0010
0000
0100
0000
1000
0001
1000
0000
0010
0000
,
0100
0000
0001
0100
0001
0000
0100
0000
0010
0000
1000
0001
1000
0000
0100
0000
,
0011
0000
0001
1000
0001
0000
1000
0000
0010
0000
0100
0001
0100
0000
0010
0000
,
1000
0000
0001
0010
0001
0000
0010
0000
0100
0000
1000
0001
1000
0000
0001
0000
,
0100
0000
0010
1000
0010
0000
0100
0000
0001
0000
1000
0100
1000
0000
0001
0000
,
0010
0000
0100
1000
0100
0000
0010
0000
0001
0000
0100
0001
0100
0000
0010
0000
,
1000
0000
0100
0010
0100
0000
1000
0000
0001
0000
0100
0010
0100
0000
0001
0000
,
0010
0000
0100
1000
0100
0000
0010
0000
0001
1000
0001
1000
0010
0100
0001
1000
,
0100
0010
0100
1000
0001
0100
0010
1000
0100
0010
0001
1000
0010
0100
0001
0010
,
0100
1000
0100
0010
0001
0100
0010
1000
0100
0010
0100
1000
0010
0100
0001
0010
,
0200
0000
0000
0000
,
0000
0000
0000
0000
,
0000
0000
0000
0000
,
0310
0100
0010
0100
1000
0100
1000
0001
1000
0010
0100
0001
0010
0100
0010
0100
,
1000
0000
0001
0010
0001
0010
0100
0000
1000
0000
0001
1000
0001
1000
0010
0000
,
0100
0000
0001
1000
0001
1000
0100
0000
0010
0000
0001
1000
0010
0000
0010
0000
,
0100
0000
0001
0100
0001
0100
0010
0000
1000
0000
0001
0010
0001
0010
0100
0000
,
1000
0000
0010
0100
0001
0000
0001
0000
1000
0000
0100
0010
0001
1000
0001
1000
,
0001
0000
1000
0010
1000
0010
0100
0000
0001
0000
1000
0100
1000
0100
0010
0000
,
0001
0000
1000
0001
1000
0001
0100
0000
0010
0000
1000
0001
0010
0000
0010
0000
,
0100
0000
1000
0001
1000
0001
0100
0000
0010
0000
1000
0010
1000
0010
0100
0000
,
0001
0010
0001
0010
0100
1000
0100
0010
0001
1000
0001
0100
0010
1000
0100
0010
,
0001
0000
0010
0001
0010
0001
0010
0000
0010
0000
0100
1000
0100
1000
0100
0000
,
0100
0000
1000
0001
1000
0001
0100
0000
0001
0000
1000
0100
0010
0000
0010
0000
,
0001
0000
1000
0001
1000
0001
0100
0000
0001
0000
1000
0010
1000
0010
0100
0000
,
0010
0000
1000
0001
1000
0001
0010
0000
0100
0000
1000
0001
0100
0000
0100
0000
,
0010
0000
1000
0010
1000
0010
0100
0000
0010
0000
1000
0001
1000
0001
0100
0000
,
0001
0000
1000
0100
1000
0100
0010
0000
0100
0000
1000
0001
0100
0000
0100
0000
,
0001
0000
0010
0100
0010
0100
1000
0000
0100
0000
0010
0001
0010
0001
1000
0000
,
1001
0000
0000
0000
0000
0000
0001
0000
0000
0100
0000
0000
0000
0000
0000
0000
0000
0000
0010
0000
1000
0000
0010
0000
1000
0000
0000
0000
0000
0000
0001
0000
1000
0000
0001
0000
4000
0000
3000
0000
0000
0000
4000
0000
3000
0000
0000
0000
,
1001
0000
0001
0010
0001
0010
0100
0000
1000
0000
0001
0100
0001
0100
0010
0000
,
1000
0000
0010
0100
0010
0100
0001
0000
1000
0000
0100
1000
0001
0000
0001
0000
,
0100
0000
0010
1000
0010
1000
0001
0000
0010
0000
0100
1000
0100
1000
0001
0000
,
1000
0000
0001
0100
0001
0100
0001
0000
1000
0000
0001
1000
0100
0000
0100
0000
,
0010
0000
0001
0010
0001
0010
0100
0000
1000
0000
0001
0100
0001
0100
0010
0000
,
1000
0000
0100
1000
0100
1000
0001
0000
0010
0000
0100
0010
0100
0010
0001
0000
,
1000
0000
0001
1000
0001
1000
0001
0000
1000
0000
0001
1000
0001
1000
0010
0000
,
0110
0000
0000
0000
0000
0000
0000
0000
0000
0000
0010
0000
1000
0001
1000
0001
,
0010
0000
0100
1000
0100
1000
0001
0000
0100
0000
0010
1000
0010
1000
0100
0000
,
0010
0000
0001
1000
0001
1000
0010
0000
0100
0000
0001
1000
0100
0000
0100
0000
,
0010
0000
0001
1000
0001
1000
0010
0000
0100
0000
0001
0010
0001
0010
0100
0000
,
1000
0000
0010
0100
0010
0100
0001
0000
1000
0000
0100
0010
0001
0000
0001
0000
,
1000
0000
0010
0100
0010
0100
0001
0000
1000
0000
0100
0010
0100
0010
0001
0000
,
0100
0000
0010
1000
0010
1000
0001
0000
0010
0000
0100
1000
0100
1000
0001
0000
,
1000
0010
1000
0001
1000
0100
0010
0001
1000
0001
0010
0100
1000
0010
0100
0001
,
1000
0000
0000
0000
0000
0000
0000
0000
0000
0000
0000
0000
0000
0000
0000
0001
0010
0001
0040
0030
0000
0040
0030
0000
,
0100
0000
0000
0000
,
0000
0000
0000
0000
,
0000
0000
0000
0000
,
0000
0000
0000
0000
,
00M0
0000
0000
M000
0000
0000
000M
0000
0000
0M00
0000
0000
000M
0000
0M00
0000
,
00M0
0000
0000
M000
0000
0000
0M00
0000
0000
00M0
0000
0000
0M00
0000
00M0
0000
,
000M
00M0
0M00
000M
00M0
0M00
000M
00M0
0M00
000M
00M0
0M00
M000
0M00
00M0
M000
0M00
00M0
M000
0M00
00M0
M000
0M00
00M0
,
000M
00M0
0M00
M000
000M
00M0
0M00
M000
000M
00M0
0M00
M000
00M0
0M00
000M
0000
,
1001
0000
1000
0010
0000
1000
0100
0000
0010
0001
0000
1000
0100
0000
0010
0000
,
0001
0000
1000
0001
0000
1000
0010
0000
0100
0001
0000
1000
0010
0000
0100
0000
,
0001
0000
1000
0001
0000
1000
0100
0000
0010
0001
0000
1000
0010
0000
0200
0000
,
0000
0310
1000
0200
0000
0310
0001
1000
,
0010
0000
1000
0001
0000
1000
0100
0000
0010
0001
0000
1000
0100
0000
0010
0000
,
0001
0000
1000
0001
0000
1000
0010
0000
0100
0001
0000
1000
0010
0000
0100
0000
,
0001
1000
0001
1000
0001
1000
0001
1000
0001
1000
0001
1000
0001
1000
0001
1000
,
0001
0100
0010
1000
0001
0100
0010
1000
0001
0100
0010
1000
0001
0010
0100
1000
,
0001
0000
1000
0010
0000
1000
0100
0000
0010
0001
0000
1000
0100
0000
0010
0000
,
0001
0000
1000
0001
0000
1000
0010
0000
0100
0001
0000
1000
0010
0000
0100
0000
,
0001
0000
1000
0001
0000
1000
0100
0000
0010
0001
0000
1000
0001
0000
0200
0000
,
0000
0301
0100
0020
0000
1030
0001
0010
,
0100
0000
1000
0001
0000
1000
0010
0000
0100
0001
0000
1000
0010
0000
0100
0000
,
0001
0000
1000
0001
0000
1000
0100
0000
0010
0001
0000
1000
0100
0000
0010
0000
,
0001
1000
0001
1000
0001
1000
0001
1000
0001
1000
0001
1000
0001
1000
0001
1000
,
0001
0100
0010
1000
0001
0100
0010
1000
0001
0100
0010
1000
0001
0010
0100
1000
,
0001
0000
1000
0100
0000
1000
0001
0000
0010
0100
0000
1000
0001
0000
0010
0000
,
0001
0000
1000
0010
0000
1000
0001
0000
0100
0010
0000
1000
0001
0000
1000
0000
,
0100
0000
0010
0100
0000
1000
0100
0000
0010
0001
0000
1000
0001
0000
0100
0000
,
0001
0000
1000
0100
0000
0010
0001
0000
1000
0010
0000
0100
0001
0000
0010
0000
,
0100
0000
1000
0001
0000
1000
0010
0000
0100
0001
0000
1000
0010
0000
0100
0000
,
0001
0000
1000
0100
0000
0010
0001
0000
1000
0010
0000
0100
0001
0000
0010
0000
,
0001
1000
0001
1000
0001
1000
0001
1000
0001
1000
0001
1000
0001
1000
0001
1000
,
0001
0000
0000
0000
0000
0000
1000
0000
0000
0100
0000
0000
0000
0000
0000
0010
0000
0000
0001
0000
0000
0000
0000
0000
1000
0000
0000
0000
0000
0000
0001
0000
0000
1000
0000
0000
0040
0000
0030
0000
0000
0000
0040
0000
0030
0000
0000
0000
,
1000
0100
0010
0001
1000
0001
1000
0010
0100
0001
1000
0001
0010
0100
1000
0001
,
1000
0010
0100
0001
1000
0001
1000
0100
0010
0001
1000
0001
0100
0001
0010
0100
,
1000
0001
0100
0001
0010
0100
0010
0001
1000
0001
1000
0010
0100
0001
0010
0100
,
0010
0001
1000
0010
1000
0001
0100
0001
0100
0010
1000
0001
1000
0100
0010
0001
,
1000
0001
1000
0001
0010
0100
1000
0001
0100
0001
0100
0010
1000
0010
0100
0001
,
1000
0100
1000
0001
0010
0100
0010
0001
0100
0010
0100
0001
1000
0100
1000
0001
,
1000
0100
0010
0001
1000
0100
0010
0001
1000
0100
0010
0100
1000
0001
0100
0001
,
1000
0010
0100
0001
1000
0100
1000
0100
0010
0001
0100
0001
1000
0001
0100
0010
,
1000
0010
0100
0001
1000
0001
1000
0100
0010
0001
1000
0001
0100
0010
1000
0001
,
1000
0100
0010
0001
1000
0001
1000
0010
0100
0001
1000
0001
0010
0001
0100
0010
,
1000
0001
0010
0001
0100
0010
0100
0001
1000
0001
1000
0100
0010
0001
0100
0010
,
0100
0001
1000
0100
1000
0001
0010
0001
0010
0100
1000
0001
1000
0010
0100
0001
,
1000
0001
1000
0001
0100
0010
1000
0001
0010
0001
0010
0100
1000
0100
0010
0001
,
1000
0010
1000
0001
0100
0010
0100
0001
0010
0100
0010
0001
1000
0010
1000
0001
,
1000
0010
0100
0001
1000
0010
0100
0001
1000
0010
0100
0010
1000
0001
0010
0001
,
1000
0100
0010
0001
1000
0010
1000
0010
0100
0001
0010
0001
1000
0001
0010
0100
,
1000
0100
0010
0001
1000
0001
1000
0010
0100
0001
1000
0001
0010
0100
1000
0001
,
1000
0010
0100
0001
1000
0001
1000
0100
0010
0001
1000
0001
0100
0001
0010
0100
,
1000
0001
0100
0001
0010
0100
0010
0001
1000
0001
1000
0010
0100
0001
0010
0100
,
0010
0001
1000
0010
1000
0001
0100
0001
0100
0010
1000
0001
1000
0100
0010
0001
,
1000
0001
1000
0001
0010
0100
1000
0001
0100
0001
0100
0010
1000
0010
0100
0001
,
1000
0100
1000
0001
0010
0100
0010
0001
0100
0010
0100
0001
1000
0100
1000
0001
,
1000
0100
0010
0001
1000
0100
0010
0001
1000
0100
0010
0100
1000
0001
0100
0001
,
1000
0010
0100
0001
1000
0100
1000
0100
0010
0001
0100
0001
1000
0001
0100
0010
,
1000
0010
0100
0001
1000
0001
1000
0100
0010
0001
1000
0001
0100
0010
1000
0001
,
1000
0100
0010
0001
1000
0001
1000
0010
0100
0001
1000
0001
0010
0001
0100
0010
,
1000
0001
0010
0001
0100
0010
0100
0001
1000
0001
1000
0100
0010
0001
0100
0010
,
0100
0001
1000
0100
1000
0001
0010
0001
0010
0100
1000
0001
1000
0010
0100
0001
,
1000
0001
1000
0001
0100
0010
1000
0001
0010
0001
0010
0100
1000
0100
0010
0001
,
1000
0010
1000
0001
0100
0010
0100
0001
0010
0100
0010
0001
1000
0010
1000
0001
,
1000
0010
0100
0001
1000
0010
0100
0001
1000
0010
0100
0010
1000
0001
0010
0001
,
1000
0100
0010
0001
1000
0010
1000
0010
0100
0001
1000
0100
0010
0100
1000
0001
,
2000
0000
0000
0000
0000
0000
0000
0002
,
0000
0000
0000
0000
0000
0000
0000
0000
0000
0000
0000
0000
3003
0000
0000
0001
1000
0001
4000
3000
0000
4000
3000
0000
,
0001
0000
1000
0010
0000
1000
0100
0000
0010
0001
0000
1000
0100
0000
0010
0000
,
0001
0000
1000
0001
0000
1000
0010
0000
0100
0001
0000
1000
0010
0000
0100
0000
,
0001
0000
1000
0001
0000
1000
0100
0000
0010
0001
0000
1000
0001
0000
0200
0000
,
0000
0301
0100
0020
0000
1030
0001
0010
,
0100
0000
1000
0001
0000
1000
0010
0000
0100
0001
0000
1000
0010
0000
0100
0000
,
0001
0000
1000
0001
0000
1000
0100
0000
0010
0001
0000
1000
0100
0000
0010
0000
,
0001
1000
0001
1000
0001
1000
0001
1000
0001
1000
0001
1000
0001
1000
0001
1000
,
0001
0100
0010
1000
0001
0100
0010
1000
0001
0100
0010
1000
0001
0010
0100
1000
,
0001
0000
1000
0100
0000
1000
0001
0000
0010
0100
0000
1000
0001
0000
0010
0000
,
0001
0000
1000
0010
0000
1000
0001
0000
0100
0010
0000
1000
0001
0000
1000
0000
,
0100
0000
0010
0100
0000
1000
0100
0000
0010
0001
0000
1000
0001
0000
0100
0000
,
0001
0000
1000
0100
0000
0010
0001
0000
1000
0010
0000
0100
0001
0000
0010
0000
,
0100
0000
1000
0001
0000
1000
0010
0000
0100
0001
0000
1000
0010
0000
0100
0000
,
0001
0000
1000
0100
0000
0010
0001
0000
1000
0010
0000
0100
0001
0000
0010
0000
,
0001
1000
0001
1000
0001
1000
0001
1000
0001
1000
0001
1000
0001
1000
0001
1000
,
0002
0203
0302
2003
0000
0000
3010
1000
,
1001
0000
0001
0100
0000
0001
0010
0000
0100
1000
0000
0001
0010
0000
0100
0000
,
1000
0000
0001
1000
0000
0001
0100
0000
0010
1000
0000
0001
0100
0000
0010
0000
,
1000
0000
0001
1000
0000
0001
0010
0000
0100
1000
0000
0001
0100
0000
0020
0000
,
0000
0130
0001
0020
0000
0130
1000
0001
,
0100
0000
0001
1000
0000
0001
0010
0000
0100
1000
0000
0001
0010
0000
0100
0000
,
1000
0000
0001
1000
0000
0001
0100
0000
0010
1000
0000
0001
0100
0000
0010
0000
,
1000
0001
1000
0001
1000
0001
1000
0001
1000
0001
1000
0001
1000
0001
1000
0001
,
1000
0010
0100
0001
1000
0010
0100
0001
1000
0010
0100
0001
1000
0100
0010
0001
,
1000
0000
0001
0010
0000
0001
1000
0000
0100
0010
0000
0001
1000
0000
0100
0000
,
1000
0000
0001
0100
0000
0001
1000
0000
0010
0100
0000
0001
1000
0000
0001
0000
,
0010
0000
0100
0010
0000
0001
0010
0000
0100
1000
0000
0001
1000
0000
0010
0000
,
1000
0000
0001
0010
0000
0100
1000
0000
0001
0100
0000
0010
1000
0000
0100
0000
,
0010
0000
0001
1000
0000
0001
0100
0000
0010
1000
0000
0001
0100
0000
0010
0000
,
1000
0000
0001
0010
0000
0100
1000
0000
0001
0100
0000
0010
1000
0000
0100
0000
,
1000
0001
1000
0001
1000
0001
1000
0001
1000
0001
1000
0001
1000
0001
1000
0001
,
1000
0000
0001
0100
0000
0001
0100
0000
0001
0100
0000
0000
0010
1000
0010
1000
,
0001
0010
0100
1000
0001
1000
0001
0100
0010
1000
0001
1000
0100
0010
0001
1000
,
0001
0100
0010
1000
0001
1000
0001
0010
0100
1000
0001
1000
0010
1000
0100
0010
,
0001
1000
0010
1000
0100
0010
0100
1000
0001
1000
0001
0100
0010
1000
0100
0010
,
0100
1000
0001
0100
0001
1000
0010
1000
0010
0100
0001
1000
0001
0010
0100
1000
,
0001
1000
0001
1000
0100
0010
0001
1000
0010
1000
0010
0100
0001
0100
0010
1000
,
0001
0010
0001
1000
0100
0010
0100
1000
0010
0100
0010
1000
0001
0010
0001
1000
,
0001
0010
0100
1000
0001
0010
0100
1000
0001
0010
0100
0010
0001
1000
0010
1000
,
0001
0100
0010
1000
0001
0010
0001
0010
0100
1000
0010
1000
0001
1000
0010
0100
,
0001
0100
0010
1000
0001
1000
0001
0010
0100
1000
0001
1000
0010
0100
0001
1000
,
0001
0010
0100
1000
0001
1000
0001
0100
0010
1000
0001
1000
0100
1000
0010
0100
,
0001
1000
0100
1000
0010
0100
0010
1000
0001
1000
0001
0010
0100
1000
0010
0100
,
0010
1000
0001
0010
0001
1000
0100
1000
0100
0010
0001
1000
0001
0100
0010
1000
,
0001
1000
0001
1000
0010
0100
0001
1000
0100
1000
0100
0010
0001
0010
0100
1000
,
0001
0100
0001
1000
0010
0100
0010
1000
0100
0010
0100
1000
0001
0100
0001
1000
,
0001
0100
0010
1000
0001
0100
0010
1000
0001
0100
0010
0100
0001
1000
0100
1000
,
0001
0010
0100
1000
0001
0100
0001
0100
0010
1000
0100
1000
0001
1000
0100
0010
,
0001
0010
0100
1000
0001
1000
0001
0100
0010
1000
0001
1000
0100
0010
0001
1000
,
0001
0100
0010
1000
0001
1000
0001
0010
0100
1000
0001
1000
0010
1000
0100
0010
,
0001
1000
0010
1000
0100
0010
0100
1000
0001
1000
0001
0100
0010
1000
0100
0010
,
0100
1000
0001
0100
0001
1000
0010
1000
0010
0100
0001
1000
0001
0010
0100
1000
,
0001
1000
0001
1000
0100
0010
0001
1000
0010
1000
0010
0100
0001
0100
0010
1000
,
0001
0010
0001
1000
0100
0010
0100
1000
0010
0100
0010
1000
0001
0010
0001
1000
,
0001
0010
0100
1000
0001
0010
0100
1000
0001
0010
0100
0010
0001
1000
0010
1000
,
0001
0100
0010
1000
0001
0010
0001
0010
0100
1000
0010
1000
0001
1000
0010
0100
,
0001
0100
0010
1000
0001
1000
0001
0010
0100
1000
0001
1000
0010
0100
0001
1000
,
0001
0010
0100
1000
0001
1000
0001
0100
0010
1000
0001
1000
0100
1000
0010
0100
,
0001
1000
0100
1000
0010
0100
0010
1000
0001
1000
0001
0010
0100
1000
0010
0100
,
0010
1000
0001
0010
0001
1000
0100
1000
0100
0010
0001
1000
0001
0100
0010
1000
,
0001
1000
0001
1000
0010
0100
0001
1000
0100
1000
0100
0010
0001
0010
0100
1000
,
0001
0100
0001
1000
0010
0100
0010
1000
0100
0010
0100
1000
0001
0100
0001
1000
,
0001
0100
0010
1000
0001
0100
0010
1000
0001
0100
0010
0100
0001
1000
0100
1000
,
0001
0010
0100
1000
0001
0100
0001
0100
0010
1000
0001
0010
0100
0010
0001
1000
,
0002
0000
0000
0000
0000
0000
0000
2000
,
0000
0000
0000
0000
0000
0000
0000
0000
0000
0000
0000
0000
3003
0000
0000
1000
0001
1000
0004
0003
0000
0004
0003
0000
,
0101
0000
0000
0000
0000
0000
0000
1010
,
1001
0000
0000
0000
0000
0000
0000
0000
0000
0000
0000
0000
0000
0000
0000
0001
0010
0001
0040
0030
0000
0040
0030
0000
,
0001
0010
0100
1000
0001
1000
0001
0100
0010
1000
0001
1000
0100
0010
0001
1000
,
0001
0100
0010
1000
0001
1000
0001
0010
0100
1000
0001
1000
0010
1000
0100
0010
,
0001
1000
0010
1000
0100
0010
0100
1000
0001
1000
0001
0100
0010
1000
0100
0010
,
0100
1000
0001
0100
0001
1000
0010
1000
0010
0100
0001
1000
0001
0010
0100
1000
,
0001
1000
0001
1000
0100
0010
0001
1000
0010
1000
0010
0100
0001
0100
0010
1000
,
0001
0010
0001
1000
0100
0010
0100
1000
0010
0100
0010
1000
0001
0010
0001
1000
,
0001
0010
0100
1000
0001
0010
0100
1000
0001
0010
0100
0010
0001
1000
0010
1000
,
0001
0100
0010
1000
0001
0010
0001
0010
0100
1000
0010
1000
0001
1000
0010
0100
,
0001
0100
0010
1000
0001
1000
0001
0010
0100
1000
0001
1000
0010
0100
0001
1000
,
0001
0010
0100
1000
0001
1000
0001
0100
0010
1000
0001
1000
0100
1000
0010
0100
,
0001
1000
0100
1000
0010
0100
0010
1000
0001
1000
0001
0010
0100
1000
0010
0100
,
0010
1000
0001
0010
0001
1000
0100
1000
0100
0010
0001
1000
0001
0100
0010
1000
,
0001
1000
0001
1000
0010
0100
0001
1000
0100
1000
0100
0010
0001
0010
0100
1000
,
0001
0100
0001
1000
0010
0100
0010
1000
0100
0010
0100
1000
0001
0100
0001
1000
,
0001
0100
0010
1000
0001
0100
0010
1000
0001
0100
0010
0100
0001
1000
0100
1000
,
0001
0010
0100
1000
0001
0100
0001
0100
0010
1000
0001
0010
0100
0010
0001
1000
,
0002
0000
0000
0000
0000
0000
0000
2000
,
0000
0000
0000
0000
0000
3003
0001
0100
,
0110
0000
0010
0100
0001
1000
0001
0010
0100
1000
0100
0010
0001
1000
0001
0100
,
0010
1000
0001
1000
0100
0010
0001
0100
0020
0000
0000
0000
1030
0000
0200
0000
,
0000
0000
1300
0000
0100
0000
1000
0002
0000
0000
0103
0020
0000
1030
0001
0020
,
0000
0230
0000
0000
0000
0000
2300
0000
0000
0000
3001
0000
1000
0000
0020
0000
,
0000
0000
1030
0010
0100
0000
0010
0000
0100
0000
0001
0000
0100
0000
0010
1000
,
0001
0001
0010
0100
4000
0000
0000
0000
,
0000
0000
0000
0000
,
0000
0000
0000
0000
0000
0000
3000
0001
,
0100
0000
0001
0100
0000
0001
0100
0000
0001
0100
0000
0010
1000
0000
0001
0000
,
0010
0100
0010
0001
1000
0010
1000
0001
0100
0000
0001
0000
0100
0000
0001
1000
,
0100
0010
0100
1000
0001
0100
0001
1000
0100
0010
0001
0010
0100
1000
0010
0100
,
0001
0010
0100
1000
0001
0100
0010
0100
0001
0010
0100
1000
0001
0100
0010
0100
,
0001
0010
0100
1000
0010
0100
0001
0010
0100
0010
0001
0100
0010
1000
0100
0010
,
0100
1000
0010
0100
0001
0010
0100
1000
0010
0100
0001
0010
0100
1000
0010
0100
,
0001
0010
0200
0000
0000
0000
0000
0000
4300
0000
0000
0000
0000
0000
0000
0000
,
3002
0000
0000
0000
,
0000
0000
0000
0000
,
0000
0000
0000
0000
,
0000
0003
0000
0000
;

//---------------dance-single - 15+ (TYLR)----------------
#NOTES:
     dance-single:
     15+ (TYLR):
     Challenge:
     15:
     1.000,1.000,0.037,0.031,1.000,2993.000,12.000,10.000,56.000,0.000:
0000
0000
0000
0000
,
0000
0000
0000
0000
,
0000
0000
0000
0000
,
0000
0000
0000
0000
,
0000
0000
0000
0000
,
0000
0000
0000
0000
,
0000
0000
0000
0000
,
0000
0MM0
0000
0000
,
1001
0000
0001
1000
0001
0000
0000
0000
0000
0000
1000
0010
1000
0000
0000
0000
,
0000
0000
0001
0010
0001
0000
0000
0000
0000
0000
1000
0010
1000
0000
0000
0000
,
0000
0000
0001
0100
0001
0000
0000
0000
0000
0000
1000
0100
1000
0000
0000
0000
,
0000
0000
0001
0010
0001
0000
0000
0000
0000
0000
1000
0010
1000
0000
0000
0000
,
0000
0000
0001
0010
0001
0000
0000
0000
0000
0000
1000
0001
1000
0000
0000
0000
,
0000
0000
0001
0100
0001
0000
0000
0000
0000
0000
1000
0010
1000
0000
0000
0000
,
0000
0000
0001
0010
0001
0000
0000
0000
0000
0000
1000
0100
1000
0000
0000
0000
,
0000
0000
0001
1000
0001
0000
0000
0000
0000
0000
1000
0010
1000
0000
0000
0000
,
1001
0000
0001
1000
0001
0000
1000
0000
0010
0000
0100
0001
0100
0000
0010
0000
,
1000
0000
0001
0010
0001
0000
1000
0000
0100
0000
0010
0001
0010
0000
0100
0000
,
1000
0000
0001
0100
0001
0000
1000
0000
0010
0000
0100
0001
0100
0000
0010
0000
,
1000
0000
0001
0010
0001
0000
1000
0000
0010
0000
0100
0001
0100
0000
0010
0000
,
1000
0000
0001
1000
0001
0000
0010
0000
0100
0000
1000
0001
1000
0000
0100
0000
,
0010
0000
0001
1000
0001
0000
1000
0000
0010
0000
0100
0001
0100
0000
0010
0000
,
1000
0000
0001
0010
0001
0000
0010
0000
0100
0000
1000
0001
1000
0000
0010
0000
,
0100
0000
0001
0100
0001
0000
0100
0000
0010
0000
1000
0001
1000
0000
0100
0000
,
0011
0000
0001
1000
0001
0000
1000
0000
0010
0000
0100
0001
0100
0000
0010
0000
,
1000
0000
0001
0010
0001
0000
0010
0000
0100
0000
1000
0001
1000
0000
0001
0000
,
0100
0000
0010
1000
0010
0000
0100
0000
0001
0000
1000
0100
1000
0000
0001
0000
,
0010
0000
0100
1000
0100
0000
0010
0000
0001
0000
0100
0001
0100
0000
0010
0000
,
1000
0000
0100
0010
0100
0000
1000
0000
0001
0000
0100
0010
0100
0000
0001
0000
,
0010
0000
0100
1000
0100
0000
0010
0000
0001
1000
0001
1000
0010
0100
0001
1000
,
0100
0010
0100
1000
0001
0100
0010
1000
0100
0010
0001
1000
0010
0100
0001
0010
,
0100
1000
0100
0010
0001
0100
0010
1000
0100
0010
0100
1000
0010
0100
0001
0010
,
0200
0000
0000
0000
,
0000
0000
0000
0000
,
0000
0000
0000
0000
,
0310
0100
0010
0100
1000
0100
1000
0001
1000
0010
0100
0001
0010
0100
0010
0100
,
1000
0000
0001
0010
0001
0010
0100
0000
1000
0000
0001
1000
0001
1000
0010
0000
,
0100
0000
0001
1000
0001
1000
0100
0000
0010
0000
0001
1000
0010
0000
0010
0000
,
0100
0000
0001
0100
0001
0100
0010
0000
1000
0000
0001
0010
0001
0010
0100
0000
,
1000
0000
0010
0100
0001
0000
0001
0000
1000
0000
0100
0010
0001
1000
0001
1000
,
0001
0000
1000
0010
1000
0010
0100
0000
0001
0000
1000
0100
1000
0100
0010
0000
,
0001
0000
1000
0001
1000
0001
0100
0000
0010
0000
1000
0001
0010
0000
0010
0000
,
0100
0000
1000
0001
1000
0001
0100
0000
0010
0000
1000
0010
1000
0010
0100
0000
,
0001
0010
0001
0010
0100
1000
0100
0010
0001
1000
0001
0100
0010
1000
0100
0010
,
0001
0000
0010
0001
0010
0001
0010
0000
0010
0000
0100
1000
0100
1000
0100
0000
,
0100
0000
1000
0001
1000
0001
0100
0000
0001
0000
1000
0100
0010
0000
0010
0000
,
0001
0000
1000
0001
1000
0001
0100
0000
0001
0000
1000
0010
1000
0010
0100
0000
,
0010
0000
1000
0001
1000
0001
0010
0000
0100
0000
1000
0001
0100
0000
0100
0000
,
0010
0000
1000
0010
1000
0010
0100
0000
0010
0000
1000
0001
1000
0001
0100
0000
,
0001
0000
1000
0100
1000
0100
0010
0000
0100
0000
1000
0001
0100
0000
0100
0000
,
0001
0000
0010
0100
0010
0100
1000
0000
0100
0000
0010
0001
0010
0001
1000
0000
,
1001
0000
0000
0000
0000
0000
0001
0000
0000
0100
0000
0000
0000
0000
0000
0000
0000
0000
0010
0000
1000
0000
0010
0000
1000
0000
0000
0000
0000
0000
0001
0000
1000
0000
0001
0000
4000
0000
3000
0000
0000
0000
4000
0000
3000
0000
0000
0000
,
1001
0000
0001
0010
0001
0010
0100
0000
1000
0000
0001
0100
0001
0100
0010
0000
,
1000
0000
0010
0100
0010
0100
0001
0000
1000
0000
0100
1000
0001
0000
0001
0000
,
0100
0000
0010
1000
0010
1000
0001
0000
0010
0000
0100
1000
0100
1000
0001
0000
,
1000
0000
0001
0100
0001
0100
0001
0000
1000
0000
0001
1000
0100
0000
0100
0000
,
0010
0000
0001
0010
0001
0010
0100
0000
1000
0000
0001
0100
0001
0100
0010
0000
,
1000
0000
0100
1000
0100
1000
0001
0000
0010
0000
0100
0010
0100
0010
0001
0000
,
1000
0000
0001
1000
0001
1000
0001
0000
1000
0000
0001
1000
0001
1000
0010
0000
,
0110
0000
0000
0000
0000
0000
0000
0000
0000
0000
0001
0000
1000
0001
1000
0001
,
0010
0000
0100
1000
0100
1000
0001
0000
0100
0000
0010
1000
0010
1000
0100
0000
,
0010
0000
0001
1000
0001
1000
0010
0000
0100
0000
0001
1000
0100
0000
0100
0000
,
0010
0000
0001
1000
0001
1000
0010
0000
0100
0000
0001
0010
0001
0010
0100
0000
,
1000
0000
0010
0100
0010
0100
0001
0000
1000
0000
0100
0010
0001
0000
0001
0000
,
1000
0000
0010
0100
0010
0100
0001
0000
1000
0000
0100
0010
0100
0010
0001
0000
,
0100
0000
0010
1000
0010
1000
0001
0000
0010
0000
0100
1000
0100
1000
0001
0000
,
1000
0010
1000
0001
1000
0100
0010
0001
1000
0001
0010
0100
1000
0010
0100
0001
,
0010
0000
0000
0000
0000
0000
0000
0000
0000
0000
0000
0000
0000
0000
0000
1000
0001
1000
0400
0300
0000
0400
0300
0000
,
0011
0000
0000
0000
,
0000
0000
0000
0000
,
0000
0000
0000
0000
,
0000
0000
0000
0000
,
0M00
0000
0000
000M
0000
0000
M000
0000
0000
00M0
0000
0000
M000
0000
00M0
0000
,
0M00
0000
0000
000M
0000
0000
00M0
0000
0000
0M00
0000
0000
00M0
0000
0M00
0000
,
M000
0M00
00M0
M000
0M00
00M0
M000
0M00
00M0
M000
0M00
00M0
000M
00M0
0M00
000M
00M0
0M00
000M
00M0
0M00
000M
00M0
0M00
,
M000
0M00
00M0
000M
M000
0M00
00M0
000M
M000
0M00
00M0
000M
0M00
00M0
M000
0000
,
1001
0000
0001
0100
0000
0001
0010
0000
0100
1000
0000
0001
0010
0000
0100
0000
,
1000
0000
0001
1000
0000
0001
0100
0000
0010
1000
0000
0001
0100
0000
0010
0000
,
1000
0000
0001
1000
0000
0001
0010
0000
0100
1000
0000
0001
0100
0000
0020
0000
,
0000
0130
0001
0020
0000
0130
1000
0001
,
0100
0000
0001
1000
0000
0001
0010
0000
0100
1000
0000
0001
0010
0000
0100
0000
,
1000
0000
0001
1000
0000
0001
0100
0000
0010
1000
0000
0001
0100
0000
0010
0000
,
1000
0001
1000
0001
1000
0001
1000
0001
1000
0001
1000
0001
1000
0001
1000
0001
,
1000
0010
0100
0001
1000
0010
0100
0001
1000
0010
0100
0001
1000
0100
0010
0001
,
1000
0010
1000
0001
0010
0001
1000
0100
1000
0001
0100
0001
1000
0100
0010
0001
,
1000
0010
1000
0001
0010
0001
1000
0100
1000
0001
0100
0001
1000
0100
0010
0001
,
1000
0010
1000
0001
0010
0001
1000
0100
1000
0001
0100
0010
1000
0001
0010
0001
,
0010
0001
0100
0010
1000
0001
1000
0100
1000
0100
0010
0001
1000
0001
0100
0001
,
1000
0010
1000
0001
0010
0001
1000
0100
1000
0001
0100
0001
1000
0100
0010
0001
,
1000
0010
1000
0001
0010
0001
1000
0100
1000
0001
0100
0001
1000
0100
0010
0001
,
1000
0001
1000
0001
1000
0001
1000
0001
1000
0001
1000
0001
1000
0001
1000
0001
,
1000
0010
0100
0001
1000
0010
0100
0001
1000
0010
0100
0001
1000
0100
0010
0001
,
1000
0100
1000
0001
0100
0001
1000
0010
1000
0001
0010
0001
1000
0010
0100
0001
,
1000
0100
1000
0001
0100
0001
1000
0010
1000
0001
0010
0001
1000
0010
0100
0001
,
0010
0100
1000
0010
0100
0001
0010
0100
0010
0001
0100
0010
1000
0001
0010
0001
,
1000
0010
0100
0001
0100
0010
1000
0001
1000
0100
0010
0001
1000
0001
0100
0001
,
1000
0010
1000
0001
0010
0001
1000
0100
1000
0001
0100
0001
1000
0100
0010
0001
,
1000
0010
1000
0001
0010
0001
1000
0100
1000
0001
0100
0001
1000
0100
0010
0001
,
1000
0001
1000
0001
1000
0001
1000
0001
1000
0001
1000
0001
1000
0001
1000
0001
,
0100
0000
0000
0000
0000
0000
0010
0000
0000
1000
0000
0000
0000
0000
0000
0010
0000
0000
1000
0000
0000
0000
0000
0000
0001
0000
0000
0000
0000
0000
1000
0000
0100
0000
1000
0000
0400
0000
0300
0000
0000
0000
0400
0000
0300
0000
0000
0000
,
0010
0100
1000
0001
1000
0001
1000
0010
0100
0001
1000
0001
0010
0100
1000
0001
,
1000
0010
0100
0001
1000
0001
1000
0100
0010
0001
1000
0001
0100
0001
0010
0100
,
1000
0001
0100
0001
0010
0100
0010
0001
1000
0001
1000
0010
0100
0001
0010
0100
,
0010
0001
1000
0010
1000
0001
0100
0001
0100
0010
1000
0001
1000
0100
0010
0001
,
1000
0001
1000
0001
0010
0100
1000
0001
0100
0001
0100
0010
1000
0010
0100
0001
,
1000
0100
1000
0001
0010
0100
0010
0001
0100
0010
0100
0001
1000
0100
1000
0001
,
1000
0100
0010
0001
1000
0100
0010
0001
1000
0100
0010
0100
1000
0001
0100
0001
,
1000
0010
0100
0001
1000
0100
1000
0100
0010
0001
0100
0001
1000
0001
0100
0010
,
1000
0010
0100
0001
1000
0001
1000
0100
0010
0001
1000
0001
0100
0010
1000
0001
,
1000
0100
0010
0001
1000
0001
1000
0010
0100
0001
1000
0001
0010
0001
0100
0010
,
1000
0001
0010
0001
0100
0010
0100
0001
1000
0001
1000
0100
0010
0001
0100
0010
,
0100
0001
1000
0100
1000
0001
0010
0001
0010
0100
1000
0001
1000
0010
0100
0001
,
1000
0001
1000
0001
0100
0010
1000
0001
0010
0001
0010
0100
1000
0100
0010
0001
,
1000
0010
1000
0001
0100
0010
0100
0001
0010
0100
0010
0001
1000
0010
1000
0001
,
1000
0010
0100
0001
1000
0010
0100
0001
1000
0010
0100
0010
1000
0001
0010
0001
,
1000
0100
0010
0001
1000
0010
1000
0010
0100
0001
0010
0001
1000
0001
0010
0100
,
1000
0100
0010
0001
1000
0001
1000
0010
0100
0001
1000
0001
0010
0100
1000
0001
,
1000
0010
0100
0001
1000
0001
1000
0100
0010
0001
1000
0001
0100
0001
0010
0100
,
1000
0001
0100
0001
0010
0100
0010
0001
1000
0001
1000
0010
0100
0001
0010
0100
,
0010
0001
1000
0010
1000
0001
0100
0001
0100
0010
1000
0001
1000
0100
0010
0001
,
1000
0001
1000
0001
0010
0100
1000
0001
0100
0001
0100
0010
1000
0010
0100
0001
,
1000
0100
1000
0001
0010
0100
0010
0001
0100
0010
0100
0001
1000
0100
1000
0001
,
1000
0100
0010
0001
1000
0100
0010
0001
1000
0100
0010
0100
1000
0001
0100
0001
,
1000
0010
0100
0001
1000
0100
1000
0100
0010
0001
0100
0001
1000
0001
0100
0010
,
1000
0010
0100
0001
1000
0001
1000
0100
0010
0001
1000
0001
0100
0010
1000
0001
,
1000
0100
0010
0001
1000
0001
1000
0010
0100
0001
1000
0001
0010
0001
0100
0010
,
1000
0001
0010
0001
0100
0010
0100
0001
1000
0001
1000
0100
0010
0001
0100
0010
,
0100
0001
1000
0100
1000
0001
0010
0001
0010
0100
1000
0001
1000
0010
0100
0001
,
1000
0001
1000
0001
0100
0010
1000
0001
0010
0001
0010
0100
1000
0100
0010
0001
,
1000
0010
1000
0001
0100
0010
0100
0001
0010
0100
0010
0001
1000
0010
1000
0001
,
1000
0010
0100
0001
1000
0010
0100
0001
1000
0010
0100
0010
1000
0001
0010
0001
,
1000
0100
0010
0001
1000
0010
1000
0010
0100
0001
1000
0100
0010
0100
1000
0001
,
2000
0000
0000
0000
0000
0000
0000
0002
,
0000
0000
0000
0000
0000
0000
0000
0000
0000
0000
0000
0000
3003
0000
0000
0001
1000
0001
4000
3000
0000
4000
3000
0000
,
0001
0100
0001
1000
0100
1000
0001
0010
0001
1000
0010
1000
0001
0010
0100
1000
,
0001
0100
0001
1000
0100
1000
0001
0010
0001
1000
0010
1000
0001
0010
0100
1000
,
0001
0100
0001
1000
0100
1000
0001
0010
0001
1000
0010
0100
0001
1000
0100
1000
,
0100
1000
0010
0100
0001
1000
0001
0010
0001
0010
0100
1000
0001
1000
0010
1000
,
0001
0100
0001
1000
0100
1000
0001
0010
0001
1000
0010
1000
0001
0010
0100
1000
,
0001
0100
0001
1000
0100
1000
0001
0010
0001
1000
0010
1000
0001
0010
0100
1000
,
0001
1000
0001
1000
0001
1000
0001
1000
0001
1000
0001
1000
0001
1000
0001
1000
,
0001
0100
0010
1000
0001
0100
0010
1000
0001
0100
0010
1000
0001
0010
0100
1000
,
0001
0010
0001
1000
0010
1000
0001
0100
0001
1000
0100
1000
0001
0100
0010
1000
,
0001
0010
0001
1000
0010
1000
0001
0100
0001
1000
0100
1000
0001
0100
0010
1000
,
0100
0010
0001
0100
0010
1000
0100
0010
0100
1000
0010
0100
0001
1000
0100
1000
,
0001
0100
0010
1000
0010
0100
0001
1000
0001
0010
0100
1000
0001
1000
0010
1000
,
0001
0100
0001
1000
0100
1000
0001
0010
0001
1000
0010
1000
0001
0010
0100
1000
,
0001
0100
0001
1000
0100
1000
0001
0010
0001
1000
0010
1000
0001
0010
0100
1000
,
0001
1000
0001
1000
0001
1000
0001
1000
0001
1000
0001
1000
0001
1000
0001
1000
,
0010
0100
0001
0100
0010
1000
0001
1000
0001
0010
0100
1000
0001
1000
0100
0010
,
0001
0100
0001
1000
0100
1000
0001
0010
0001
1000
0010
1000
0001
0010
0100
1000
,
0001
0100
0001
1000
0100
1000
0001
0010
0001
1000
0010
1000
0001
0010
0100
1000
,
0001
0100
0001
1000
0100
1000
0001
0010
0001
1000
0010
0100
0001
1000
0100
1000
,
0100
1000
0010
0100
0001
1000
0001
0010
0001
0010
0100
1000
0001
1000
0010
1000
,
0001
0100
0001
1000
0100
1000
0001
0010
0001
1000
0010
1000
0001
0010
0100
1000
,
0001
0100
0001
1000
0100
1000
0001
0010
0001
1000
0010
1000
0001
0010
0100
1000
,
0001
1000
0001
1000
0001
1000
0001
1000
0001
1000
0001
1000
0001
1000
0001
1000
,
0001
0100
0010
1000
0001
0100
0010
1000
0001
0100
0010
1000
0001
0010
0100
1000
,
0001
0010
0001
1000
0010
1000
0001
0100
0001
1000
0100
1000
0001
0100
0010
1000
,
0001
0010
0001
1000
0010
1000
0001
0100
0001
1000
0100
1000
0001
0100
0010
1000
,
0100
0010
0001
0100
0010
1000
0100
0010
0100
1000
0010
0100
0001
1000
0100
1000
,
0001
0100
0010
1000
0010
0100
0001
1000
0001
0010
0100
1000
0001
1000
0010
1000
,
0001
0100
0001
1000
0100
1000
0001
0010
0001
1000
0010
1000
0001
0010
0100
1000
,
0001
0100
0001
1000
0100
1000
0001
0010
0001
1000
0010
1000
0001
0010
0100
1000
,
0001
1000
0001
1000
0001
1000
0001
1000
0001
1000
0001
1000
0001
1000
0001
1000
,
0010
0000
0100
0001
0000
1000
0001
0000
1000
0100
0000
0000
0010
0001
0010
0001
,
1000
0010
0100
0001
1000
0001
1000
0100
0010
0001
1000
0001
0100
0010
1000
0001
,
1000
0100
0010
0001
1000
0001
1000
0010
0100
0001
1000
0001
0010
0001
0100
0010
,
1000
0001
0010
0001
0100
0010
0100
0001
1000
0001
1000
0100
0010
0001
0100
0010
,
0100
0001
1000
0100
1000
0001
0010
0001
0010
0100
1000
0001
1000
0010
0100
0001
,
1000
0001
1000
0001
0100
0010
1000
0001
0010
0001
0010
0100
1000
0100
0010
0001
,
1000
0010
1000
0001
0100
0010
0100
0001
0010
0100
0010
0001
1000
0010
1000
0001
,
1000
0010
0100
0001
1000
0010
0100
0001
1000
0010
0100
0010
1000
0001
0010
0001
,
1000
0100
0010
0001
1000
0010
1000
0010
0100
0001
0010
0001
1000
0001
0010
0100
,
1000
0100
0010
0001
1000
0001
1000
0010
0100
0001
1000
0001
0010
0100
1000
0001
,
1000
0010
0100
0001
1000
0001
1000
0100
0010
0001
1000
0001
0100
0001
0010
0100
,
1000
0001
0100
0001
0010
0100
0010
0001
1000
0001
1000
0010
0100
0001
0010
0100
,
0010
0001
1000
0010
1000
0001
0100
0001
0100
0010
1000
0001
1000
0100
0010
0001
,
1000
0001
1000
0001
0010
0100
1000
0001
0100
0001
0100
0010
1000
0010
0100
0001
,
1000
0100
1000
0001
0010
0100
0010
0001
0100
0010
0100
0001
1000
0100
1000
0001
,
1000
0100
0010
0001
1000
0100
0010
0001
1000
0100
0010
0100
1000
0001
0100
0001
,
1000
0010
0100
0001
1000
0100
1000
0100
0010
0001
0100
0001
1000
0001
0100
0010
,
1000
0010
0100
0001
1000
0001
1000
0100
0010
0001
1000
0001
0100
0010
1000
0001
,
1000
0100
0010
0001
1000
0001
1000
0010
0100
0001
1000
0001
0010
0001
0100
0010
,
1000
0001
0010
0001
0100
0010
0100
0001
1000
0001
1000
0100
0010
0001
0100
0010
,
0100
0001
1000
0100
1000
0001
0010
0001
0010
0100
1000
0001
1000
0010
0100
0001
,
1000
0001
1000
0001
0100
0010
1000
0001
0010
0001
0010
0100
1000
0100
0010
0001
,
1000
0010
1000
0001
0100
0010
0100
0001
0010
0100
0010
0001
1000
0010
1000
0001
,
1000
0010
0100
0001
1000
0010
0100
0001
1000
0010
0100
0010
1000
0001
0010
0001
,
1000
0100
0010
0001
1000
0010
1000
0010
0100
0001
0010
0001
1000
0001
0010
0100
,
1000
0100
0010
0001
1000
0001
1000
0010
0100
0001
1000
0001
0010
0100
1000
0001
,
1000
0010
0100
0001
1000
0001
1000
0100
0010
0001
1000
0001
0100
0001
0010
0100
,
1000
0001
0100
0001
0010
0100
0010
0001
1000
0001
1000
0010
0100
0001
0010
0100
,
0010
0001
1000
0010
1000
0001
0100
0001
0100
0010
1000
0001
1000
0100
0010
0001
,
1000
0001
1000
0001
0010
0100
1000
0001
0100
0001
0100
0010
1000
0010
0100
0001
,
1000
0100
1000
0001
0010
0100
0010
0001
0100
0010
0100
0001
1000
0100
1000
0001
,
1000
0100
0010
0001
1000
0100
0010
0001
1000
0100
0010
0100
1000
0001
0100
0001
,
1000
0010
0100
0001
1000
0100
1000
0100
0010
0001
1000
0010
0100
0010
1000
0001
,
2000
0000
0000
0000
0000
0000
0000
0002
,
0000
0000
0000
0000
0000
0000
0000
0000
0000
0000
0000
0000
3003
0000
0000
0001
1000
0001
0400
0300
0000
0400
0300
0000
,
0101
0000
0000
0000
0000
0000
0000
0101
,
1010
0000
0000
0000
0000
0000
0000
0000
0000
0000
0000
0000
0000
0000
0000
0001
0010
0001
0040
0030
0000
0040
0030
0000
,
0001
0010
0100
1000
0001
1000
0001
0100
0010
1000
0001
1000
0100
0010
0001
1000
,
0001
0100
0010
1000
0001
1000
0001
0010
0100
1000
0001
1000
0010
1000
0100
0010
,
0001
1000
0010
1000
0100
0010
0100
1000
0001
1000
0001
0100
0010
1000
0100
0010
,
0100
1000
0001
0100
0001
1000
0010
1000
0010
0100
0001
1000
0001
0010
0100
1000
,
0001
1000
0001
1000
0100
0010
0001
1000
0010
1000
0010
0100
0001
0100
0010
1000
,
0001
0010
0001
1000
0100
0010
0100
1000
0010
0100
0010
1000
0001
0010
0001
1000
,
0001
0010
0100
1000
0001
0010
0100
1000
0001
0010
0100
0010
0001
1000
0010
1000
,
0001
0100
0010
1000
0001
0010
0001
0010
0100
1000
0010
1000
0001
1000
0010
0100
,
0001
0100
0010
1000
0001
1000
0001
0010
0100
1000
0001
1000
0010
0100
0001
1000
,
0001
0010
0100
1000
0001
1000
0001
0100
0010
1000
0001
1000
0100
1000
0010
0100
,
0001
1000
0100
1000
0010
0100
0010
1000
0001
1000
0001
0010
0100
1000
0010
0100
,
0010
1000
0001
0010
0001
1000
0100
1000
0100
0010
0001
1000
0001
0100
0010
1000
,
0001
1000
0001
1000
0010
0100
0001
1000
0100
1000
0100
0010
0001
0010
0100
1000
,
0001
0100
0001
1000
0010
0100
0010
1000
0100
0010
0100
1000
0001
0100
0001
1000
,
0001
0100
0010
1000
0001
0100
0010
1000
0001
0100
0010
0100
0001
1000
0100
1000
,
0001
0010
0100
1000
0001
0100
0001
0100
0010
1000
0001
0010
0100
0010
0001
1000
,
0002
0000
0000
0000
0000
0000
0000
2000
,
0000
0000
0000
0000
0000
3003
0001
0100
,
0110
0000
0010
0100
0001
1000
0001
0010
0100
1000
0100
0010
0001
1000
0001
0100
,
0010
1000
0001
1000
0100
0010
0001
0100
0010
1000
0010
1000
0001
1000
0100
0010
,
0100
0010
0001
0010
0100
1000
0001
0100
0010
0100
0001
1000
0100
0010
0100
1000
,
0001
0100
0010
1000
0001
1000
0010
0100
0001
1000
0010
0100
0010
1000
0100
0010
,
0100
1000
0001
1000
0100
0010
0100
1000
0001
1000
0100
1000
0001
1000
0001
1000
,
0010
0100
0010
0100
0001
1000
0100
0010
0001
1000
0001
0010
0001
1000
0001
0010
,
0001
1000
0001
0010
0001
1000
0001
0010
0001
1000
0100
1000
0001
0010
0001
0010
,
0100
1000
0100
0010
0001
1000
0001
1000
0010
0100
0010
1000
0001
1000
0100
0010
,
0001
0100
0001
1000
0100
1000
0001
0100
0001
1000
0100
1000
0100
0010
0001
1000
,
0010
0100
0010
1000
0001
0010
0001
1000
0100
0010
0100
1000
0001
0100
0001
1000
,
0100
0010
0100
1000
0001
0100
0001
1000
0100
0010
0001
0010
0100
1000
0010
0100
,
0001
0010
0100
1000
0001
0100
0010
0100
0001
0010
0100
1000
0001
0100
0010
0100
,
0001
0010
0100
1000
0010
0100
0001
0010
0100
0010
0001
0100
0010
1000
0100
0010
,
0100
1000
0010
0100
0001
0010
0100
1000
0010
0100
0001
0010
0100
1000
0010
0100
,
0001
0010
0100
1000
0100
1000
0001
1000
0010
0100
0001
0010
0100
1000
0010
0100
,
0002
0000
0000
0000
,
0000
0000
0000
0000
,
0000
0000
0000
0000
,
0000
0003
0000
0000
,
0000
0000
0000
0000
00M0
M000
0M00
0000
0000
0000
0000
0000
0000
0000
0000
0000
0000
0000
0000
0000
0000
0000
0000
0000
;
