#TITLE:Beyond Abilities;
#SUBTITLE:;
#ARTIST:Warmen;
#TITLETRANSLIT:;
#SUBTITLETRANSLIT:;
#ARTISTTRANSLIT:;
#CREDIT:DukAmok;
#BANNER:Beyond Abilities.png;
#BACKGROUND:Beyond Abilities-bg.png;
#LYRICSPATH:;
#CDTITLE:!duktitle.png;
#MUSIC:Beyond Abilities.mp3;
#OFFSET:1.000;
#SAMPLESTART:26.776;
#SAMPLELENGTH:20.000;
#SELECTABLE:YES;
#BPMS:0.000=224.081;
#STOPS:;
#BGCHANGES:;
// cache tags:
#FIRSTBEAT:12.000;
#LASTBEAT:568.000;
#SONGFILENAME:Songs/IzzySM Keyboard Mega Pack/Beyond Abilities Hard/Beyond Abilities.sm;
#HASMUSIC:1;
#HASBANNER:1;
#MUSICLENGTH:153.067;
// end cache tags

//---------------dance-single - Hard----------------
#NOTES:
     dance-single:
     Hard:
     Hard:
     11:
     1.000,1.000,0.059,0.340,1.000,1328.000,9.000,52.000,0.000,6.000:
0000
0000
0000
0000
,
0000
0000
0000
0000
,
0000
0000
0000
0000
,
1000
0001
0100
0010
1000
0100
0010
0100
,
1000
0000
0100
0000
0010
0000
0001
0000
0000
1000
0000
0000
0010
0000
0100
0000
0001
0000
0010
0000
0100
0000
1000
0000
,
0010
1000
0100
0001
0100
1000
0001
1000
,
0010
0000
0100
0000
0001
0000
1000
0000
0000
0001
0000
0000
1000
0000
0100
0000
1000
0000
0001
0000
0100
0000
0001
0000
,
0100
0010
1000
0100
1000
0001
0100
0001
,
1000
0000
0001
0000
1000
0000
0100
0000
0000
0010
0000
0000
0001
0000
0010
0000
0001
0000
0010
0000
0100
0000
1000
0000
,
0001
0010
0100
1000
0100
0010
0001
0100
0010
1000
0010
0100
,
0001
0010
0100
0010
0001
0100
0010
1000
0100
0010
0001
1000
,
0001
1000
0010
0100
0001
0010
0100
0010
,
0001
0000
0010
0000
0100
0000
1000
0000
0000
0001
0000
0000
0100
0000
0001
0000
0100
0000
0010
0000
1000
0000
0001
0000
,
0100
0001
0010
1000
0010
0001
1000
0001
,
0100
0000
0010
0000
1000
0000
0001
0000
0000
1000
0000
0000
0001
0000
0010
0000
0001
0000
1000
0000
0010
0000
1000
0000
,
0010
0100
0001
0010
0001
1000
0010
1000
,
0001
0000
1000
0000
0001
0000
0010
0000
0000
0100
0000
0000
1000
0000
0100
0000
1000
0000
0100
0000
0010
0000
0001
0000
,
1000
0100
0010
0001
0010
0100
1000
0010
0100
0001
0100
0010
,
1000
0100
0010
0100
1000
0010
0100
0001
0010
0100
1000
0001
,
2000
0000
0000
0000
,
0002
0000
0000
0000
,
3000
0000
0000
0000
,
0003
0000
0000
0000
0000
0000
1000
0000
0000
0000
0000
0000
0000
0000
0000
1000
0000
0000
0001
0000
0000
0010
0000
0000
0001
0000
0000
0000
1000
0000
0000
0000
0100
0000
0000
0000
1000
0000
0000
0000
0100
0000
0000
0000
0010
0000
0000
0000
,
0100
0000
0000
0000
0000
0000
0000
0000
0000
0000
0000
0000
0000
0000
0000
0000
0100
0000
0010
0000
0000
0001
0000
0000
0100
0000
0000
0000
0000
0000
1000
0000
0000
0000
0000
0000
0100
0000
0000
0000
0010
0000
0000
0000
0001
0000
0000
0000
,
1000
0000
0100
0000
0000
1000
0100
1000
0001
0100
0001
0100
0001
0100
0001
0100
,
2020
0000
0000
0000
,
0000
0000
0000
0000
,
3031
0000
0000
0000
0000
1000
0100
1000
0001
0100
0010
0100
0001
0100
0010
0100
,
0001
0010
0100
1000
0100
0010
0001
0000
1000
0100
0010
0001
0100
0010
1000
0000
,
0001
0000
0000
0000
0000
0000
1000
0000
0000
0000
0000
0100
0010
0100
0010
0100
,
0001
0100
0010
0000
1000
0000
0100
0000
0000
0000
0000
0000
1000
0100
0010
0001
,
0200
0000
0000
0000
0000
0000
0302
0000
0000
0000
0000
0000
0013
1000
0010
2000
,
0000
0000
0000
0000
0000
0000
3020
0000
0000
0000
0030
0001
0010
1000
0010
0100
,
0001
0010
0001
0010
0001
0100
0001
0000
1000
0100
0010
0001
1000
0100
0010
0001
,
1000
0000
0000
0100
0000
0000
0010
0000
0000
0001
0000
0000
1000
0000
0100
0000
0010
0000
0001
0000
1000
0000
0100
0000
0010
0000
0001
0000
0000
0000
1000
0000
0000
0000
0000
0000
0100
0000
0000
0010
0000
0000
0001
0000
1000
0000
0100
0000
,
0020
0000
0000
0000
,
2032
0000
0000
3000
,
1003
0100
0010
0100
1000
0000
0001
0100
0010
0100
0001
0000
1000
0100
0010
0001
,
0100
0000
0001
0100
0010
1000
0100
0000
0010
0100
1000
0001
0010
0001
1000
0100
,
0010
0100
1000
0100
0010
0000
0100
0010
0100
1000
0001
0000
0100
0010
1000
0001
,
0100
0000
0010
0100
0001
0100
1000
0000
0100
0010
1000
0100
0001
0000
1000
0100
,
0020
0000
0000
1030
0100
0010
1000
0010
,
0001
0100
1000
0100
0001
0010
0100
1000
,
0020
0000
0000
0000
0030
0000
1000
0100
1000
0000
0001
0100
0001
0010
0100
1000
,
0100
0010
0001
0010
0100
1000
0100
0010
0001
0000
0000
0000
1000
0000
0100
0000
,
0010
0000
0010
0100
0000
1000
0100
1000
,
0001
0000
0100
0010
0100
0001
1000
0100
,
1000
0100
1000
0100
0010
0100
0010
0100
0010
0001
0010
0001
0100
0001
0100
0001
,
1000
0100
1000
0001
0100
0010
1000
0001
0100
0001
0010
0100
1000
0001
0010
0100
,
2000
0000
0000
3020
0000
0000
0230
0000
,
0302
0000
1003
0100
0010
0001
0100
1000
,
0200
0000
0301
0010
1000
0010
0001
0100
,
0001
1000
0100
1000
0001
0100
0010
1000
,
0001
1000
0010
0100
0001
0010
0100
0010
,
0001
0000
0010
0000
0100
0000
1000
0000
0000
0001
0000
0000
0100
0000
0001
0000
0010
0000
0100
0000
1000
0000
0010
0000
,
0100
0001
0010
1000
0010
0001
1000
0001
,
0100
0000
0010
0000
1000
0000
0001
0000
0000
1000
0000
0000
0001
0000
0010
0000
0001
0000
1000
0000
0010
0000
1000
0000
,
0010
0100
0001
0010
0001
1000
0010
1000
,
0001
0000
1000
0000
0001
0000
0010
0000
0000
0100
0000
0000
1000
0000
0100
0000
1000
0000
0100
0000
0010
0000
0001
0000
,
1000
0100
0010
0001
0010
0100
1000
0010
0100
0001
0100
0010
,
1000
0100
0010
0100
1000
0010
0100
0001
0010
0100
1000
0001
,
1000
0001
0100
0010
1000
0100
0010
0100
,
1000
0000
0100
0000
0010
0000
0001
0000
0000
1000
0000
0000
0010
0000
1000
0000
0001
0000
0010
0000
0001
0000
1000
0000
,
0010
1000
0100
0001
0100
1000
0001
1000
,
0010
0000
0100
0000
0001
0000
1000
0000
0000
0001
0000
0000
1000
0000
0100
0000
1000
0000
0001
0000
0100
0000
0001
0000
,
0100
0010
1000
0100
1000
0001
0100
0001
,
1000
0000
0001
0000
1000
0000
0100
0000
0000
0010
0000
0000
0001
0000
0010
0000
0001
0000
0010
0000
0100
0000
1000
0000
,
0001
0010
0100
1000
0100
0010
0001
0100
0010
1000
0010
0100
,
0001
0010
0001
1000
0100
0010
0100
0001
0100
1000
0010
0001
,
0010
0000
1000
0000
0100
1000
0100
1000
0001
0000
0100
0000
0010
1000
0100
0010
,
0001
0000
1000
0000
0001
0000
1000
0000
0001
0100
0001
0100
0001
0000
1000
0000
,
0100
0010
0100
0010
0100
0000
1000
0000
0001
0100
0001
0100
0001
0100
0001
0100
,
0010
0100
0010
0100
0010
0100
0010
0100
0010
0100
0010
0100
0010
0100
0010
0100
,
0010
1000
0100
0010
0001
1000
0100
0010
0001
1000
0100
0010
0001
1000
0100
0010
,
0001
0100
0010
0100
0001
1000
0100
0010
0001
0010
0001
0100
0010
0100
0010
1000
,
0100
1000
0001
0010
0100
0010
1000
0010
0001
0100
0010
1000
0100
1000
0100
0010
,
0001
0100
0001
0010
0100
1000
0100
0010
0100
1000
0001
1000
0001
1000
0001
1000
,
0001
1000
0010
0100
0001
0010
0100
0010
,
0001
1000
0010
0100
0001
0100
0010
1000
,
0100
0001
0100
1000
0001
1000
0001
1000
,
0010
0100
0001
1000
0001
1000
0100
1000
0001
1000
0010
0100
,
0010
0100
0001
0010
0001
1000
0010
1000
,
0001
0100
0001
0010
1000
0010
0100
2000
,
0000
3002
0000
0103
1000
0100
0010
0002
,
0000
0203
0000
0310
1000
0100
0010
0002
,
0000
0203
0000
0310
0001
1000
0100
1000
,
0010
0001
1000
0001
0100
0010
1001
0022
,
0000
2233
3300
0100
0001
1000
0100
0010
,
0001
0010
0001
0100
0010
0100
0001
0010
0100
0001
0200
0000
,
0000
0302
0000
1003
0100
1000
0001
0100
,
0010
1000
0001
0100
0010
1000
0100
0020
,
0000
0230
0000
0301
1000
0001
0100
0020
,
0000
2030
0000
3001
0100
0010
0100
1000
,
0202
0000
0000
0300
2023
0000
0000
0030
,
3010
0001
1000
0100
1000
0010
0001
0010
,
1000
0100
0010
0001
0100
0010
0100
1000
,
0000
0100
0010
0001
2000
0000
0000
3000
,
1000
0100
1000
0001
0010
0001
0100
0010
0100
0001
1000
0001
,
1000
0100
1000
0010
0001
0010
0100
0001
0100
0010
1000
0010
,
0200
0000
0300
0010
0100
0000
1000
0100
,
0000
0010
0100
0000
0001
0100
0000
0000
,
1000
0100
0010
0100
0001
0100
1000
0001
0100
0010
1000
0100
,
0010
0001
0010
0001
0100
0010
1000
0100
0001
0100
1000
0010
,
1000
0100
1000
0001
0100
0010
0100
0001
0010
0100
0010
0001
,
1000
0100
0010
0001
0100
0010
0100
0001
1000
0100
1000
0001
,
0100
0010
1000
0010
0001
0010
0100
0001
0010
0001
0010
0100
,
1000
0001
1000
0001
0010
0100
0010
0001
0010
0100
1000
0001
,
2000
0000
0000
0000
,
3202
0000
0000
0000
1300
0100
0000
0000
,
0023
0000
0000
0000
,
0000
0000
0000
0000
,
0000
0000
0000
0000
0000
0000
0000
0000
0000
0000
0000
0130
1000
0100
0010
0100
,
1000
0000
0000
0001
0000
0000
0100
0000
0000
0010
0000
0000
0100
0000
0000
0001
0000
0000
1000
0000
0000
0100
0000
0000
1000
0000
0000
0000
0010
0000
0000
0000
0100
0000
0000
0000
0001
0000
0000
0000
0010
0000
0000
0000
0100
0000
1000
0000
,
0200
0000
0000
0000
0000
0000
1300
0100
,
1000
0001
0100
0010
1000
0100
1000
0010
,
0100
0001
0010
0100
0001
0100
1000
0010
,
0100
0001
0010
0100
0010
1000
0010
0001
,
0200
0000
0000
0000
0000
0000
0000
0000
0000
0000
0000
0000
0000
0000
0000
0300
1000
0100
1000
0000
0100
0000
2000
0000
,
0000
0000
0000
0000
0000
0000
0000
0000
0000
0000
0000
0000
0000
0000
0000
0000
0000
0000
0000
0000
0000
0000
0000
0000
0000
0000
0000
0000
0000
0000
0000
0000
3000
0000
0000
0000
0000
0000
0000
1000
0000
0000
0100
0000
0000
1000
0000
0000
,
0001
0010
0100
1000
0001
0010
0100
1000
0001
0010
0100
1000
0001
0010
0100
2000
0000
0000
0000
0000
0000
0000
0000
0000
,
3000
0000
0000
0000
0100
0000
1000
0100
1000
0001
0100
0010
0100
0010
0100
0001
,
0020
0000
0000
0000
0000
0000
0230
0000
0000
0000
0301
0010
0001
0100
0010
1000
,
0100
1000
0100
0010
0000
0000
0000
0100
0010
1000
0010
0100
0010
1000
0001
0010
,
0001
1000
0001
1000
0001
1000
0001
1000
0010
0100
0010
0100
0010
0100
0010
0100
,
0001
0100
0001
0100
0010
1000
0010
1000
0010
1000
0010
1000
0010
1000
0010
0100
,
0001
0010
0001
0010
0001
0010
0100
0010
0100
0010
0100
0010
,
0001
1000
0001
0010
0001
1000
0010
0100
0010
1000
0010
0100
,
0001
0010
0001
0010
0001
0010
0100
0010
0100
0010
0100
0010
,
0001
1000
0001
0010
0001
1000
0010
0100
0010
1000
0010
0100
,
0010
1000
0010
1000
0010
1000
0001
1000
0001
1000
0001
1000
,
0010
1000
0001
0010
0001
1000
0010
0100
0010
1000
0010
0100
,
0001
1000
0001
1000
0001
1000
0010
1000
0010
1000
0010
1000
,
0001
1000
0010
0001
0010
1000
0001
0100
0001
1000
0001
0100
,
0001
0010
0100
1000
0001
0010
0100
1000
0001
0010
0100
1000
0001
0010
0100
1000
,
0100
0010
0001
1000
0010
0100
0001
1000
0010
0100
0001
1000
0010
0100
0001
1000
,
0010
1000
0100
0010
0001
0100
0010
1000
0100
0010
0001
0100
0010
1000
0100
0010
,
0001
1000
0100
1000
0001
0100
0001
0010
0100
1000
0000
0000
,
1000
0100
0010
0001
1000
0100
0010
0001
1000
0100
0010
0001
1000
0100
0010
0001
,
0010
0100
1000
0001
0100
0010
1000
0001
0100
0010
1000
0001
0100
0010
1000
0001
,
0100
0001
0010
0100
1000
0010
0100
0001
0010
0100
1000
0010
0100
0001
0010
0100
,
1000
0001
0010
0001
1000
0010
0100
0010
0001
0010
0001
0010
,
0022
0000
0000
0000
,
0033
0000
0000
0000
;
