#TITLE:Suicide Splitter Girls;
#SUBTITLE:;
#ARTIST:Loffciamcore & Commercial Whore;
#TITLETRANSLIT:;
#SUBTITLETRANSLIT:;
#ARTISTTRANSLIT:;
#CREDIT:;
#BANNER:suicide bn.png;
#BACKGROUND:suicide bg.png;
#LYRICSPATH:;
#CDTITLE:;
#MUSIC:Suicide Splitter Girls.ogg;
#OFFSET:0.009;
#SAMPLESTART:111.522;
#SAMPLELENGTH:12.000;
#SELECTABLE:YES;
#BPMS:0.000=239.978;
#STOPS:;
#BGCHANGES:;
// cache tags:
#FIRSTBEAT:30.000;
#LASTBEAT:551.250;
#SONGFILENAME:Songs/SPEEEDCOOOORE 4/Suicide Splitter Girls - [Aoreo]/Suicide Splitter Girls.sm;
#HASMUSIC:1;
#HASBANNER:1;
#MUSICLENGTH:141.762;
// end cache tags

//---------------dance-single - J. Nero & G. Moese----------------
#NOTES:
     dance-single:
     J. Nero & G. Moese:
     Challenge:
     16:
     1.000,1.000,0.183,0.190,1.000,1042.000,26.000,27.000,0.000,15.000:
0000
0000
0000
0000
,
0000
0000
0000
0000
,
0000
0000
0000
0000
,
0000
0000
0000
0000
,
0000
0000
0000
0000
,
0000
0000
0000
0000
,
0000
0000
0000
0000
,
0000
0000
1001
0101
,
2020
3030
0000
0000
1000
0000
0100
0000
0010
0000
0000
0000
0001
0000
0100
0000
,
0010
1000
0001
0000
,
1000
0000
0100
1000
0000
0000
0001
0000
,
0200
0000
0001
0300
2000
0000
0100
3100
,
0010
0000
0001
1000
0100
0000
1000
0000
,
0010
0100
0001
0000
,
1000
0000
0100
1000
0001
0100
0001
0000
,
0100
0000
1111
0000
,
1000
0001
0100
0001
1000
0010
1000
0001
0010
0100
0010
0001
1000
0100
1000
0001
,
1000
0001
0100
0010
0100
0001
1000
0010
0100
0010
1000
0001
0010
0100
1000
0001
,
1000
0010
0100
0010
1000
0001
0010
0100
1000
0001
1000
0100
0010
0001
1000
0001
,
0100
0010
0100
0001
4000
0000
3000
0000
0001
0100
0001
0100
0040
0000
0030
0000
,
1000
0001
1000
0010
0100
0010
1000
0001
1000
0100
0010
0001
1000
0100
1000
0001
,
0100
0001
1000
0010
1000
0010
0100
0001
1000
0010
1000
0001
0010
0100
1000
0001
,
0100
0001
1000
0100
0010
0001
1000
0100
1000
0001
0100
0010
1000
0001
1000
0001
,
0200
0000
0300
0000
0001
0100
0001
1000
,
0200
0300
0000
0000
1000
0000
1000
0000
0001
0100
0010
0100
0001
1000
0010
0100
,
0001
1000
0100
1000
0001
0010
0100
1000
0001
1000
0100
0010
0100
1000
0001
1000
,
0001
0100
0010
1000
0001
0100
0001
1000
0010
0100
0001
1000
0010
1000
0001
0100
,
0001
1000
0010
1000
0001
0010
0100
0010
0001
1000
0100
1000
0001
0000
1000
0000
,
0010
0000
0010
0000
1000
0001
0010
0100
1000
0001
0100
0010
0100
0001
1000
0100
,
0010
0001
1000
0100
1000
0001
0100
0010
0100
0001
1000
0010
1000
0001
0100
0010
,
1000
0001
0010
0100
1000
0001
0010
0001
1000
0100
1000
0001
0100
0001
1000
0010
,
2000
0000
0000
3000
,
0001
0001
1000
1000
0100
0000
0010
0000
,
0100
1000
0100
1000
0001
0000
0100
0000
,
0010
0100
0010
1000
,
0001
0000
0010
0000
0100
0000
0100
1000
,
0001
0001
1000
1000
0100
0000
0010
0000
,
0001
1000
0001
1000
0010
0000
1000
0000
,
0001
0000
0001
0000
1000
0100
0010
0000
,
0001
0000
0100
0000
0101
0000
0001
0010
,
0100
0000
0100
0000
1000
0000
1000
0000
0001
0100
0010
0100
0001
1000
0010
0100
,
0001
1000
0100
1000
0001
0010
0100
0010
0001
1000
0100
1000
0001
0100
0001
1000
,
0100
0010
0001
1000
0001
0100
0010
0100
0010
1000
0001
0100
0001
1000
0100
1000
,
0004
0000
0000
0000
0000
0000
0000
0000
0000
0000
0000
0000
0000
0000
0000
0003
,
1000
0100
1000
0001
0010
0100
1000
0001
0100
0010
0100
0001
1000
0001
0010
0100
,
1000
0001
0100
0001
1000
0010
0100
0010
4000
0000
0000
0000
0000
0000
0000
0000
,
3001
0000
0010
0000
0100
1000
0001
0000
,
1111
0000
0000
0000
,
1000
0000
0100
1000
0000
0001
0100
0001
,
0010
0000
0100
0000
1000
0000
0001
0100
,
0010
0000
0100
0010
0000
1000
0100
0000
,
2000
0000
0001
3000
1000
0100
0010
0100
,
1000
0000
0010
0100
0000
0010
0100
0000
,
0001
0010
0100
0000
,
1000
0000
0100
0010
0001
0100
0010
0000
,
0200
0300
0000
0000
0002
0003
0002
0003
,
1000
0000
0100
1000
0010
0100
0001
0000
,
0010
0000
0100
2000
0000
0000
0000
3001
,
0100
0000
0001
1000
0000
0100
1000
0000
,
0001
0000
0001
0000
0400
0000
0300
0000
0001
0000
1000
0000
0100
0010
0100
1000
,
0001
0100
0010
0100
0000
0001
0000
1000
,
0100
1000
0001
0000
,
1000
0000
0100
1000
0001
0100
0010
0000
,
1112
0000
0000
0003
,
1000
0100
1000
0100
0010
0000
0001
0000
,
1000
0010
1000
0010
0100
0000
0001
0000
,
1000
1000
0010
0100
,
0001
0000
0010
0100
1000
0001
1000
0001
,
0010
0100
1000
0010
0100
0000
0010
0000
,
1000
0100
1000
0100
0010
0000
0100
0000
,
1100
0000
1001
0000
0001
0100
0010
0000
,
0200
0000
0000
0000
0301
0001
1000
1000
,
0001
0100
0001
1000
0010
0100
0010
1000
0001
0100
0001
1000
0100
0010
0100
1000
,
0001
0100
0001
1000
0100
0010
0001
1000
0001
0100
0010
0100
0001
1000
0001
0100
,
0010
1000
0001
0100
0001
0100
0010
1000
0001
1000
0100
0010
0001
1000
0100
1000
,
0001
0100
0010
0100
0004
0000
0003
0000
1000
0100
1000
0100
0040
0000
0030
0000
,
0001
1000
0001
1000
0010
0100
0010
1000
,
0001
0000
0100
0000
0001
0000
1000
0000
0001
1000
0100
0010
0001
0100
0010
1000
,
0001
0000
1000
0000
0001
0100
0001
0010
0100
1000
0010
0100
0001
1000
0100
0010
,
0002
0000
0000
0000
,
1003
0000
0100
0000
0010
0000
0100
0000
1000
0001
1000
0010
0100
0010
1000
0001
,
0100
0001
1000
0100
0010
0100
1000
0001
0100
0001
1000
0100
1000
0001
0100
0001
,
1000
0010
0100
0001
0100
0001
1000
0010
1000
0001
0010
0100
1000
0001
0100
0001
,
1000
0100
1000
0001
0100
0010
0100
0001
1000
0000
0001
0000
0010
0000
0100
0000
,
1000
0001
0100
0001
0100
0010
1000
0001
0010
0100
1000
0001
0100
0001
1000
0100
,
0010
0001
1000
0100
1000
0001
0100
0001
1000
0010
1000
0001
0100
0001
1000
0100
,
0010
0100
1000
0001
0010
0100
1000
0001
1000
0010
0100
0001
0100
0001
1000
0010
,
1000
0000
1111
1111
,
2222
3333
0000
0000
,
0000
0000
0000
0000
,
0000
0000
0000
0000
,
0000
0000
0000
0000
,
0000
0000
0000
0000
,
0000
0000
0000
0000
,
0000
0000
0000
0000
,
0000
0000
0000
0000
,
1002
1003
0100
0010
0100
1000
0001
0100
,
0010
0100
0001
1000
0001
0010
0100
1000
,
0001
1000
0100
1000
0001
0100
0010
0100
,
0001
0000
1000
0000
0001
0000
0010
0000
0100
1000
0001
0100
0040
0000
0000
0030
,
1000
0001
0100
0010
0100
0001
0010
0100
,
1000
0001
0100
0010
0100
0001
1000
0100
,
0010
0100
1000
0001
0100
0010
0100
0001
,
1000
0000
0100
0000
0010
0000
0001
0000
1000
0100
1000
0001
0400
0000
0300
0000
,
0101
0000
0001
0100
0010
0000
1000
0100
,
0010
0000
0100
1000
0001
0000
0100
0000
,
0010
0000
1000
0100
0010
0100
1000
0000
,
0002
0000
1000
0000
2003
0000
0100
3100
,
0010
0000
0100
1000
0001
0000
0100
0010
,
1000
0000
0001
0010
0100
0000
1000
0000
,
0010
0000
1000
0100
0010
0100
1000
0000
,
0010
0000
1111
1111
,
1000
0001
0100
0001
0100
0010
1000
0001
1000
0100
0010
0100
1000
0001
0100
0001
,
1000
0010
1000
0001
0100
0010
1000
0001
1000
0100
0010
0001
1000
0100
1000
0001
,
0100
0010
0100
0001
1000
0001
0010
0100
1000
0001
0100
0001
1000
0100
0010
0001
,
1000
0010
0100
0010
4000
0000
3000
0000
0001
0100
0001
1000
0400
0000
0300
0000
,
1000
0001
1000
0010
0100
0001
1000
0001
0010
0100
1000
0001
1000
0100
0010
0100
,
1000
0001
0100
0001
1000
0010
0100
0010
1000
0001
0010
0100
0010
0001
1000
0100
,
1000
0001
0100
0010
0100
0001
1000
0010
1000
0001
0010
0100
1000
0001
0100
0001
,
1000
0000
0000
0000
,
2002
3003
0000
0000
2002
3003
0000
0000
0001
0100
0001
1000
0010
0100
0001
1000
,
0100
0010
0001
1000
0100
1000
0001
0100
0010
0100
0001
1000
0010
1000
0001
0100
,
0001
1000
0100
1000
0001
0010
0100
1000
0001
0100
0001
1000
0010
0100
0010
1000
,
0001
1000
0100
0010
0001
1000
0001
0100
0010
0100
0001
1000
0004
0000
0003
0000
,
1000
0000
1000
0000
0001
0010
0100
1000
0010
0100
0010
1000
0100
0010
0001
1000
,
0001
0000
0100
0000
0010
1000
0100
1000
0010
0100
0001
0010
0001
1000
0100
0010
,
0001
0000
1000
0000
0100
1000
0010
0100
0001
0010
0100
1000
0010
0100
0001
0010
,
0002
0000
0000
0000
0000
0000
0000
0000
0000
0000
0000
0000
0000
0000
0000
0003
,
1000
1000
0001
0001
,
0010
0000
0100
1000
0001
0000
0100
0000
,
0010
0000
1000
0100
0010
0100
1000
0000
,
0001
0100
0001
1000
0100
0000
0000
0000
0010
0000
0010
0000
0001
0000
0001
0000
,
1000
1000
0010
0010
,
0100
0000
0001
0010
0100
0000
1000
0000
,
0001
0000
0100
0001
0010
0100
1000
0000
,
1101
0000
0000
0000
0004
0003
4000
3000
,
1111
0000
1111
0000
,
1111
0000
0000
0000
1111
0000
0000
0000
1111
0000
0000
0000
0000
1111
0000
0000
;
