#TITLE:ALIEN WORLD -Another-;
#SUBTITLE:;
#ARTIST:PINK PONG;
#TITLETRANSLIT:;
#SUBTITLETRANSLIT:;
#ARTISTTRANSLIT:;
#CREDIT:;
#BANNER:;
#BACKGROUND:;
#LYRICSPATH:;
#CDTITLE:;
#MUSIC:ALIEN WORLD.mp3;
#OFFSET:0.414;
#SAMPLESTART:40.977;
#SAMPLELENGTH:12.000;
#SELECTABLE:YES;
#BPMS:0.000=144.960;
#STOPS:;
#BGCHANGES:;
// cache tags:
#FIRSTBEAT:2.000;
#LASTBEAT:275.750;
#SONGFILENAME:Songs/juju steps/ALIEN WORLD/ALIEN WORLD.sm;
#HASMUSIC:1;
#HASBANNER:0;
#MUSICLENGTH:116.801;
// end cache tags

//---------------iidx-single7 - alien world -another----------------
#NOTES:
     iidx-single7:
     alien world -another:
     Challenge:
     8:
     1.000,1.000,1.000,0.000,1.000,787.000,126.000,0.000,0.000,8.000:  // measure 1
00000000
00000000
00000000
00000000
00000000
00000000
00000000
00000000
10001000
00000000
10010000
00000100
10100000
00000100
10010000
00000000
,  // measure 2
10000001
00000000
00100000
00000000
10000000
00010000
00000000
00000100
10000000
00000000
00100000
00000000
10000000
00010000
00000000
00000100
,  // measure 3
10000000
00000000
00100000
00000000
10000000
00010000
00000000
00000100
10000000
00000000
00100000
00000000
10000000
00010000
00000000
00000100
,  // measure 4
10000000
00000000
00100000
00000000
10000000
00010000
00000000
00000100
10000000
00000000
00100000
00000000
10000000
00010000
00000000
00000100
,  // measure 5
10000000
00000000
00100000
00000000
10000000
00010000
00000000
00000100
10000000
00000000
00100000
00000000
10000000
00010000
00000000
00000100
,  // measure 6
10000001
00000000
00100000
00000001
10000000
00010000
00000001
00000100
10000000
00000001
00100000
00000000
10000000
00010000
00000000
00000100
,  // measure 7
10000000
00000000
00100000
00000000
10000000
00010000
00000000
00000100
10000000
00000000
00100000
00000000
10000000
00010000
00000000
00000100
,  // measure 8
10000000
00000000
00100000
00000000
10000000
00010000
00000000
00000100
10000000
00000000
00100000
00000000
10000000
00010000
00000000
00000100
,  // measure 9
00000001
00000000
00000000
00000000
00000000
00000000
00000001
00000000
00000000
00000000
00000000
00000000
10000001
00000000
10000000
00100000
,  // measure 10
10000001
00000000
00010000
00000000
10100000
00001000
00000000
00000010
10000000
00000000
00010000
00000000
10100000
00001000
00000000
00000010
,  // measure 11
10000000
00000000
00010000
00000000
10100000
00001000
00000000
00000010
10000000
00000000
00010000
00000000
10100000
00001000
00000000
00000010
,  // measure 12
10000001
00000000
00010000
00000000
10100000
00001000
00000000
00000010
10000000
00000000
00010000
00000000
10100000
00001000
00000000
00000010
,  // measure 13
10000000
00000000
00010000
00000000
10100001
00001000
00000000
00000010
10000000
00000000
00010000
00000000
10100000
00001000
01000000
00000010
,  // measure 14
10000000
00000000
00010000
00000000
10100000
00001000
00000000
00000010
10000000
00000000
00010000
00000000
10100000
00001000
00000000
00000010
,  // measure 15
10000000
00000000
00010000
00000000
10100000
00001000
00000000
00000010
10000000
00000000
00010000
00000000
10100000
00001000
00000000
00000010
,  // measure 16
00000000
10000000
00101000
10000000
00100000
10000100
00100000
10000010
00100000
10000000
00101000
10000000
00100000
10000100
00100000
00000010
,  // measure 17
01000001
00000000
00000000
00000000
00000000
00000000
01000000
01000000
00000000
00000000
00000000
00000000
00000010
00000000
00000000
00000000
,  // measure 18
00001001
00000000
00010000
00001000
00000010
00010000
00100000
00000000
00010000
00000000
00100000
00010000
00000010
00000000
01000000
00000000
,  // measure 19
00100000
00000000
01000000
00100000
00000010
00000000
10000000
00000000
01000000
00000000
10000000
01000000
00000010
00000000
00010000
00000000
,  // measure 20
00001000
00000000
00010000
00001000
00000010
00010000
00100000
00000000
00010000
00000000
00100000
00010000
00000010
00000000
01000000
00000000
,  // measure 21
00100000
00000000
01000000
00100000
00000010
00000000
10000000
00100000
01000000
00000000
10000000
01000000
00000010
00000000
00010000
00000000
,  // measure 22
00000010
00000000
00000100
00000010
10000000
00000100
00001000
00000000
00000100
00000000
00001000
00000100
10000000
00000000
00010000
00000000
,  // measure 23
00001000
00000000
00010000
00001000
10000000
00000000
00100000
00000000
00010000
00000000
00100000
00010000
10000000
00000000
00000100
00000000
,  // measure 24
00000010
00000010
00000100
00000010
10000000
00000100
00001000
00000000
00000100
00000000
00001000
00000100
10000000
00000000
00010000
00000000
,  // measure 25
00001000
00000000
00010000
00001000
10000000
00000000
00100000
00001000
00010000
00000000
00000000
00010000
10000000
00000000
00000100
00000000
,  // measure 26
00001011
00000000
00010000
00001000
00000110
00010000
00100000
00000000
00010010
00000000
00100000
00010000
00000110
00000000
01000000
00000000
,  // measure 27
00100010
00100000
01000000
00100000
00000110
00000000
10000000
00000000
01000010
00000000
10000000
01000000
00000110
00000000
00010000
00000000
,  // measure 28
00001010
00000000
00010000
00001000
00000110
00010000
00100000
00000000
00010010
00000000
00100000
00010000
00000110
00000000
01000000
00000000
,  // measure 29
00100010
00000000
01000000
00100000
00000110
00000000
10000000
00100000
01000010
00000000
10000000
01000000
00000110
00000000
00010000
00000000
,  // measure 30
10000010
00000010
00000100
00000010
11000000
00000100
00001000
00000000
10000100
00000000
00001000
00000100
11000000
00000000
00010000
00000000
,  // measure 31
10001000
00000000
00010000
00001000
11000000
00000000
00100000
00000000
10010000
00000000
00100000
00010000
11000000
00000000
00000100
00000000
,  // measure 32
00000010
00100000
10000000
00100010
10000000
00101000
10000000
00100000
10000100
00100000
10000000
00100100
10000000
00100000
10001000
00000000
,  // measure 33
01000000
00000000
00000000
00000000
00000000
00000000
01000000
00000000
00000000
00000000
01000000
00100000
10000000
00100000
10000000
00100000
,  // measure 34
01000001
00000000
00100000
00010000
00000000
00010000
00000100
00000000
00010000
01000000
10000000
00000000
00100000
00000000
00000100
00000000
,  // measure 35
01000000
00000000
00100000
00010000
00000000
00010000
00000100
00000000
00010000
01000000
10000000
00000000
00100000
00000000
00000100
00000000
,  // measure 36
01000000
00000000
00100000
00010000
00000000
00010000
00000100
00000000
00010000
01000000
10000000
00000000
00100000
00000000
00000100
00000000
,  // measure 37
01000000
00000000
00100000
00010000
00000000
00010000
00000100
00000000
00010000
01000000
10000000
00000000
00100000
00000000
00000100
00000000
,  // measure 38
10010001
00000000
00001000
00000100
10000000
00000100
00000010
00000000
10001000
00010000
00100000
00000000
10001000
00000000
00000011
00000000
,  // measure 39
10010000
00000000
00001000
00000100
10000001
00000100
00000010
00000000
10001000
00010000
00100000
00000000
10001000
00000000
00000011
00000000
,  // measure 40
10010000
00000000
00001000
00000100
10000000
00000100
00000010
00000000
10001000
00010000
00100000
00000000
10001000
00000000
00000011
00000000
,  // measure 41
10010001
00000000
00001000
00000100
10000000
00000100
00000010
10000000
10001000
00010000
00100000
10000000
10000010
00000000
10000100
00000000
,  // measure 42
10000001
00001000
00100000
00000010
00000100
00010000
01000000
00010000
00000010
00100000
00001000
10000000
01000000
00010000
00000100
00010000
,  // measure 43
10000000
00001000
00100000
00000010
00000100
00010000
01000000
00010000
00000010
00100000
00001000
10000000
01000000
00010000
00000100
00010000
,  // measure 44
10000001
00100000
00001000
00000010
00010000
00000100
01000000
00010000
00000010
00001000
00100000
10000000
00010000
01000000
00000100
00010000
,  // measure 45
10000000
00000000
00100000
00000000
00001000
00000000
00000010
00000000
00010000
00000000
00000100
00000000
01000000
00000000
00010000
00000000
10000001
00000000
00010000
00000000
01000000
00000000
00001000
00000000
00000100
00000000
00010000
00000000
00000010
01000000
00010000
00000100
,  // measure 46
10000001
00001000
00100000
00000010
00000100
00010000
01000000
00010000
00000010
00100000
00001000
10000000
01000000
00010000
00000100
00010000
,  // measure 47
10000000
00001000
00100000
00000010
00000100
00010000
01000000
00010000
00000010
00100000
00001000
10000000
01000000
00010000
00000100
00010000
,  // measure 48
10000001
00100000
00001000
00000010
00010000
00000100
01000000
00010000
00000010
00001000
00100000
10000000
00010000
01000000
00000100
00010000
,  // measure 49
00000001
00000000
00000000
00000000
00000000
00000000
00000000
00000000
10000000
00010000
01000000
00001000
00100000
00000100
00010000
00000010
,  // measure 50
10001000
00000000
00001000
00010000
01000000
00010000
00001000
00000000
10010000
00000000
00010000
00001000
01000000
00001000
00010000
00000000
,  // measure 51
10001000
00000000
00001000
00010000
01000000
00010000
00001000
00000000
10010000
00000000
00010000
00001000
01000000
00001000
00010000
00000000
,  // measure 52
10001000
00000000
00001000
00010000
01000000
00010000
00001000
00000000
10010000
00000000
00010000
00001000
01000000
00001000
00010000
00000000
,  // measure 53
10001000
00000000
00001000
00010000
01000000
00010000
00001000
00000000
10010000
00000000
00010000
00001000
01000000
00001000
00010000
00000000
,  // measure 54
10000100
00000000
00000100
00001000
01000000
00001000
00000100
00000000
10001000
00000000
00001000
00000100
01000000
00000100
00001000
00000000
,  // measure 55
10000100
00000000
00000100
00001000
01000000
00001000
00000100
00000000
10001000
00000000
00001000
00000100
01000000
00000100
00001000
00000000
,  // measure 56
10000010
00000000
00000010
00000100
01000000
00000100
00000010
00000000
10000100
00000000
00000100
00000010
01000000
00000010
00000100
00000000
,  // measure 57
10000010
00000000
00000010
00000100
01000000
00000100
00000010
00000000
10000100
00000000
00000100
00000010
01000000
00000010
00000100
00000000
,  // measure 58
10001001
00000000
00001000
00010000
01000000
00010000
00001000
00000000
10010000
00000000
00010000
00001000
01000000
00001000
00010000
00000000
,  // measure 59
10001000
00000000
00001000
00010000
01000000
00010000
00001000
00000000
10010000
00000000
00010000
00001000
01000000
00001000
00010000
00000000
,  // measure 60
10001000
00000000
00001000
00010000
01000000
00010000
00001000
00000000
10010000
00000000
00010000
00001000
01000000
00001000
00010000
00000000
,  // measure 61
10001000
00000000
00001000
00010000
01000000
00010000
00001000
00000000
10010000
00000000
00010000
00001000
01000000
00001000
00010000
00000000
,  // measure 62
10000101
00000000
00000100
00001000
01000000
00001000
00000100
00000000
10001000
00000000
00001000
00000100
01000000
00000100
00001000
00000000
,  // measure 63
10000100
00000000
00000100
00001000
01000000
00001000
00000100
00000000
10001000
00000000
00001000
00000100
01000000
00000100
00001000
00000000
,  // measure 64
10000011
00000000
00000010
00000100
01000000
00000100
00000010
00000000
10000100
00000000
00000100
00000010
01000000
00000010
00000100
00000000
,  // measure 65
10000011
00100000
10000010
00100100
10000000
00100100
10000010
00100000
10000100
00100000
10000100
00100010
10000000
00100010
10000100
00100000
,  // measure 66
10000001
00000000
00100000
00000000
10000000
00010000
00000000
00000100
10000000
00000000
00100000
00000000
10000000
00010000
00000000
00000100
,  // measure 67
10000000
00000000
00100000
00000000
10000000
00010000
00000000
00000100
10000000
00000000
00100000
00000000
10100000
00000100
00010000
00000010
,  // measure 68
10000000
00000000
00100000
00000000
10000000
00010000
00000000
00000100
10000000
00000000
00100000
00000000
10000000
00010000
00000000
00000100
,  // measure 69
10000000
00000000
00100000
00000000
10000000
00010000
00000000
00000100
10001000
00000000
10010000
00000100
10100000
00000100
10010000
00000010
;

//---------------iidx-single7 - alien world----------------
#NOTES:
     iidx-single7:
     alien world:
     Hard:
     7:
     0.985,1.000,1.000,0.000,0.882,663.000,117.000,0.000,0.000,25.000:  // measure 1
00000000
00000000
00000000
00000000
00000000
00000000
00000000
00000000
00100000
00000000
10000000
00001000
01000000
00001000
10000000
00000000
,  // measure 2
10000001
00000000
00100000
00000000
10000000
00010000
00000000
00000100
10000000
00000000
00100000
00000000
10000000
00010000
00000000
00000100
,  // measure 3
10000000
00000000
00100000
00000000
10000000
00010000
00000000
00000100
10000000
00000000
00100000
00000000
10000000
00010000
00000000
00000100
,  // measure 4
10000000
00000000
00100000
00000000
10000000
00010000
00000000
00000100
10000000
00000000
00100000
00000000
10000000
00010000
00000000
00000100
,  // measure 5
10000000
00000000
00100000
00000000
10000000
00010000
00000000
00000100
10000000
00000000
00100000
00000000
10000000
00010000
00000000
00000100
,  // measure 6
10000001
00000000
00100000
00000001
10000000
00010000
00000001
00000100
10000000
00000001
00100000
00000000
10000000
00010000
00000000
00000100
,  // measure 7
10000000
00000000
00100000
00000000
10000000
00010000
00000000
00000100
10000000
00000000
00100000
00000000
10000000
00010000
00000000
00000100
,  // measure 8
10000000
00000000
00100000
00000000
10000000
00010000
00000000
00000100
10000000
00000000
00100000
00000000
10000000
00010000
00000000
00000100
,  // measure 9
00000001
00000000
00000000
00000000
00000000
00000000
00000001
00000000
00000000
00000000
00000000
00000000
10000001
00000000
10000000
00100000
,  // measure 10
10000001
00000000
00010000
00000000
10100000
00001000
00000000
00000010
10000000
00000000
00010000
00000000
10100000
00001000
00000000
00000010
,  // measure 11
10000000
00000000
00010000
00000000
10100000
00001000
00000000
00000010
10000000
00000000
00010000
00000000
10100000
00001000
00000000
00000010
,  // measure 12
10000001
00000000
00010000
00000000
10100000
00001000
00000000
00000010
10000000
00000000
00010000
00000000
10100000
00001000
00000000
00000010
,  // measure 13
10000000
00000000
00010000
00000000
10100001
00001000
00000000
00000010
10000000
00000000
00010000
00000000
10100000
00001000
00000000
00000010
,  // measure 14
10000000
00000000
00010000
00000000
10100000
00001000
00000000
00000010
10000000
00000000
00010000
00000000
10100000
00001000
00000000
00000010
,  // measure 15
10000000
00000000
00010000
00000000
10100000
00001000
00000000
00000010
10000000
00000000
00010000
00000000
10100000
00001000
00000000
00000010
,  // measure 16
00000000
01000000
00010000
01000000
00010000
01000000
00010000
01000000
00010000
01000000
00010000
01000000
00010000
01000000
00010000
00000000
,  // measure 17
01000001
00000000
00000000
00000000
00000000
00000000
01000000
01000000
00000000
00000000
00000000
00000000
00000010
00000000
00000000
00000000
,  // measure 18
00001001
00000000
00010000
00001000
00000010
00000000
00100000
00000000
00010000
00000000
00000000
00010000
00000010
00000000
01000000
00000000
,  // measure 19
00100000
00000000
00000000
00100000
00000010
00000000
10000000
00000000
01000000
00000000
00000000
01000000
00000010
00000000
00010000
00000000
,  // measure 20
00001000
00000000
00010000
00001000
00000010
00000000
00100000
00000000
00010000
00000000
00000000
00010000
00000010
00000000
01000000
00000000
,  // measure 21
00100000
00000000
00000000
00100000
00000010
00000000
10000000
00100000
01000000
00000000
00000000
01000000
00000010
00000000
00010000
00000000
,  // measure 22
00000010
00000000
00000100
00000010
10000000
00000000
00001000
00000000
00000100
00000000
00000000
00000100
10000000
00000000
00010000
00000000
,  // measure 23
00001000
00000000
00000000
00001000
10000000
00000000
00100000
00000000
00010000
00000000
00000000
00010000
10000000
00000000
00000100
00000000
,  // measure 24
00000010
00000010
00000100
00000010
10000000
00000000
00001000
00000000
00000100
00000000
00000000
00000100
10000000
00000000
00010000
00000000
,  // measure 25
00001000
00000000
00000000
00001000
10000000
00000000
00100000
00001000
00010000
00000000
00000000
00010000
10000000
00000000
00000100
00000000
,  // measure 26
00001011
00000000
00010000
00001000
00000110
00000000
00100000
00000000
00010010
00000000
00000000
00010000
00000110
00000000
01000000
00000000
,  // measure 27
00100010
00100000
01000000
00100000
00000110
00000000
10000000
00000000
01000010
00000000
00000000
01000000
00000110
00000000
00010000
00000000
,  // measure 28
00001010
00000000
00010000
00001000
00000110
00000000
00100000
00000000
00010010
00000000
00000000
00010000
00000110
00000000
01000000
00000000
,  // measure 29
00100010
00000000
00000000
00100000
00000110
00000000
10000000
00100000
01000010
00000000
00000000
01000000
00000110
00000000
00010000
00000000
,  // measure 30
10000010
00000010
00000100
00000010
11000000
00000000
00001000
00000000
10000100
00000000
00000000
00000100
11000000
00000000
00010000
00000000
,  // measure 31
10001000
00000000
00000000
00001000
11000000
00000000
00100000
00000000
10010000
00000000
00000000
00010000
11000000
00000000
00000100
00000000
,  // measure 32
00000000
00010000
01000000
00010000
01000000
00010000
01000000
00010000
01000000
00010000
01000000
00010000
01000000
00010000
01000000
00000000
,  // measure 33
01000000
00000000
00000000
00000000
00000000
00000000
01000000
00000000
00000000
00000000
10000000
00100000
10000000
00100000
10000000
00100000
,  // measure 34
01000001
00000000
00100000
00010000
00000000
00010000
00000100
00000000
00010000
00000000
10000000
00000000
00100000
00000000
00000100
00000000
,  // measure 35
01000000
00000000
00100000
00010000
00000000
00010000
00000100
00000000
00010000
00000000
10000000
00000000
00100000
00000000
00000100
00000000
,  // measure 36
01000000
00000000
00100000
00010000
00000000
00010000
00000100
00000000
00010000
00000000
10000000
00000000
00100000
00000000
00000100
00000000
,  // measure 37
01000000
00000000
00100000
00010000
00000000
00010000
00000100
00000000
00010000
00000000
10000000
00000000
00100000
00000000
00000100
00000000
,  // measure 38
01000001
00000000
00100000
00010000
00000000
00010000
00000100
00000000
00010000
00000000
10000000
00000000
00100000
00000000
00000101
00000000
,  // measure 39
01000000
00000000
00100000
00010000
00000001
00010000
00000100
00000000
00010000
00000000
10000000
00000000
00100000
00000000
00000101
00000000
,  // measure 40
01000000
00000000
00100000
00010000
00000000
00010000
00000100
00000000
00010000
00000000
10000000
00000000
00100000
00000000
00000101
00000000
,  // measure 41
01000001
00000000
00100000
00010000
00000000
00010000
00000100
00000000
00010000
00010000
10000000
00000000
00000010
00000000
00000100
00000000
,  // measure 42
10010001
00000000
00001000
00000000
10100010
00001000
00000100
00000000
10010000
00000000
00001000
00000000
10100010
00001000
00000100
00000000
,  // measure 43
10010000
00000000
00001000
00000000
10100010
00001000
00000100
00000000
10010000
00000000
00001000
00000000
10100010
00001000
00000100
00000000
,  // measure 44
10010001
00000000
00001000
00000000
10100010
00001000
00000100
00000000
10010000
00000000
00001000
00000000
10100010
00001000
00000100
00000000
,  // measure 45
10010000
00000000
00001000
00000000
10100010
00001000
00000100
00000000
10010001
00000000
00001000
00000000
10100010
00001000
00000100
00010000
,  // measure 46
10000011
00010000
00000100
00000000
10100010
00010000
00001000
00000000
10000010
00010000
00000100
00000000
10100010
00010000
00001000
00000000
,  // measure 47
10000010
00010000
00000100
00000000
10100010
00010000
00001000
00000000
10000010
00010000
00000100
00000000
10100010
00010000
00001000
00000000
,  // measure 48
10000011
00010000
00000100
00000000
10100010
00010000
00001000
00000000
10000010
00010000
00000100
00000000
10100010
00010000
00001000
00000000
,  // measure 49
00000001
00000000
00000000
00000000
00000000
00000000
00000000
00000000
10000000
00010000
01000000
00001000
00100000
00000100
00010000
00000010
,  // measure 50
10001000
00000000
00010000
00000000
01000000
00000000
00001000
00000000
10010000
00000000
00000000
00001000
01000000
00001000
00010000
00000000
,  // measure 51
10001000
00000000
00010000
00000000
01000000
00000000
00001000
00000000
10010000
00000000
00000000
00001000
01000000
00001000
00010000
00000000
,  // measure 52
10001000
00000000
00010000
00000000
01000000
00000000
00001000
00000000
10010000
00000000
00000000
00001000
01000000
00001000
00010000
00000000
,  // measure 53
10001000
00000000
00010000
00000000
01000000
00000000
00001000
00000000
10010000
00000000
00000000
00001000
01000000
00001000
00010000
00000000
,  // measure 54
10000100
00000000
00001000
00000000
01000000
00000000
00000100
00000000
10001000
00000000
00000000
00000100
01000000
00000100
00001000
00000000
,  // measure 55
10000100
00000000
00001000
00000000
01000000
00000000
00000100
00000000
10001000
00000000
00000000
00000100
01000000
00000100
00001000
00000000
,  // measure 56
10000010
00000000
00000100
00000000
01000000
00000000
00000010
00000000
10000100
00000000
00000000
00000010
01000000
00000010
00000100
00000000
,  // measure 57
10000010
00000000
00000100
00000000
01000000
00000000
00000010
00000000
10000100
00000000
00000000
00000010
01000000
00000010
00000100
00000000
,  // measure 58
10001001
00000000
00010000
00000000
01000000
00000000
00001000
00000000
10010000
00000000
00000000
00001000
01000000
00001000
00010000
00000000
,  // measure 59
10001000
00000000
00010000
00000000
01000000
00000000
00001000
00000000
10010000
00000000
00000000
00001000
01000000
00001000
00010000
00000000
,  // measure 60
10001000
00000000
00010000
00000000
01000000
00000000
00001000
00000000
10010000
00000000
00000000
00001000
01000000
00001000
00010000
00000000
,  // measure 61
10001000
00000000
00010000
00000000
01000000
00000000
00001000
00000000
10010000
00000000
00000000
00001000
01000000
00001000
00010000
00000000
,  // measure 62
10000101
00000000
00001000
00000000
01000000
00000000
00000100
00000000
10001000
00000000
00000000
00000100
01000000
00000100
00001000
00000000
,  // measure 63
10000100
00000000
00001000
00000000
01000000
00000000
00000100
00000000
10001000
00000000
00000000
00000100
01000000
00000100
00001000
00000000
,  // measure 64
10000011
00000000
00000100
00000000
01000000
00000000
00000010
00000000
10000100
00000000
00000000
00000010
01000000
00000010
00000100
00000000
,  // measure 65
10000011
00100000
10000100
00100000
10000000
00100000
10000010
00100000
10000100
00100000
10000000
00100010
10000000
00100010
10000100
00100000
,  // measure 66
10000001
00000000
00100000
00000000
10000000
00010000
00000000
00000100
10000000
00000000
00100000
00000000
10000000
00010000
00000000
00000100
,  // measure 67
10000000
00000000
00100000
00000000
10000000
00010000
00000000
00000100
10000000
00000000
00100000
00000000
10000000
00010000
00000000
00000100
,  // measure 68
10000000
00000000
00100000
00000000
10000000
00010000
00000000
00000100
10000000
00000000
00100000
00000000
10000000
00010000
00000000
00000100
,  // measure 69
10000000
00000000
00100000
00000000
10000000
00010000
00000000
00000100
01000000
00000000
10010000
00100000
01000000
00101000
10000000
00000010
;
