#TITLE:The Power;
#SUBTITLE:;
#ARTIST:40oz. to Life;
#TITLETRANSLIT:;
#SUBTITLETRANSLIT:;
#ARTISTTRANSLIT:;
#CREDIT:Aoreo;
#BANNER:the power bn.png;
#BACKGROUND:the power bg.png;
#LYRICSPATH:;
#CDTITLE:;
#MUSIC:The Power.ogg;
#OFFSET:0.005;
#SAMPLESTART:29.274;
#SAMPLELENGTH:12.000;
#SELECTABLE:YES;
#DISPLAYBPM:227.000;
#BPMS:0.000=227.000;
#STOPS:;
#BGCHANGES:;
// cache tags:
#FIRSTBEAT:0.000;
#LASTBEAT:560.000;
#SONGFILENAME:Songs/SPEEEDCOOOORE 3/The Power - [Aoreo]/The Power.sm;
#HASMUSIC:1;
#HASBANNER:1;
#MUSICLENGTH:149.074;
// end cache tags

//---------------dance-single - J. Nero----------------
#NOTES:
     dance-single:
     J. Nero:
     Challenge:
     17:
     1.000,1.000,0.698,1.000,1.000,1127.000,104.000,220.000,74.000,20.000:
2002
3003
0000
0202
0303
0000
2002
3003
,
2200
3300
0000
0220
0330
0000
0022
0033
,
0220
0330
0000
2002
3003
0000
0202
0303
,
0220
0330
0000
2002
3003
0000
2020
3030
,
0220
0330
0000
0202
0303
0000
0022
0033
,
0220
0330
0000
2200
3300
0000
2002
3003
,
0202
0303
0000
0220
0330
0000
2020
3030
,
2200
3300
0000
0220
0330
0000
0022
0033
,
2002
0000
3MM3
0000
,
0MM0
0000
0MM0
0000
,
0000
0000
0000
0000
,
0000
0000
0000
0000
,
0000
0000
0000
0000
0M00
0M00
0M00
0M00
,
0M00
0000
0000
0M00
0000
0000
0M00
0000
0000
0M00
0000
0000
0M00
0000
0M00
0000
0M00
0000
0M00
0000
0M00
0000
0M00
0000
,
0M00
0000
0000
0000
0M00
0000
0000
0000
0M00
0000
0000
0000
0M00
0000
0000
0M00
0000
0000
0M00
0000
0000
0M00
0000
0000
0M00
0000
0000
0M00
0000
0000
0M00
0000
0000
0M00
0000
0000
0M00
0000
0M00
0000
0M00
0000
0M00
0000
0M00
0000
0M00
0000
,
0M00
0000
0000
0000
0000
0000
0000
0000
0M00
0000
0000
0000
0000
0000
0000
0000
0M00
0000
0000
0000
0000
0000
0000
0000
0M00
0000
0000
0000
0000
0000
0000
0000
0M00
0000
0000
0000
0000
0000
0000
0000
0M00
0000
0000
0000
0000
0000
0000
0000
0M00
0000
0000
0000
0000
0000
0M00
0000
0000
0000
0000
0000
0M00
0000
0000
0000
0000
0000
0M00
0000
0000
0000
0000
0000
0M00
0000
0000
0000
0000
0000
0M00
0000
0000
0000
0000
0000
0M00
0000
0000
0000
0000
0000
0M00
0000
0000
0000
0000
0000
0M00
0000
0000
0000
0000
0000
0M00
0000
0000
0000
0000
0000
0M00
0000
0000
0000
0000
0000
0M00
0000
0000
0000
0000
0000
0M00
0000
0000
0000
0000
0000
0M00
0000
0000
0000
0000
0000
0M00
0000
0000
0000
0000
0000
0M00
0000
0000
0000
0000
0000
0M00
0000
0000
0000
0000
0000
0M00
0000
0000
0000
0000
0000
0M00
0000
0000
0000
0000
0000
0M00
0000
0000
0000
0000
0000
0M00
0000
0000
0000
0000
0000
0M00
0000
0000
0000
0000
0000
0M00
0000
0000
0000
0000
0000
0M00
0000
0000
0000
0000
0000
,
1M00
1000
0001
0010
0010
0100
1000
0001
,
0100
0100
0010
1000
1000
0001
0010
0100
,
1000
1000
0001
0100
0100
0001
1000
0001
,
0010
0000
0010
0000
0100
0000
1000
0000
1000
0000
0010
0000
0100
0001
0100
0000
,
0001
0001
0010
0100
0100
1000
0001
0100
,
0010
0010
1000
0100
0100
1000
0001
1000
,
0002
0100
1003
0002
0100
1003
0002
0100
,
1003
0000
1001
0000
0001
0100
0010
0000
,
2020
3030
0000
0202
0303
0000
2002
3003
,
2200
3300
0000
0220
0330
0000
0022
0033
,
2002
3003
0000
2020
3030
0000
0220
0330
,
0202
0000
0303
0000
0000
0000
2002
0000
3003
0000
0000
0000
1000
0010
0100
0000
,
0220
0330
0000
0202
0303
0000
0022
0033
,
0220
0330
0000
2200
3300
0000
2002
3003
,
0222
0333
0000
0222
0333
0000
2202
3303
,
2202
0000
3303
0000
0000
0000
2220
0000
3330
0000
0000
0000
1000
0001
0100
0000
,
0001
0001
0010
0100
0100
1000
0010
0100
,
0001
0001
1000
0100
0100
0010
0001
0100
,
0010
0010
1000
0100
0100
0010
0001
0100
,
0010
0000
0010
0000
1000
0000
0001
0000
0001
0000
0010
0000
0100
1000
0001
0000
,
1000
1000
0010
0100
0100
0001
0010
0100
,
1000
1000
0010
0100
0100
0001
0010
0100
,
2000
0100
3001
2000
0100
3001
2000
0100
,
3004
0003
0M00
0000
0M00
0000
0000
0000
,
1000
0000
0001
0000
0100
0000
0010
0000
1000
0000
0001
0000
1000
0000
0010
0100
,
0001
0000
1000
0000
0001
0000
0010
0000
0100
0000
1000
0000
0001
0100
0001
0100
,
0010
0000
1000
0000
0001
0000
1000
0000
0100
0000
0010
0000
0100
0000
1000
0001
,
1000
0000
0010
0000
0100
0000
0001
0000
1000
0000
0001
0000
0010
0001
0010
0100
,
1000
0000
0001
0000
0100
0000
0010
0000
0100
0000
0001
0000
1000
0000
0001
0100
,
0010
0000
1000
0000
0100
0000
1000
0000
0010
0000
0100
0000
0001
1000
0100
1000
,
0001
0100
0001
0100
0010
1000
0010
0100
0001
0100
0001
1000
0010
0100
0001
1000
,
0001
1000
0100
1000
0001
0010
0001
0010
0100
1000
0001
1000
0100
0010
0100
1000
,
0001
0000
0100
0000
0001
0000
0100
0000
0010
0000
1000
0000
0001
0000
0010
0100
,
1000
0000
0001
0000
0100
0000
0010
0000
0100
0000
0001
0000
1000
0100
1000
0001
,
0010
0000
0100
0000
1000
0000
0001
0000
1000
0000
0010
0000
0100
0000
0001
1000
,
0100
0000
1000
0000
0010
0000
0100
0000
0001
0000
0010
0000
0100
1000
0001
0100
,
0001
0000
0100
0000
0010
0000
1000
0000
0100
0000
0010
0000
0001
0000
1000
0001
,
1000
0000
0010
0000
0100
0000
0001
0000
0010
0000
0100
0000
1000
0001
1000
0001
,
0100
0010
0100
0001
1000
0001
1000
0010
0100
0001
0100
0010
1000
0001
1000
0001
,
1000
0100
1000
0001
0010
0001
1000
0100
0010
0100
1000
0001
0010
0100
1000
0001
,
2000
3000
0000
2020
3030
0000
0220
0330
,
0202
0303
0000
0022
0033
0000
0220
0330
,
2002
3003
0000
2020
3030
0000
0220
0330
,
0202
0000
0303
0000
0000
0000
2002
0000
3003
0000
0000
0000
1000
0001
0100
0000
,
0220
0330
0000
0202
0303
0000
0022
0033
,
0220
0330
0000
2200
3300
0000
2002
3003
,
0222
0333
0000
0222
0333
0000
2202
3303
,
2202
3303
0000
2220
3330
0000
1000
0001
,
0202
0303
0000
0101
0200
0300
0110
0000
,
0220
0330
0000
1010
2000
3000
1100
0000
,
2200
3300
0000
0110
0020
0030
0011
0000
,
2002
0000
3003
0000
0000
0000
0110
0000
0200
0000
0300
0000
0001
1000
0010
0000
,
2000
3000
0000
1010
0020
0030
0110
0000
,
0202
0303
0000
0011
0020
0030
0110
0000
,
2002
3003
0000
1100
0200
0300
1100
0000
,
2002
0000
3003
0000
0000
0000
0101
0000
0200
0000
0300
0000
0001
0100
0010
0000
,
1000
0000
0100
0000
0010
0000
0001
0000
0100
0000
0010
0000
1000
0000
0001
0010
,
0100
0000
1000
0000
0010
0000
0100
0000
0001
0000
0010
0000
0100
1000
0001
0100
,
0010
0000
0100
0000
0001
0000
0010
0000
0100
0000
1000
0000
0010
0000
1000
0001
,
0100
0000
0001
0000
1000
0000
0100
0000
0010
0000
0001
0000
0100
0010
0100
0001
,
1000
0000
0001
0000
0010
0000
0100
0000
1000
0000
0010
0000
0100
0000
0001
1000
,
0100
0000
0010
0000
0001
0000
0100
0000
0010
0000
1000
0000
0100
0010
0001
1000
,
0001
0100
0001
1000
0010
0100
0010
1000
0001
0100
0001
1000
0100
1000
0001
0100
,
0010
1000
0001
0010
0100
1000
0001
0010
0001
1000
0100
0010
0001
1000
0010
0100
,
0001
0000
0100
0000
0010
0000
0100
0000
0001
0000
1000
0000
0100
0000
1000
0001
,
0010
0000
0100
0000
1000
0000
0010
0000
0100
0000
0001
0000
1000
0100
0010
0001
,
0100
0000
0010
0000
0100
0000
0001
0000
0010
0000
0100
0000
1000
0000
0001
0100
,
0001
0000
1000
0000
0001
0000
0010
0000
0100
0000
1000
0000
0010
0100
0010
1000
,
0001
0000
1000
0000
0100
0000
0010
0000
0100
0000
1000
0000
0001
0000
0100
0010
,
0100
0000
0001
0000
0010
0000
0100
0000
1000
0000
0001
0000
0100
0001
1000
0001
,
0010
0100
1000
0001
0100
0001
1000
0010
0100
0010
1000
0001
1000
0100
0010
0001
,
1000
0100
1000
0001
0100
0010
1000
0001
0100
0010
0100
0001
1000
0100
0010
0001
,
1000
0000
0001
0000
1000
0100
0010
0000
,
0001
0000
0100
0000
0020
0000
0000
0030
,
2220
3330
0000
0222
0333
0000
2202
3303
,
2222
3333
0000
0000
0000
0000
1000
0000
,
2222
3333
0001
0000
0100
0000
0010
1000
,
0001
0010
0100
0000
1000
0000
0000
0000
,
2202
3303
0000
0222
0333
0000
2202
3303
,
2222
0000
0000
0000
3333
0000
0000
0000
2222
0000
0000
0000
3333
0000
0000
0000
2200
3300
0000
0000
0022
0033
0000
0000
2200
3300
0000
0000
0022
0033
0000
0000
,
0000
0000
0000
0000
,
0000
0000
0000
0000
,
0000
0000
0000
0000
,
0000
0000
0000
0000
,
0000
0000
0000
0000
,
0000
0000
0000
0000
,
0000
0000
0000
0000
,
0000
0000
0000
0000
,
1000
0010
0100
0001
0100
0010
1000
0001
1000
0001
0100
0010
0100
0001
1000
0001
,
1000
0100
0010
0100
1000
0001
0010
0100
1000
0001
0010
0001
1000
0100
0010
0001
,
1000
0001
0100
0010
0100
0001
1000
0001
1000
0010
0100
0001
0100
0010
1000
0001
,
1000
0100
0010
0100
1000
0001
0010
0100
1000
0001
0010
0001
1000
0000
0001
0000
,
1000
0010
1000
0001
0100
0010
0100
0001
1000
0010
1000
0001
0100
0001
1000
0001
,
1000
0100
1000
0001
0010
0100
0010
0001
1000
0100
0010
0001
1000
0100
1000
0001
,
1000
0001
0100
0010
0100
0001
1000
0001
0100
0010
1000
0001
1000
0010
0100
0001
,
1000
0001
0010
0100
0010
0001
1000
0001
0010
0100
1000
0001
1000
0100
0010
0001
,
1000
0001
0100
0010
0100
0001
1000
0010
0100
0010
0100
0001
1000
0010
0100
0001
,
1000
0100
1000
0001
0010
0100
1000
0001
1000
0100
0010
0100
1000
0001
0010
0100
,
1000
0001
1000
0010
0100
0001
1000
0001
0100
0010
1000
0001
1000
0010
0100
0010
,
1000
0001
0010
0100
0010
0001
1000
0100
0010
0001
1000
0100
1000
0000
0001
0000
,
1000
0001
0100
0010
1000
0001
1000
0010
0100
0010
1000
0001
1000
0001
0100
0010
,
1000
0001
0010
0100
0010
0001
0010
0100
1000
0001
0010
0001
1000
0100
0010
0001
,
1000
0001
1000
0010
0100
0010
1000
0001
0100
0010
0100
0010
1000
0001
0100
0001
,
1000
0001
0010
0100
1000
0001
1000
0100
0010
0001
0010
0100
1000
0001
1000
0001
,
0100
0010
1000
0001
1000
0010
0100
0001
1000
0100
0010
0100
1000
0001
0010
0100
,
1000
0001
0100
0010
1000
0010
0100
0001
1000
0100
0010
0100
1000
0001
0010
0100
,
1000
0010
0100
0010
1000
0001
0100
0001
1000
0001
0010
0100
0010
0001
1000
0100
,
1000
0001
0100
0010
1000
0010
0100
0001
1000
0100
0010
0001
1000
0000
0001
0000
,
0100
0010
0100
0001
1000
0010
0100
0001
1000
0100
1000
0001
0010
0100
1000
0001
,
1000
0010
0100
0001
1000
0010
1000
0001
0010
0100
1000
0001
0010
0001
1000
0100
,
1000
0001
0100
0010
1000
0010
0100
0001
1000
0100
0010
0100
1000
0001
0010
0100
,
1000
0001
0100
0010
0100
0001
1000
0010
1000
0001
0010
0100
0010
0001
1000
0100
,
1000
0001
0100
0010
0100
0001
1000
0010
1000
0001
0010
0100
1000
0001
0010
0001
,
1000
0010
0100
0010
1000
0001
0100
0001
1000
0001
0010
0100
0010
0001
1000
0100
,
1000
0001
0100
0010
1000
0010
0100
0001
1000
0100
0010
0100
1000
0001
0010
0100
,
1000
0001
0100
0010
0100
0001
1000
0001
1000
0100
0010
0100
1000
0000
0001
0000
,
1000
0010
0100
0010
1000
0001
0100
0010
1000
0001
0010
0100
1000
0001
0010
0001
,
1000
0010
0100
0001
0100
0010
1000
0001
1000
0100
0010
0100
1000
0001
0010
0100
,
1000
0001
0100
0010
0100
0001
1000
0010
1000
0001
0010
0001
1000
0100
0010
0100
,
1000
0001
1000
0010
0100
0010
1000
0001
1000
0100
0010
0100
1000
0001
0010
0100
,
2000
0000
3000
0000
,
0000
0000
0000
0000
,
0000
0000
0000
0000
,
0000
0000
0000
0000
,
MMMM
0000
0000
0000
;

//---------------dance-single - Rynker----------------
#NOTES:
     dance-single:
     Rynker:
     Hard:
     15:
     1.000,1.000,0.724,1.000,0.896,1002.000,108.000,211.000,74.000,19.000:
2002
3003
0000
0202
0303
0000
2002
3003
,
2200
3300
0000
0220
0330
0000
0022
0033
,
0220
0330
0000
2002
3003
0000
0202
0303
,
0220
0330
0000
2002
3003
0000
2020
3030
,
0220
0330
0000
0202
0303
0000
0022
0033
,
0220
0330
0000
2200
3300
0000
2002
3003
,
0202
0303
0000
0220
0330
0000
2020
3030
,
2200
3300
0000
0220
0330
0000
0022
0033
,
2002
0000
3MM3
0000
,
0MM0
0000
0MM0
0000
,
0000
0000
0000
0000
,
0000
0000
0000
0000
,
0000
0000
0000
0000
0M00
0M00
0M00
0M00
,
0M00
0000
0000
0M00
0000
0000
0M00
0000
0000
0M00
0000
0000
0M00
0000
0M00
0000
0M00
0000
0M00
0000
0M00
0000
0M00
0000
,
0M00
0000
0000
0000
0M00
0000
0000
0000
0M00
0000
0000
0000
0M00
0000
0000
0M00
0000
0000
0M00
0000
0000
0M00
0000
0000
0M00
0000
0000
0M00
0000
0000
0M00
0000
0000
0M00
0000
0000
0M00
0000
0M00
0000
0M00
0000
0M00
0000
0M00
0000
0M00
0000
,
0M00
0000
0000
0000
0000
0000
0000
0000
0M00
0000
0000
0000
0000
0000
0000
0000
0M00
0000
0000
0000
0000
0000
0000
0000
0M00
0000
0000
0000
0000
0000
0000
0000
0M00
0000
0000
0000
0000
0000
0000
0000
0M00
0000
0000
0000
0000
0000
0000
0000
0M00
0000
0000
0000
0000
0000
0M00
0000
0000
0000
0000
0000
0M00
0000
0000
0000
0000
0000
0M00
0000
0000
0000
0000
0000
0M00
0000
0000
0000
0000
0000
0M00
0000
0000
0000
0000
0000
0M00
0000
0000
0000
0000
0000
0M00
0000
0000
0000
0000
0000
0M00
0000
0000
0000
0000
0000
0M00
0000
0000
0000
0000
0000
0M00
0000
0000
0000
0000
0000
0M00
0000
0000
0000
0000
0000
0M00
0000
0000
0000
0000
0000
0M00
0000
0000
0000
0000
0000
0M00
0000
0000
0000
0000
0000
0M00
0000
0000
0000
0000
0000
0M00
0000
0000
0000
0000
0000
0M00
0000
0000
0000
0000
0000
0M00
0000
0000
0000
0000
0000
0M00
0000
0000
0000
0000
0000
0M00
0000
0000
0000
0000
0000
0M00
0000
0000
0000
0000
0000
0M00
0000
0000
0000
0000
0000
0M00
0000
0000
0000
0000
0000
,
1M00
1000
0001
0010
0010
0100
1000
0001
,
0100
0100
0010
1000
1000
0001
0010
0100
,
1000
1000
0001
0100
0100
0001
1000
0001
,
0010
0000
0010
0000
0100
0000
1000
0000
1000
0000
0010
0000
0100
0001
0100
0000
,
0001
0001
0010
0100
0100
1000
0001
0100
,
0010
0010
1000
0100
0100
1000
0001
1000
,
0002
0100
1003
0002
0100
1003
0002
0100
,
1003
0000
1001
0000
0001
0100
0010
0000
,
2020
3030
0000
0202
0303
0000
2002
3003
,
2200
3300
0000
0220
0330
0000
0022
0033
,
2002
3003
0000
2020
3030
0000
0220
0330
,
0202
0000
0303
0000
0000
0000
2002
0000
3003
0000
0000
0000
1000
0010
0100
0000
,
0220
0330
0000
0202
0303
0000
0022
0033
,
0220
0330
0000
2200
3300
0000
2002
3003
,
0222
0333
0000
0222
0333
0000
2202
3303
,
2202
0000
3303
0000
0000
0000
2220
0000
3330
0000
0000
0000
1000
0001
0100
0000
,
0001
0001
0010
0100
0100
1000
0010
0100
,
0001
0001
1000
0100
0100
0010
0001
0100
,
0010
0010
1000
0100
0100
0010
0001
0100
,
0010
0000
0010
0000
1000
0000
0001
0000
0001
0000
0010
0000
0100
1000
0001
0000
,
1000
1000
0010
0100
0100
0001
0010
0100
,
1000
1000
0010
0100
0100
0001
0010
0100
,
2000
0100
3001
2000
0100
3001
2000
0100
,
3004
0003
0M00
0000
0M00
0000
0000
0000
,
1000
0000
0001
0000
0100
0000
0010
0000
1000
0000
0001
0000
1000
0000
0010
0100
,
0001
0000
1000
0000
0001
0000
0010
0000
0100
0000
1000
0000
0001
0100
0001
0100
,
0010
0000
1000
0000
0001
0000
1000
0000
0100
0000
0010
0000
0100
0000
1000
0001
,
1000
0000
0010
0000
0100
0000
0001
0000
1000
0000
0001
0000
0010
0001
0010
0100
,
1000
0000
0001
0000
0100
0000
0010
0000
0100
0000
0001
0000
1000
0000
0001
0100
,
0010
0000
1000
0000
0100
0000
1000
0000
0010
0000
0100
0000
0001
1000
0100
1000
,
0001
0000
1000
0010
1000
0000
0001
0000
0100
0001
1000
0000
0001
0000
0010
0100
,
1000
0000
0001
0010
0001
0000
1000
0000
0001
0100
0001
1000
0100
0010
0001
1000
,
0010
0000
0100
0000
0001
0000
0100
0000
0010
0000
1000
0000
0001
0000
0010
0100
,
1000
0000
0001
0000
0100
0000
0010
0000
0100
0000
0001
0000
1000
0100
1000
0001
,
0010
0000
0100
0000
1000
0000
0001
0000
1000
0000
0010
0000
0100
0000
0001
1000
,
0100
0000
1000
0000
0010
0000
0100
0000
0001
0000
0010
0000
0100
1000
0001
0100
,
0001
0000
0100
0000
0010
0000
1000
0000
0100
0000
0010
0000
0001
0000
1000
0001
,
1000
0000
0010
0000
0100
0000
0001
0000
0010
0000
0100
0000
1000
0001
1000
0001
,
0100
0000
0001
1000
0100
0000
0010
0000
0001
0010
0100
0000
1000
0100
0010
0001
,
1000
0001
0100
0000
0010
1000
0010
0000
0100
0001
1000
0100
0010
0001
1000
0001
,
2000
3000
0000
2020
3030
0000
0220
0330
,
0202
0303
0000
0022
0033
0000
0220
0330
,
2002
3003
0000
2020
3030
0000
0220
0330
,
0202
0000
0303
0000
0000
0000
2002
0000
3003
0000
0000
0000
1000
0001
0100
0000
,
0220
0330
0000
0202
0303
0000
0022
0033
,
0220
0330
0000
2200
3300
0000
2002
3003
,
0222
0333
0000
0222
0333
0000
2202
3303
,
2202
3303
0000
2220
3330
0000
1000
0001
,
0202
0303
0000
0101
0200
0300
0110
0000
,
0220
0330
0000
1010
2000
3000
1100
0000
,
2200
3300
0000
2001
3001
0000
0011
0000
,
2002
0000
3003
0000
0000
0000
0101
0000
0200
0000
0300
0000
0001
1000
0010
0000
,
2000
3000
0000
1010
2000
3000
0110
0000
,
0202
0303
0000
0011
0002
0003
1010
0000
,
2002
3003
0000
1100
0200
0300
1100
0000
,
2002
0000
3003
0000
0000
0000
0101
0000
0200
0000
0300
0000
0001
0100
0010
0000
,
1000
0000
0100
0000
0010
0000
0001
0000
0100
0000
0010
0000
1000
0000
0001
0010
,
0100
0000
1000
0000
0010
0000
0100
0000
0001
0000
0010
0000
0100
1000
0001
0100
,
0010
0000
0100
0000
0001
0000
0010
0000
0100
0000
1000
0000
0010
0000
1000
0001
,
0100
0000
0001
0000
1000
0000
0100
0000
0010
0000
0001
0000
0100
0010
0100
0001
,
1000
0000
0001
0000
0010
0000
0100
0000
1000
0000
0010
0000
0100
0000
0001
1000
,
0100
0000
0010
0000
0001
0000
0100
0000
0010
0000
1000
0000
0100
0010
0001
1000
,
0001
0000
0010
0000
0100
0000
1000
0000
0010
0000
0100
0000
0001
0000
1000
0100
,
1000
0000
0001
0000
0010
0000
0100
0000
1000
0000
0010
0000
1000
0001
0100
0001
,
1000
0000
0100
0000
0010
0000
0001
0010
0100
1000
0100
1000
0001
0000
1000
0000
,
1001
0000
0001
0000
0100
0000
0010
1000
0001
0100
0010
0100
0001
0000
1000
0000
,
1001
0000
0001
0000
0010
0000
0100
1000
0100
0010
0001
1000
0001
0000
1000
0000
,
1001
0000
0001
0000
0100
0000
0010
1000
0010
0100
0001
1000
0001
0000
1000
0000
,
1001
0000
0001
0000
1000
0000
0100
0010
0001
0010
0100
1000
0001
0000
1000
0000
,
1001
0000
0001
0000
0100
0010
0100
0001
1000
0001
0100
0000
0010
0000
1000
0000
,
1001
0000
0001
0000
1000
0000
0100
0010
0001
0010
0100
1000
0001
0000
1000
0000
,
1001
0000
0001
0000
0100
0000
0010
1000
0010
0100
0001
1000
0001
0000
0000
0000
,
2001
0000
0000
3000
0001
0000
0000
0000
1000
0000
0100
0000
0010
0000
0000
0000
,
0001
0000
0100
0000
0020
0000
0000
0030
,
2220
3330
0000
0222
0333
0000
2202
3303
,
2222
3333
0000
0000
0000
0000
1000
0000
,
2002
3003
0001
0000
0100
0000
0010
1000
,
0001
0010
0100
0000
1000
0000
0000
0000
,
2202
3303
0000
0222
0333
0000
2202
3303
,
2222
3333
2222
3333
1000
0001
0100
0001
,
0000
0000
0000
0000
,
0000
0000
0000
0000
,
0000
0000
0000
0000
,
0000
0000
0000
0000
,
0000
0000
0000
0000
,
0000
0000
0000
0000
,
0000
0000
0000
0000
,
0000
0000
0000
0000
,
0001
1000
0100
0010
0001
0010
0100
1000
0001
0000
1000
0000
0001
0000
0100
0000
,
0010
0100
0001
1000
0001
0100
0010
1000
0001
0000
1000
0000
0100
0000
0010
0000
,
0001
0010
0100
1000
0001
1000
0100
0010
0001
0000
1000
0000
0001
0000
0100
0000
,
0010
0100
0010
1000
0001
1000
0010
0100
0001
0000
1000
0000
0100
0000
0010
0000
,
0001
0010
0100
1000
0100
0010
0001
1000
0001
0000
0100
0000
0010
0000
0100
0000
,
0001
1000
0010
0100
0001
1000
0001
0100
0010
0000
0100
0000
0001
0000
1000
0000
,
0100
0010
0100
0000
0010
0000
0001
0010
0001
0000
1000
0000
0001
1000
0001
0000
,
1000
0010
1000
0000
0010
0000
0100
0001
0100
0000
0001
0000
1000
0100
1000
0000
,
0100
0010
0001
0010
0100
1000
0001
1000
0001
0000
0100
0000
0010
0000
0100
0000
,
0001
1000
0010
0100
0001
1000
0001
1000
0010
0000
0100
0000
0001
0000
1000
0000
,
0100
0010
0001
0010
0100
1000
0100
0010
0001
0000
1000
0000
0001
0000
0100
0000
,
0010
0100
0001
1000
0001
0100
0010
0100
0001
0000
1000
0000
0100
0000
0010
0000
,
0001
0010
0100
1000
0100
0010
0001
1000
0001
0000
0100
0000
0010
0000
0100
0000
,
0001
1000
0001
0100
0010
0100
0001
1000
0010
0000
0100
0000
0001
0000
1000
0000
,
0100
0010
0100
0000
0010
0000
0001
1000
0001
0000
0100
0000
0010
1000
0010
0000
,
1000
0001
1000
0000
0001
0000
0010
0001
0010
0000
0100
0000
1000
0100
1000
0000
,
0100
0010
0001
0010
0100
1000
0001
1000
0001
0000
0100
0000
0010
0000
0100
0000
,
0001
1000
0010
0100
0001
1000
0001
1000
0010
0000
0100
0000
0001
0000
1000
0000
,
0100
0010
0001
0010
0100
1000
0100
0010
0001
0000
1000
0000
0001
0000
0100
0000
,
0010
0100
0001
1000
0010
1000
0001
0100
0001
0000
1000
0000
0100
0000
0010
0000
,
0001
0010
0100
1000
0001
1000
0100
0010
0001
0000
1000
0000
0010
0000
0100
0000
,
0001
0100
0010
1000
0010
0100
0001
1000
0001
0000
1000
0000
0100
0000
0010
0000
,
0001
1000
0001
0000
1000
0000
0100
1000
0100
0000
0010
0000
0001
0010
0001
0000
,
1000
0001
1000
0000
0001
0000
0100
0001
0100
0000
0010
0000
1000
0010
1000
0000
,
0001
0100
0010
0100
0001
1000
0010
0100
0001
1000
0001
0100
0010
0100
0001
1000
,
0001
1000
0100
0010
0100
1000
0001
0010
0100
1000
0001
0010
0001
1000
0100
0010
,
0001
1000
0001
0100
0010
0100
0001
1000
0010
0100
0001
0100
0010
1000
0001
0100
,
0001
1000
0100
0010
0001
0010
0100
1000
0001
0010
0100
0010
0001
0000
0100
0000
,
0001
1000
0001
0100
0010
0100
0001
1000
0010
0100
0001
0100
0010
1000
0010
0100
,
0001
1000
0100
0010
0001
0010
0100
1000
0001
0010
0001
1000
0100
1000
0001
0010
,
0100
1000
0001
0100
0010
0100
0001
1000
0010
0100
0010
1000
0001
0100
0010
0100
,
0001
1000
0100
0010
0001
0010
0100
1000
0001
0010
0100
1000
0100
0010
0001
1000
,
0002
0000
0003
0000
,
0000
0000
0000
0000
,
0000
0000
0000
0000
,
0000
0000
0000
0000
,
MMMM
0000
0000
0000
;
