#TITLE:Daisuki;
#SUBTITLE:Tunna Kanojyo Derena Kanojyo OP theme;
#ARTIST:Sakakibara Yui;
#TITLETRANSLIT:;
#SUBTITLETRANSLIT:;
#ARTISTTRANSLIT:;
#CREDIT:;
#BANNER:Daisuki.png;
#BACKGROUND:Daisuki.jpg;
#LYRICSPATH:;
#CDTITLE:cdtitle.png;
#MUSIC:Daisuki.mp3;
#OFFSET:1.310;
#SAMPLESTART:19.545;
#SAMPLELENGTH:12.000;
#SELECTABLE:YES;
#BPMS:0.000=155.000;
#STOPS:;
#BGCHANGES:3.333=Daisuki.avi=1.000=1=0=1,
99999=-nosongbg-=1.000=0=0=0 // don't automatically add -songbackground-
;
// cache tags:
#FIRSTBEAT:4.000;
#LASTBEAT:231.000;
#SONGFILENAME:Songs/alice 4th complete step/Daisuki/Daisuki.sm;
#HASMUSIC:1;
#HASBANNER:1;
#MUSICLENGTH:91.350;
// end cache tags

//---------------dance-single - ----------------
#NOTES:
     dance-single:
     :
     Hard:
     7:
     0.575,0.662,0.438,0.208,0.000,309.000,40.000,19.000,0.000,0.000:
0000
0000
0000
0000
,
0000
0000
0000
0000
0000
0000
0000
1001
,
0000
0001
0100
0000
1001
0000
0000
1001
,
0000
1000
0100
0000
1001
0000
0000
1010
,
0000
0100
0001
0000
1001
0000
0000
0011
,
0000
0100
1000
0000
0010
0100
0010
1001
,
0000
1000
0100
0000
1000
0010
0100
0001
,
0000
1000
1000
0000
0110
0000
0010
0100
,
0000
0001
0010
0000
0001
0010
0001
0100
,
0000
0010
0020
0000
1030
0100
0001
0100
,
1000
0000
1000
0010
0100
0001
1000
0020
,
0000
0130
1000
0100
0000
0010
0001
0010
,
1000
0000
0001
0100
0010
1000
0001
0200
,
0000
1300
0100
1000
0000
0001
0010
0100
,
0001
0000
1000
0100
0010
0001
1000
0010
,
0000
0100
0000
0010
0000
1000
0001
0000
,
0200
0000
0310
1000
0001
0010
0100
1000
,
0000
0100
0010
0000
0001
1000
0001
0100
,
0001
0000
0001
0010
0100
1000
0001
0020
,
0000
0130
0001
0100
0000
1000
0010
1000
,
0100
0000
1000
0010
0100
0001
1000
0200
,
0000
0301
0100
0001
0000
1000
0010
0100
,
1000
0000
0001
0100
0010
1000
0001
0010
,
0000
0100
0000
0010
0000
0001
1000
0000
,
0110
0001
0000
1000
0000
0100
0010
0000
,
0100
1000
0001
0100
0020
0000
0230
0300
,
1001
0000
0000
0100
1100
0000
0000
0000
,
1000
0100
0010
0001
0010
0100
1000
0010
,
0100
0000
0000
0001
0101
0000
0000
0000
,
0001
0010
0100
1000
0100
0010
0001
0100
,
0010
1000
0100
0001
,
0100
0000
0100
1000
0010
0000
0100
0000
,
1001
0000
0100
0010
0100
0001
1000
0000
,
0202
0303
0000
2200
3300
0000
2002
3003
,
0220
0330
0000
0000
0001
1000
0010
0001
,
0000
0010
0110
0000
1000
0001
0010
1000
,
0000
0010
0110
0000
1000
0100
0010
0001
,
0000
0100
1000
0000
0001
0100
0010
1000
,
0000
0100
0001
0000
1000
0010
0100
0000
,
0110
0000
0110
0000
1000
0001
0100
0010
,
0000
1000
1100
0000
0001
0010
0100
0010
,
0000
0001
1000
0100
1000
0001
0100
0010
,
0000
1000
1001
0000
1000
0001
0010
1000
,
0000
0010
0110
0000
0001
1000
0010
0001
,
0000
0010
0110
0000
0001
0100
0010
1000
,
0000
0100
0001
0000
1000
0010
0100
0001
,
0000
1000
0010
0000
0100
0001
0010
0000
,
1001
0000
1001
0000
0100
0010
1000
0001
,
0000
1000
1100
0000
0001
0010
0100
1000
,
0000
0010
0001
0010
0100
0001
1000
0100
,
0000
1000
1001
0000
0100
0010
0100
1100
,
0000
0010
0100
0000
1001
0000
0000
0101
,
0000
0010
0100
0000
1001
0000
0100
0010
,
0000
1000
0100
1000
0001
0100
0001
0010
,
0000
0100
0220
0000
0000
0000
0330
0000
,
1001
0000
0000
1100
0000
0000
1010
0101
,
0000
0110
0000
0010
0001
0100
0010
2000
,
0000
0000
0000
0000
0000
3000
0000
0000
;

//---------------dance-single - Copied from----------------
#NOTES:
     dance-single:
     Copied from:
     Challenge:
     13:
     1.000,1.000,1.000,1.000,0.487,453.000,177.000,153.000,0.000,45.000:
0000
0000
0000
0000
,
1000
0010
0001
0010
1000
0001
0000
0000
0100
0000
0110
0000
0110
0000
2002
0000
,
0003
0000
0002
0000
0023
0000
0030
0000
0022
0000
0000
0033
3100
0000
2002
0000
,
3000
0000
2000
0000
3200
0000
0300
0000
2200
0000
0000
3303
0010
0000
2002
0000
,
0003
0000
0002
0000
0203
0000
0300
0000
0220
0000
0000
3330
0010
0000
2002
0000
,
3000
0000
2000
0000
3020
0000
0000
0030
0100
0000
0013
0000
1010
0000
1201
0000
,
0000
0000
1000
0000
0322
0000
0000
0033
1001
0000
0100
0000
0010
0000
1021
0000
,
0000
0000
0100
0000
2032
0000
0000
3003
0101
0000
1000
0000
0110
0000
1001
0000
,
0000
0000
0101
0000
1010
0000
0100
0000
1001
0000
0100
0000
0022
0033
2200
0000
,
3300
0000
0202
0303
2002
0000
3003
0000
0101
1000
0010
0100
0001
0001
0010
0000
,
1100
0000
0000
0000
1001
0010
0001
0000
0100
1000
0010
0100
0011
1000
0100
0000
,
0010
0000
1100
0000
1001
0100
0010
0000
0100
1000
0001
0100
0011
1000
0100
0000
,
1001
0000
0000
0000
0101
0010
1000
0000
0010
0100
0001
0010
1100
0001
0020
0000
,
2030
0000
3010
0200
0000
0301
2020
0000
3030
0000
0202
0000
0303
0000
2002
0000
,
0000
3003
0100
0010
1100
0000
0001
0000
1000
0100
1000
0011
0100
0000
2020
0000
,
3030
2002
3003
0102
1000
0010
1100
0013
,
1000
0000
0100
0000
0011
1000
0001
0010
0100
0000
0001
0000
0110
0000
2002
0000
,
3003
0000
1100
0000
2012
0000
0000
0000
3103
0000
0100
0010
1000
0001
0100
0000
,
0011
0000
0000
0000
1100
0001
0010
0000
0101
1000
0010
0100
0001
1000
0020
0000
,
0030
0000
0100
0000
1001
0001
0020
0000
0030
0000
0100
1000
0011
1000
0011
0000
,
1100
0000
0000
0000
0011
1000
0100
0000
1010
0001
0100
0010
1000
0001
0200
0000
,
0300
0000
0010
0000
1001
1000
0012
0000
0000
0003
1100
0000
0010
0000
1010
0000
,
0101
1000
0001
1000
0010
0100
0001
0000
1000
0000
1010
0000
0100
0000
0220
0330
,
0000
0000
2002
3003
0000
0000
0120
0000
1000
0000
0001
0030
1010
0000
0110
0000
,
0101
1000
0011
1001
0000
1100
1001
0010
,
2000
0000
3011
0200
0000
1300
0020
0000
2032
0000
0000
3003
2220
0000
0000
3330
,
0102
0000
0000
0000
0000
0000
1000
1000
1103
0000
0010
0000
0100
0000
0001
0000
,
1000
0000
0001
1000
0010
0000
1100
0000
1001
0000
0100
0000
0011
0000
1000
0000
,
2101
0000
0001
0100
3110
1000
0001
0010
,
0101
0000
1000
0001
0100
0000
0011
0000
1001
0000
1010
0000
0100
0000
1001
0000
,
0022
0000
0133
0000
1010
0100
0010
0000
2200
0000
3301
0000
0010
0000
0110
0000
,
1001
0000
0001
1000
0010
0000
0101
0000
2020
0000
0000
3030
2002
0000
0000
3003
,
0101
0010
0000
0000
0100
0000
1000
0000
0011
0000
0100
0000
0001
0000
0010
0000
,
2002
0000
0100
0000
3103
0000
2020
0000
0100
0000
3031
0000
0202
0000
0010
0303
,
2002
3003
0000
0000
0000
0000
0000
0000
0000
0000
0000
0000
0000
0000
0000
0000
0000
0000
0000
0000
0000
0000
0000
0000
0000
0000
0000
0000
0000
0000
0000
0000
0010
0000
0000
0000
0000
0000
0000
0000
0001
0000
0000
0000
0000
0000
0000
0000
0100
0000
0000
0000
0000
0000
0000
0000
2020
0000
0000
0000
0000
0000
0000
0000
,
0000
3030
0100
0000
1010
0001
0010
0100
0001
0010
0100
1000
0001
0100
2020
0000
,
0000
3030
0100
0000
1010
0001
1000
0100
0010
1000
0100
0010
0001
0010
0202
0000
,
0000
0303
0010
0000
0101
1000
0010
0100
0001
0010
0001
1000
0100
0010
1002
0000
,
0010
0100
1023
0000
1000
1030
0101
1001
,
0220
0000
0000
0330
0220
0000
0000
0330
1000
0000
0100
0000
1001
0000
0011
0000
,
1000
0000
0000
0000
0000
0000
0000
0000
0101
0000
0000
0000
0000
0000
0000
0000
1020
0000
0000
0000
0000
0000
0000
0000
0130
0000
0000
0000
0000
0000
0000
0000
2000
3000
0000
0000
0200
0300
0000
0000
0020
0030
0000
0000
0002
0003
0000
0000
0020
0030
0000
0000
0000
0000
0000
0000
1200
0000
0000
0000
0000
0000
0000
0000
,
0000
0310
1001
0010
0100
1001
0010
0102
,
0000
1100
1013
0000
0101
1001
0010
0202
,
0000
0303
0010
0000
0101
1000
0100
0010
1000
0100
0010
0001
1100
0010
2002
0000
,
0000
3003
0010
0000
0101
1000
0001
0010
0100
0001
0010
0100
1001
0100
2020
0000
,
0000
3030
0100
0001
1010
0001
0100
0010
0001
1000
0110
1000
0001
0010
2100
0000
,
0001
0010
3201
0000
1010
0310
2002
3013
,
2002
0000
0000
3003
2112
0000
0000
3003
0101
0000
1010
0000
0100
0000
0022
0000
,
0033
0000
0000
0000
0000
0000
0000
0000
0100
0000
0000
0000
0000
0000
0000
0000
2010
0000
0000
0000
0000
0000
0000
0000
3100
0000
0000
0000
0000
0000
0000
0000
0002
0003
0000
0000
0020
0030
0000
0000
0200
0300
0000
0000
2000
3000
0000
0000
0200
0300
0000
0000
0000
0000
0000
0000
0021
0000
0000
0000
0000
0000
0000
0000
,
0000
0130
1001
0010
0101
0010
1100
1021
,
0000
0130
1001
0000
1010
1010
0011
0102
,
0000
0010
1100
0000
1010
0000
0103
2001
,
0000
0001
0110
0000
0101
0000
3110
1001
,
0000
0000
0100
0000
1010
0000
0100
0000
0010
0001
1000
0010
0100
0000
1001
0000
,
0000
1001
0112
2000
0000
0013
3110
0000
,
2020
0000
0000
0000
0000
0000
0000
0000
3030
0000
0000
0000
0000
0000
0000
0000
0000
0000
0000
0000
0000
0000
0000
0000
2020
0000
0000
0000
0000
0000
0000
0000
3030
0000
0000
0000
0100
0000
0000
0000
0001
0000
0000
0000
0100
0000
0000
0000
2020
3030
0000
0000
0000
0000
0000
0000
2002
3003
0000
0000
0000
0000
0000
0000
,
0000
0000
0022
0000
0033
0000
0201
0000
1302
0000
0023
0030
2100
0000
3022
0000
,
0000
0000
0000
0033
;

//---------------dance-single - ----------------
#NOTES:
     dance-single:
     :
     Medium:
     5:
     0.475,0.436,0.317,0.088,0.000,267.000,29.000,8.000,0.000,0.000:
0000
0000
0000
0000
,
0000
0000
0000
0000
0000
0000
0000
1001
,
0000
0010
0100
0000
0010
0000
0000
1001
,
0000
0100
0010
0000
0100
0000
0000
0101
,
0000
1000
0001
0000
0010
0000
0000
1100
,
0000
0001
1000
0000
0010
0100
0001
1000
,
0000
1000
0100
0000
1000
0001
0100
0010
,
0000
0100
0001
0000
0010
0000
0100
1100
,
0000
1000
0001
0100
0010
1000
0001
0020
,
0000
0100
0130
0000
0000
0000
0000
0000
,
1100
0001
0101
1000
,
0010
0100
0001
1000
,
0011
1000
1010
0001
,
0100
0000
0010
1000
0000
0100
0000
0010
,
0000
0000
1001
0000
0001
0010
0100
1000
,
0000
0010
0000
0001
0000
0010
0100
0000
,
1001
1000
1100
1000
,
0010
0100
0001
0100
0010
1000
0100
0000
,
1000
0011
0001
1010
,
0100
0000
0010
0000
1000
0100
0001
0000
,
1000
1100
0001
0101
,
1000
0000
0001
0010
0000
1000
0000
0010
,
0100
0000
1001
0000
1000
0010
0100
0001
,
0000
0010
0000
0002
0000
0000
0003
0000
,
1000
0001
0100
0001
0000
0100
0010
0000
,
1000
0100
0001
0100
1000
0000
0010
0000
,
0200
0000
0000
0001
0301
0000
0000
0000
,
1000
0001
0010
0100
,
2000
0000
0000
0010
3010
0000
0000
0000
,
0001
1000
0010
0100
,
0001
1001
0100
0010
,
1000
0100
0010
0100
1000
0000
0001
0000
,
0101
0000
0001
0010
0100
0000
0010
0000
,
1000
0001
0100
0001
1000
0100
1000
0000
,
0010
0000
0000
0000
0100
0010
1000
0001
,
0000
0000
0000
0000
0010
0100
1000
0001
,
0000
0000
0000
0000
0001
0100
0010
1000
,
0000
0100
0010
0000
1000
0010
0100
0001
,
0000
0010
0100
0000
1000
0001
0100
0000
,
1001
0000
0110
0000
1000
0100
0001
0100
,
0000
1000
0020
0000
0100
0130
0000
0002
,
0000
0003
1000
0000
0010
0000
0100
1001
,
0000
0001
0010
0000
0100
1000
0001
0010
,
0000
0000
0000
0000
0100
0001
1000
0010
,
0000
0000
0000
0000
0100
1000
0100
0001
,
0000
0010
0100
0000
1000
0100
1000
0010
,
0000
0001
0100
0000
1000
0001
0010
0000
,
0110
0000
0110
0000
1000
0001
0100
0010
,
0000
0100
0002
0000
1000
1003
0000
0020
,
0000
0130
0001
0100
1000
0100
0001
0010
,
0000
0100
0110
0000
1000
0001
0001
0100
,
0000
0001
1000
0000
0010
0000
0000
0110
,
0000
1000
0001
0000
0010
0000
0000
1100
,
0000
0100
1000
0000
0100
0010
0001
0010
,
0000
0001
0100
0000
1000
0010
0010
0000
,
0101
0000
0000
1100
0000
0000
0001
0010
,
0000
0100
0000
0100
1000
0010
0100
0001
;

//---------------dance-single - ----------------
#NOTES:
     dance-single:
     :
     Easy:
     4:
     0.292,0.343,0.219,0.099,0.000,158.000,20.000,9.000,0.000,0.000:
0000
0000
0000
0000
,
0000
0000
0000
0000
0000
0000
0000
1001
,
0000
0000
0000
0000
0100
0000
0000
0001
,
0000
0000
0000
0000
0100
0000
0000
1001
,
0000
0000
0000
0000
0010
0000
0000
0001
,
0000
0000
0000
0000
0010
0000
0000
1001
,
0000
0000
0010
0000
0100
0000
0000
1001
,
0000
0000
0100
0000
0010
0000
0000
1000
,
0000
0000
0100
0000
1000
0000
0000
0101
,
0000
1000
0020
0030
,
1000
0100
1000
0100
,
0000
1000
0000
0010
,
0001
0100
0001
0100
,
0010
0000
1000
0000
0000
0001
0000
1000
,
0000
0000
0010
0000
0100
0000
0000
1000
,
0000
0100
0000
0010
0000
0000
0000
0000
,
0010
0001
0100
0010
,
1000
0002
0000
0003
,
0001
0100
0001
0100
,
0000
0001
0000
0010
,
1000
0100
1000
0001
,
0000
0010
0000
0001
0000
1000
0000
0010
,
0000
0000
0100
0000
0010
0000
0000
1000
,
0000
0001
0000
0010
0000
0000
0000
0000
,
1100
0000
0000
0101
0000
0000
2002
0000
,
0000
3003
0010
0100
,
0010
0000
1000
0000
,
1000
0000
0001
0000
,
0010
0000
0001
0000
,
0001
0000
0100
0000
,
0010
1000
0001
1000
,
0100
0000
0010
0000
,
1000
0001
0100
0001
,
0010
0000
0000
0100
0000
0000
0010
0000
,
0100
0000
0000
0000
0000
0000
0000
1001
,
0000
0000
0100
0000
0010
0000
0000
1001
,
0000
0000
0100
0000
0010
0000
0000
0101
,
0000
0000
0010
0000
1000
0000
0000
1100
,
0000
0010
0001
0100
,
0001
1000
0010
0100
,
0010
0000
1000
0000
0002
0000
0000
1003
,
0000
0110
0001
1000
,
0000
0000
0000
0000
0110
0000
0000
1000
,
0000
0001
0000
0000
0110
0000
0000
0001
,
0000
1000
0000
0000
0101
0000
0000
0010
,
0000
1000
0000
0000
1100
0000
1000
0000
,
0001
1000
0010
0100
,
0010
0010
1000
0001
,
0100
0000
0100
0000
0002
0000
0000
1003
,
0000
0100
0010
0001
,
0000
0000
0110
0000
1000
0000
0001
0200
,
0000
0000
0000
0000
0300
0000
0000
0020
,
0000
0000
0000
0000
0030
0000
0000
1000
,
0000
0100
0001
0100
,
1000
0010
0000
0000
,
0110
0000
0000
1001
0000
0000
0100
0000
,
0000
0001
0000
0000
0100
0000
0000
2000
,
3000
0000
0000
0000
;
