#TITLE:Summer;
#SUBTITLE:~Speedy Mix~;
#ARTIST:☺;
#TITLETRANSLIT:;
#SUBTITLETRANSLIT:;
#ARTISTTRANSLIT:;
#CREDIT:;
#BANNER:Summer ~Speedy Mix~-banner.png;
#BACKGROUND:Summer ~Speedy Mix~-bg.png;
#LYRICSPATH:;
#CDTITLE:;
#MUSIC:music.ogg;
#OFFSET:-0.008;
#SAMPLESTART:11.680;
#SAMPLELENGTH:16.200;
#SELECTABLE:YES;
#BPMS:0.000=185.000;
#STOPS:32.000=0.973
,109.000=0.324
,110.000=0.324
,123.000=0.324
,124.000=0.324
;
#BGCHANGES:-10000.000=songbackground=1.000=0=0=1,
0.000=Summer ~Speedy Mix~-bg.png=1.000=0=0=1,
20.000=In The Groove 2/747_JumpBack.mpg=1.000=0=0=1,
33.000=In The Groove 2/980_JumpBack.mpg=1.000=0=0=1,
65.000=In The Groove 2/586_JumpBack.mpg=1.000=0=0=1,
97.000=In The Groove 2/604_JumpBack.mpg=1.000=0=0=1,
111.000=In The Groove 2/616_JumpBack.mpg=1.000=0=0=1,
125.000=In The Groove 2/455_JumpBack.mpg=1.000=0=0=1,
157.000=In The Groove 2/586_JumpBack.mpg=1.000=0=0=1,
189.000=In The Groove 2/595_JumpBack.mpg=1.000=0=0=1,
205.000=In The Groove 2/594_JumpBack.mpg=1.000=0=0=1,
221.000=In The Groove 2/984_JumpBack.mpg=1.000=0=0=1,
253.000=In The Groove 2/586_JumpBack.mpg=1.000=0=0=1,
289.000=In The Groove 2/453_JumpBack.mpg=1.000=0=0=1,
321.000=Summer ~Speedy Mix~-bg.png=1.000=0=0=1,
99999=-nosongbg-=1.000=0=0=0 // don't automatically add -songbackground-
;
// cache tags:
#FIRSTBEAT:12.000;
#LASTBEAT:321.000;
#SONGFILENAME:Songs/In The Groove 2 (Official)/Summer ~Speedy Mix~/Summer ~Speedy Mix~.sm;
#HASMUSIC:1;
#HASBANNER:1;
#MUSICLENGTH:108.948;
// end cache tags

//---------------dance-single - K. Ward----------------
#NOTES:
     dance-single:
     K. Ward:
     Easy:
     4:
     0.311,0.368,0.156,0.147,0.000,204.000,17.000,16.000,0.000,0.000:











0000
0000
0000
0000
,
0000
0000
0000
0000
,
0000
0000
0000
0000
,
0000
0000
0000
0000
,
0000
0000
0000
0000
,
0010
0010
0010
0010
,
0010
0000
0000
0000
,
0100
0100
0100
0100
,
1001
1000
1000
1000
,
1000
0001
0001
0001
,
0001
1000
1000
1000
,
1000
0001
1000
1001
,
0000
0100
0100
0100
,
0100
0010
0010
0010
,
0010
0100
0100
0100
,
0100
0010
0100
1001
,
0000
2000
0000
3002
,
0000
0023
0000
0032
,
0000
2003
0000
3002
,
0000
0203
0000
0310
,
0000
1000
1000
0100
,
0000
0010
0010
0001
,
0000
0010
0010
0100
,
0000
1000
1000
1001
,
0000
0010
0000
0001
,
0000
0100
0000
1000
,
0000
0010
0001
0100
,
1000
0100
1010
0001
,
0001
0000
0000
1000
,
1000
0000
0000
0020
,
0000
0130
0000
0110
,
1001
1000
1000
0001
,
0001
1000
1000
0001
,
0000
0100
0100
0010
,
0010
0100
0000
0010
,
0000
1000
0001
1000
,
0001
0100
0100
0100
,
0000
0001
1000
0001
,
1000
0010
0000
0110
,
0000
0200
0000
0310
,
0000
0020
0000
0130
,
0000
0200
0000
0310
,
0000
1000
0001
1000
,
0000
0002
0000
1003
,
0000
2000
0000
3001
,
0000
0002
0000
0013
,
0000
0001
1000
0001
,
0000
1001
0000
0000
,
0000
0000
0000
0000
,
0000
0000
0000
0000
,
0000
1001
0000
0110
,
0000
1000
1000
1000
,
0000
0001
0001
0001
,
0000
0010
0010
0010
,
0010
0100
0000
0010
,
0000
1001
0000
0000
,
0000
0110
0000
0000
,
0000
1001
0000
0000
,
0000
0000
1001
1001
,
0000
1000
1000
1000
,
1000
0001
0001
0001
,
0001
1000
0100
0010
,
0000
0010
0100
1000
,
0000
0001
0001
0001
,
0001
0010
0010
0010
,
0010
0001
0001
0001
,
0001
1000
0000
1000
,
0000
0010
0100
0001
,
0000
0100
0010
1000
,
0000
0010
0100
0001
,
0000
1000
0001
1001
,
0000
0000
0000
0000
,
0000
1000
1000
1000
,
0000
0001
0001
0001
,
0000
1000
1000
1000
,
0000
0020
0000
0030
,
0000
0100
0100
0100
,
0000
0001
0001
0001
,
0000
1000
1000
1000
,
0000
0002
0000
0000
,
1003
1000
0000
0000
;

//---------------dance-single - K. Ward----------------
#NOTES:
     dance-single:
     K. Ward:
     Hard:
     9:
     0.683,0.700,0.551,0.129,0.289,443.000,60.000,14.000,3.000,0.000:











0000
0000
0000
0000
,
0000
0000
0000
0000
,
0000
0000
0000
0000
,
0000
0000
0000
0000
,
0000
0000
0000
0000
,
1000
0000
0000
0000
0001
0000
0000
0010
0100
0000
0010
0000
0000
0000
0200
0000
,
0000
0000
1000
0000
1300
0000
0000
0000
0020
0000
0000
0100
0000
0000
0130
0000
,
0100
0000
0001
0000
0010
0011
0000
1001
,
0000
0000
0000
0000
0001
0000
0010
0000
0100
0000
0010
0001
0000
0001
0000
0010
,
0100
0000
1000
0000
0010
0000
0010
0000
0100
0000
0001
0010
0000
0010
0000
0001
,
0100
0000
0010
0000
1000
0000
0100
0000
0010
0000
0100
1000
0000
1000
0000
0100
,
0010
0000
0001
0000
0100
0000
0100
0000
0010
0000
1000
0100
0000
0100
0000
1000
,
0010
0000
0000
0000
0100
0000
0001
0000
0010
0000
0100
0010
0000
0100
0000
0010
,
0100
0000
1000
0000
1000
0000
0010
0000
0100
0000
0001
1000
0000
0001
0000
1000
,
0001
0000
0100
0000
1000
0000
0100
0000
0001
0000
0010
0001
0000
1000
0000
0001
,
0010
0000
0100
0000
1000
0000
0010
0000
0100
0000
0000
0000
0M01
0010
0001
0000
,
0100
0000
0010
0000
1000
0000
0000
1000
0100
0000
0000
0100
0010
0000
0000
0010
,
0001
0100
0000
1000
0100
0000
0002
0000
,
0000
0000
0000
0000
0013
0000
0000
0010
0100
0000
0000
0100
1000
0000
0000
1000
,
0100
0010
0000
0100
1000
0000
0002
0000
,
0000
0000
0000
0000
1003
0100
1000
0000
0001
0000
0100
0000
1000
0000
0100
0000
,
0001
0000
0010
0000
0001
1000
0001
0000
0100
0000
0001
0000
0010
0000
0001
0000
,
0001
0000
0000
0000
0001
0100
0010
0000
1000
0000
0010
0000
0001
0000
0010
0000
,
1000
0000
0100
0000
0010
0001
0010
0000
0100
0000
0010
0000
0002
0000
0000
0000
,
0000
0000
1003
0010
0000
0001
0010
1000
,
0000
0100
0010
0001
0010
0100
0010
0100
,
0000
0100
1000
0100
0001
0100
1000
0100
,
0010
0100
1100
0000
0011
0000
1000
0100
,
0001
0100
1000
0100
0001
0100
0001
0100
,
1000
0100
0010
0100
1000
0100
0010
0001
,
0100
1000
0100
0001
0010
0100
0110
0000
,
1100
0000
0000
0000
0100
0000
1000
0000
0100
1000
0000
1000
0000
0000
0010
0000
,
0100
0000
0001
0000
0020
0000
0000
0000
0100
0000
0000
0100
0000
0000
0130
0000
,
0000
0000
0000
0000
0010
0000
0001
0000
1000
0000
0000
0010
0000
0000
0100
0000
,
0001
0000
0010
0000
0001
0000
0000
0000
0100
0000
0000
1000
0000
0000
0100
0000
,
0001
0000
0000
0000
0001
0000
0000
0000
0010
0000
0000
0100
0000
0000
1000
0000
,
0010
0000
0001
0000
0010
0000
0000
0000
1000
0000
0000
0100
0000
0000
0010
0000
,
0000
0100
0000
0000
0100
0000
1000
0000
0010
0000
0000
0100
0000
0000
0001
0000
,
0010
0000
0010
0000
0010
0000
0000
0000
0100
0000
0000
0000
1000
0100
1000
0000
,
0010
0000
0100
0000
0001
0000
0010
0000
0001
0000
0000
0100
0000
0000
1000
0000
,
0100
0000
0001
0000
0010
0000
0100
1000
0100
0000
0010
0000
0100
0000
0000
0000
,
1001
0000
0000
0000
0100
0000
0010
0000
1000
0000
0000
0010
0000
0000
0100
0000
,
0001
0000
0010
0000
0001
0000
0010
0100
0010
0000
0000
0000
1100
0000
0000
0000
,
0000
0000
1000
0010
0110
0000
0001
0010
,
0011
0000
0000
0000
1000
0000
0100
1000
0010
0000
0100
0000
0001
0000
0000
0000
,
0110
0000
1000
0100
0110
0000
0001
0010
,
0011
0000
0000
0000
1000
0000
0010
0000
0100
0000
0000
0000
0004
0040
0000
0000
,
0000
0033
0000
0000
0001
0000
0002
0000
,
0000
0003
1000
2000
,
0000
0100
0010
3002
,
0100
0023
0001
0130
,
1001
0000
0000
0000
0100
0000
0000
0100
0010
0000
0000
0010
0001
0000
0000
0001
,
0010
0000
0000
0010
1000
0000
0000
1000
0100
0000
0000
0100
0010
0000
0000
0000
,
0110
0000
0000
0000
0010
0000
0000
0010
0100
0000
0000
0100
1000
0000
0000
1000
,
0100
0000
0000
0100
0001
0000
0000
0001
0010
0000
0000
0010
0100
0000
0000
0000
,
1001
0000
1100
0000
0000
0000
0000
0110
,
0000
0000
1001
0000
0000
0000
0000
1100
,
0000
0110
0000
0000
1001
0000
0000
0000
0000
0000
0000
0000
1100
0000
0110
0000
,
0000
0000
1000
0010
0001
0000
0010
0000
,
1000
0001
0010
0000
0011
0000
0100
0000
,
0110
0000
1000
0000
0011
0000
0100
0100
,
0100
0010
0110
0001
,
0011
0000
1000
0100
0001
0100
1000
0000
,
1001
0000
1000
0100
0010
0100
1000
0100
,
0010
0001
0100
1000
0100
0001
0010
0100
,
1000
0010
0001
0010
1000
0100
0010
0100
,
0010
0000
0001
0000
4000
0400
0000
0000
0000
0000
3300
0000
0004
0040
0000
0000
,
0000
0033
0100
0001
0010
0001
0100
0001
,
0010
0001
0100
0010
1000
0100
0010
0100
,
1000
0001
0100
0010
0100
1000
0100
0010
,
0100
0000
0000
0000
0004
4000
0000
0000
0000
0000
0000
0000
3003
0000
0000
0000
,
M00M
0000
1000
0001
1000
1000
0001
1000
,
0001
0011
0110
1001
,
0110
1100
0011
1010
,
0101
1001
0110
0101
,
0110
2002
0000
3003
,
0000
0110
1001
1100
,
0011
1100
0101
1010
,
1001
0110
1010
0101
,
1001
0000
0220
0000
0000
0330
0000
0000
,
1000
0000
0001
1000
0001
0000
0000
0000
0000
0000
0000
0000
0000
0000
0000
0000
;

//---------------dance-single - C. Foy----------------
#NOTES:
     dance-single:
     C. Foy:
     Challenge:
     13:
     1.000,1.000,0.413,0.441,1.000,767.000,45.000,48.000,43.000,3.000:























0000
0000
0000
0000
,
0000
0000
0000
0000
,
0000
0000
0000
0000
,
1001
0000
0000
1000
0001
0000
0000
0001
0100
0000
0010
0000
0000
0000
0100
0000
,
0000
0000
0001
0000
1000
0000
0000
1000
0100
0000
0010
0000
0001
0000
0000
0000
,
0100
0000
0000
0000
0100
0000
0000
0010
1000
0000
0100
0000
0000
0000
0010
0000
,
0000
0000
0001
0000
0001
0000
0000
1000
0100
0000
0010
0000
0010
0000
0000
0001
,
0100
0000
0100
0000
1010
1100
0000
2200
,
0001
3300
0000
0000
0000
0000
0000
0000
000M
0000
0000
0000
0000
0000
0000
0000
1000
0000
0000
0000
0000
0000
0000
0000
0100
0000
0000
0000
0000
0000
0000
0000
1000
0000
0000
0000
0000
0000
0000
0000
0001
0000
0000
0000
1000
0000
0000
0000
0000
0000
0000
0000
1000
0000
0000
0000
0000
0000
0000
0000
0010
0000
0000
0000
,
0100
0000
0100
0000
0010
0000
1000
0000
0100
0000
0100
0010
0000
0010
0000
0001
,
0100
0000
0010
0000
0100
0000
1000
0000
0100
0000
0010
1000
0000
1000
0000
0100
,
0010
0000
0100
0000
0001
0000
0100
0000
0010
0000
0010
0001
0000
0001
0000
0001
,
0100
0000
0010
0100
0001
0000
0100
0000
0010
0000
1000
0100
0000
0010
0000
0001
,
0100
0000
0010
0000
0010
0000
1000
0000
0100
0000
1000
0001
0000
1000
0000
1000
,
0100
0000
0100
0000
1000
0000
0010
0000
0100
0000
0001
0010
0000
0010
0000
0001
,
0100
0000
0000
0000
0000
0000
0010
0000
0000
0000
0000
0000
0100
0000
0000
0000
0000
0000
0010
0000
0000
0000
0000
0000
1000
0000
0000
0000
0000
0000
0010
0000
0000
0100
0000
0000
0001
0000
0000
1000
0000
0000
0010
0000
0000
0000
1000
0000
,
0001
0000
0001
0000
0100
0000
0010
1000
0100
0000
0010
0001
0100
0000
0100
0010
,
1000
0000
2000
0000
0000
0000
3010
0000
0200
0000
0000
0300
2020
0000
0000
3030
,
0202
0000
0000
0303
0001
0000
1000
0001
1000
0000
0001
0100
0001
0000
0001
0010
,
0001
0000
0020
0000
0000
0000
0031
1000
0200
0000
0000
0300
2200
0000
0000
0000
,
0000
0000
3300
0000
1000
0000
0010
0100
0001
0000
0010
0001
0100
0000
0010
0100
,
0001
0000
0200
0000
0000
0300
0100
0001
0010
0000
0000
0000
0200
0000
0000
0000
,
0020
0000
0000
0330
0101
0000
0100
0001
0010
0000
0100
1000
0010
0000
0100
0001
,
0010
0000
0200
0000
0000
0000
1300
0010
1000
0000
0000
0000
2002
0000
0000
0000
,
3003
0000
1000
0010
0000
0001
0010
1000
,
0000
0000
0100
0000
0010
0001
0010
0100
0010
0000
1000
0000
0010
0000
0001
0000
,
0000
0000
0100
0000
0010
0100
0010
0100
1000
0000
0100
0000
0010
0100
0001
0100
,
0001
0000
0000
0000
0000
0000
0000
0000
1000
0000
0000
0000
0000
0000
0000
0000
2002
0000
0000
0000
0000
0000
0000
0000
0000
0000
0000
0000
0000
0000
0000
0000
0010
3003
0000
0000
0000
0000
0000
0000
00M0
0000
0000
0000
0000
0000
0000
0000
1000
0000
0000
0000
0100
0000
0000
0000
0010
0000
0000
0000
0001
0000
0000
0000
,
1000
0010
0100
0001
1000
0001
0100
0010
1000
0001
0100
0010
0100
0001
1000
0100
,
0010
0100
1000
0001
0100
0010
1000
0001
0100
0001
0100
0010
0100
0001
1000
0100
,
1000
0100
0010
0100
1000
0001
0100
0010
1000
0010
0100
0000
0202
0000
0000
0000
,
1000
0303
0000
0000
0000
0000
0000
0000
M000
0000
0000
0000
0000
0000
0000
0000
0001
0000
0000
0000
0000
0000
0000
0000
0101
0000
0000
0000
0000
0000
0000
0000
1001
0000
0000
0000
0000
0000
0000
0000
0001
0000
0000
0000
1000
0000
0000
0000
0010
0000
0000
0000
0100
0000
0000
0000
0001
0000
0000
0000
0000
0000
0000
0000
,
0001
0000
1000
0000
1000
0000
0101
0000
1100
0000
1000
0100
0010
0001
0000
0001
,
0100
0000
0100
0000
0010
0000
1010
0000
1100
0000
1000
0100
1000
0001
1000
0000
,
0010
0000
0100
0000
0010
0000
1010
0000
1100
0000
0001
0100
0010
1000
0000
1000
,
0100
0000
0100
1000
0001
0000
1001
0000
1100
0000
1000
0100
1000
0001
0100
0001
,
1000
0000
1010
0000
0010
0100
0001
0000
1100
0000
1000
0100
0000
1100
0000
0100
,
0010
0000
0010
0000
0110
0000
1100
0000
1001
0000
0001
0100
0010
0100
0000
0100
,
0010
0000
1000
0000
0100
0000
1100
0000
1001
0000
1000
0001
1000
0001
0000
1000
,
0001
0000
1000
0000
0100
0000
0001
0000
0000
0100
0000
0100
1000
0100
1000
0000
,
0001
0000
0100
0000
0010
0000
0010
0100
0001
1000
0100
0010
0001
0000
0000
0000
,
1000
0000
0000
0000
0010
0000
0001
0000
0010
0000
1000
0010
0000
1000
0100
0000
,
0010
0000
0100
0000
0001
0000
0100
0001
0100
0000
0010
0100
1000
0000
0000
0000
,
0000
0000
0000
0000
0001
0000
0100
0000
1000
0000
0000
1000
0100
0000
0010
0000
,
0001
0000
0010
0000
1000
0000
1000
0100
0010
0000
0001
0100
0010
1000
0001
0010
,
0100
1000
0001
0000
0100
0000
1000
0000
0100
0000
0001
0100
0000
0100
0010
0000
,
1000
0000
0100
0000
0010
0000
0010
0100
1000
0000
0001
0100
0010
1000
0001
1000
,
0001
1000
0001
0000
2000
0000
3001
0100
0002
0000
1003
0010
2000
0000
3001
0010
,
0002
0000
2000
0003
0000
0000
0200
3000
0002
0000
0000
0300
2000
0000
0000
0003
,
0020
0000
0000
3000
0001
0030
1000
0020
1000
0000
1030
0002
1000
0000
1003
0100
,
1000
0000
2200
0000
0000
3300
0000
1000
0200
0000
0000
1300
0020
0000
0000
0000
,
0000
0000
0000
0000
2030
0000
3001
0100
0002
0000
1003
0010
2000
0000
3001
0010
,
0002
0000
2000
0003
0000
0000
0200
3000
0002
0000
0000
0300
2000
0000
0000
0003
,
0020
0000
0000
3000
0001
0030
0001
0020
0001
0000
0031
2000
0001
0000
3001
0100
,
0001
0000
0100
0000
0000
0100
0001
1000
0010
0000
0000
0000
1000
0000
0000
0000
,
0000
0000
0000
0000
11MM
0000
0010
1000
0100
0000
0010
0000
0000
0000
MM11
0000
,
0000
0000
0100
0000
101M
0000
0010
1000
0100
0000
0010
0000
0000
0000
M1M1
0000
,
0000
1MM1
0000
0000
1M1M
0000
0010
1000
0001
0000
1000
0000
1M1M
0000
1000
0000
,
0010
0000
0000
0000
0010
0000
1000
0100
10M0
0001
1000
0010
0100
0001
1000
0100
,
001M
0000
0100
0000
10MM
0000
0010
1000
0001
0000
0100
0000
0000
0000
1MMM
0000
,
0100
0000
0000
0000
MMM1
0000
0100
0010
1000
0000
0100
0000
0000
0000
MMM1
0000
,
0000
M1MM
0000
0000
10MM
0000
0000
1000
0010
0000
0001
0000
M000
0000
0M10
0000
,
1000
0000
0000
0000
0100
0000
0000
0001
M100
0000
1000
0000
0000
0000
0010
0000
,
0M0M
1000
1000
0010
0000
1000
0010
1000
,
0100
0000
0010
0000
0001
0010
0100
1000
0100
0010
0001
0000
0100
0000
0010
0000
,
0000
0000
1000
0000
0100
0010
0100
1000
0100
0000
1000
0000
0010
0100
0010
1000
,
0001
0000
0001
0000
1000
0001
1000
0010
1000
0001
1000
0100
1000
0001
0100
0001
,
1000
0001
0010
0001
1000
0001
0100
0010
1000
0001
0100
0010
1000
0100
0010
0001
,
0010
0100
1000
0001
0100
0010
1000
0001
0100
0010
1000
0010
0100
0001
1000
0010
,
0100
0001
1000
0001
0010
0100
1000
0001
0100
0010
1000
0001
0100
0001
1000
0100
,
0010
0001
0100
0001
0100
0010
0100
0010
1000
0001
1000
0100
1000
0001
0100
0001
,
1000
0001
1000
0000
1100
0000
1001
0000
0101
0000
0101
0000
0110
0000
1010
0000
,
1001
0000
0000
0000
100M
0010
1000
0001
1000
0100
1000
0001
1000
0010
1000
0001
,
1000
0001
0010
0001
1000
0001
0100
0001
1000
0001
0010
0001
1000
0100
0010
0001
,
1000
0100
0010
0001
0010
0100
1000
0001
0010
0100
1000
0001
0100
0001
1000
0001
,
1000
0100
1000
0001
1000
0010
1000
0010
0100
0010
1000
0001
1000
0100
1000
0100
,
1000
0000
0000
0000
10M0
0001
0100
0010
1000
0010
0100
0001
1000
0010
0100
0001
,
1000
0001
0100
0001
0100
0010
0100
0010
1000
0001
0100
0001
1000
0001
1000
0010
,
0100
0001
1000
0100
1000
0100
0010
0100
0010
0001
0010
0100
1000
0100
0010
0100
,
1000
0100
0010
0001
0010
0001
1000
0001
0100
0001
0100
0010
M100
0001
0100
0010
,
010M
0010
1000
0000
1001
0000
0000
0000
0000
0000
0000
0000
0000
0000
0000
0000
;

//---------------dance-single - K. Ward----------------
#NOTES:
     dance-single:
     K. Ward:
     Medium:
     6:
     0.409,0.442,0.303,0.138,0.000,264.000,33.000,15.000,9.000,0.000:

0000
0000
0000
0000
,
0000
0000
0000
0000
,
0000
0000
0000
0000
,
0000
0000
0000
0000
,
0000
0000
0000
0000
,
1000
1000
0001
0001
,
1000
0000
1000
0000
0010
0100
0001
0000
,
0010
0000
0010
0000
0001
1000
0001
1000
,
0001
0100
1000
0100
,
0001
0100
1000
0100
,
0001
0010
0100
0010
,
0001
0010
0100
1100
,
1100
0010
0010
0100
,
1000
0100
0001
1000
,
1000
0100
0010
0001
,
0010
0000
0100
0000
1000
0000
1000
0010
,
0100
0001
0010
0000
0001
0000
0001
0000
,
1000
0010
0000
0010
0100
0000
0100
0000
,
0000
0001
0001
1000
,
0010
0100
0000
0100
0001
0000
0011
0000
,
0000
0000
1000
0100
1000
0000
0100
0010
,
0100
1000
0001
1000
,
0000
0000
0001
0010
0001
0000
0010
0100
,
0010
0001
0000
1100
,
1100
0010
0001
0100
,
1000
0010
0001
0100
,
1000
0001
1000
0001
,
1000
1100
0011
0000
,
1000
0001
1000
0000
1000
0000
0000
0000
,
0010
0100
0010
0000
0010
0000
0000
0000
,
1000
0100
1000
0000
0001
0000
0110
0000
,
1001
M000
0010
00M0
,
0100
0M00
0001
000M
,
1000
M000
0010
00M0
,
0100
0000
0001
0001
,
000M
1000
0100
0001
,
0100
1000
1000
1000
,
M000
0001
0100
1000
,
0100
0001
0001
0001
,
000M
0000
1100
0000
,
0011
0000
0110
2002
,
3003
0000
0101
0000
,
1010
0000
0110
1001
,
0000
0000
1000
0100
1000
0000
0002
0000
,
0003
0000
0001
0010
0001
0000
2000
0000
,
3000
0000
0010
0100
0010
0000
0020
0000
,
0030
0000
0100
0010
0100
0000
0002
0000
,
0000
0023
0000
0100
,
0000
0230
0000
1300
,
0000
0200
0000
1300
,
0000
0011
0000
0110
,
1100
0010
0010
0001
,
1000
0100
0010
0001
,
1000
0001
0100
0100
,
1000
1000
0100
0001
,
0000
0000
0011
0000
0000
0000
0000
1100
,
0000
0000
0110
0000
0000
0000
0000
1001
,
0000
0110
0000
1100
,
0000
0001
0010
0002
,
0000
1003
1000
1000
,
1000
0000
1000
0000
1000
0000
1000
0100
,
1000
0010
0010
0100
,
0100
0000
0000
0001
0000
0001
0000
0001
,
0000
1000
1000
1000
,
0110
0010
0010
0100
,
1100
1000
0010
1000
,
1001
0001
0100
0020
,
0000
1030
0001
0001
,
0110
1000
0100
1000
,
1001
0100
0010
1000
,
0100
0020
0000
0130
,
0000
0000
0000
0000
,
0000
1000
1000
0001
,
0001
0100
0010
0002
,
0000
1003
1000
0010
,
0010
0200
0000
0300
,
0000
0001
1000
0100
,
1000
1000
0100
0010
,
0100
1000
0010
0001
,
0010
0200
0000
0310
,
0110
1001
0000
0000
;

//---------------dance-double - M. Emirzian----------------
#NOTES:
     dance-double:
     M. Emirzian:
     Easy:
     4:
     0.223,0.258,0.073,0.037,0.000,158.000,8.000,4.000,0.000,0.000:























00000000
00000000
00000000
00000000
,
00000000
00000000
00000000
00000000
,
00000000
00000000
00000000
00000000
,
00000000
00000000
00000000
00000000
,
00000000
00000000
00000000
00000000
,
00010000
00000000
10000000
00000000
,
00100000
10000000
01000000
00000000
,
00010000
00000000
00001000
00000000
,
00000100
00000010
00001000
00000100
,
00000000
00000010
00000000
00000001
,
00000000
00001000
00000001
00000100
,
00000000
00000010
00000000
00001000
,
00000000
00000100
00010000
00001000
,
00000000
00000100
00000000
00001000
,
00000000
00010000
00100000
10000000
,
00000000
01000000
00000000
00100000
,
00000000
00010000
00000000
10000000
,
00000000
01000000
00000000
00000000
,
00000000
00010000
00000000
00001000
,
00000000
00000010
00000000
00000000
,
00000000
00000100
00000000
00001000
,
00000000
01000000
00000000
00000000
,
00000000
00100000
00000000
00010000
,
00000000
00001000
00000000
00000000
,
00000000
00000010
00000000
00000001
,
00000000
00001000
00000001
00000100
,
00000000
00000010
00000000
00001000
,
00000000
00000100
00000000
00001000
,
00000000
00000001
00000000
00000100
,
00000010
00001000
00000000
00000100
,
00000000
00010000
00000000
00001000
,
00000000
01000000
00010000
10000000
,
00000000
01000000
00000000
00100000
,
00000000
01000000
10000000
00100000
,
00000000
01000000
00000000
00010000
,
00000000
10000000
01000000
00010000
,
00000000
00001000
00000000
00000010
,
00000000
00000001
00001000
00000010
,
00000000
00000100
00000000
00000001
,
00000000
00001000
00000100
00000010
,
00000000
00000001
00000000
00000100
,
00000000
00001000
00000100
00000001
,
00000000
00000100
00000000
00001000
,
00000000
00010000
00001000
00010000
,
00000000
00001000
00000000
01000000
,
00000000
00100000
10000000
01000000
,
00000000
00100000
00000000
00010000
,
00000000
20020000
00000000
00000000
,
00000000
00000000
00000000
00000000
,
00000000
30030000
00000000
00000000
,
00000000
00100000
00000000
10000000
,
00010000
01000000
00000000
00100000
,
00000000
00100000
01000000
10000000
,
00000000
01000000
00000000
00010000
,
00000000
00001000
00010000
00001000
,
00000000
00010100
00000000
00000000
,
00000000
00001100
00000000
00000000
,
00000000
00001001
00000000
00000001
,
00000000
00000100
00000010
00000100
,
00000010
00000100
00000000
00000000
,
00000000
00011000
00000000
00000000
,
00000000
10010000
00000000
00100000
,
00000000
01000000
00010000
01000000
,
00010000
01000000
00000000
10000000
,
00000000
01000000
00100000
00010000
,
00000000
00100000
00000000
00001000
,
00000000
01000000
00010000
00100000
,
00000000
00001000
00000000
00010000
,
00000000
00000100
00001000
00000010
,
00000000
00000100
00000000
00000001
,
00000000
00001000
00000100
00000010
,
00000000
00002002
00000000
00000000
,
00003003
00001000
00000000
00000000
,
00000000
00000001
00000000
00000000
,
00000000
00010000
00000000
00000000
,
00000000
00001000
00000000
00000000
,
00000000
10000000
00000000
00000000
,
00000000
01000000
00000000
00000000
,
00000000
00100000
00000000
00000000
,
00000000
00001000
00000000
00010000
,
00001000
00010010
00000000
00000000
;

//---------------dance-double - M. Emirzian----------------
#NOTES:
     dance-double:
     M. Emirzian:
     Medium:
     7:
     0.359,0.442,0.147,0.018,0.000,256.000,16.000,2.000,0.000,0.000:























00000000
00000000
00000000
00000000
,
00000000
00000000
00000000
00000000
,
00000000
00000000
00000000
00000000
,
00000000
00000000
00000000
00000000
,
00000000
00000000
00000000
00000000
,
00100000
10000000
00100000
00000000
,
01000000
00010000
01000000
00000000
,
00100000
10000000
00100000
00000000
,
00011000
00000100
00001000
00000100
,
00000010
00000001
00000000
00000010
,
00000000
00000100
00001000
00000100
,
00000010
00000001
00000000
00000100
,
00000000
00000010
00010000
00001000
,
01000000
00010000
00000000
10000000
,
00000000
01000000
00100000
00010000
,
00100000
01000000
00000000
10000000
,
00000000
00010000
01000000
00100000
,
10000000
00010000
00000000
10000000
00010000
00000000
10000000
00000000
,
00000000
01000000
00100000
00010000
,
01000000
00001000
00000000
01000000
00010000
00000000
00100000
00000000
,
00000000
00001000
00010000
00000100
,
00001000
00000010
00000000
00010000
00001000
00000000
00000100
00000000
,
00000000
00000010
00000001
00001000
,
00000010
00000100
00000000
00000001
00001000
00000000
00000100
00000000
,
00000000
00000000
00000010
00000100
00000000
00000000
00010000
00001000
,
00000000
00000000
00010000
00000000
00001000
00000000
01000000
00100000
,
00000000
10000000
01000000
00100000
,
00010000
10010000
00011000
00000001
,
00001000
00000010
00000100
00000001
,
00000010
00001000
00010000
00100000
,
00010000
00001000
01000000
10010000
,
00011000
01000000
00010000
10000000
,
01000000
00100000
00000000
00010000
,
00000000
01000000
00001000
00010000
,
00000100
00000010
00000000
00000001
,
00000000
00001000
00000010
00000100
,
00000001
00001000
00000000
00000100
,
00000000
00010000
00001000
01000000
,
00010000
10000000
00000000
01000000
,
00000000
00100000
00010000
01000000
,
00001000
00010000
00000000
00000100
,
00000000
00000010
00000001
00001000
,
00000010
00000100
00000000
00000001
,
00000000
00000100
00000010
00001000
,
00000100
00010000
00000000
00001000
,
00000000
01000000
00010000
10000000
,
01000000
00100000
00000000
00010000
,
00000000
20020000
00000000
00000000
,
00000000
00000000
00000000
00000000
,
00000000
00000000
00000000
30030000
,
00000000
00000000
10000000
00000000
00000000
00100000
10000000
00000000
,
01000000
00100000
00010000
00100000
,
00001000
00010000
00000000
00000100
00010000
00000000
00001000
00000000
,
00000000
00010000
00001000
00000100
,
00000001
00001000
00000000
00000100
00000010
00000000
00000001
00000000
,
00000000
00000000
00001100
00000000
00000000
00000000
00000000
00010100
,
00000000
00000000
00011000
00000000
00000000
00000000
00000000
01001000
,
00000000
00000000
01010000
00000000
00000000
00000000
00100000
10000000
,
00000000
00000000
00100000
10000000
00100000
00000000
10000000
00000000
,
00010000
01000000
00010000
00000000
00000000
00000000
00000000
10010000
,
00000000
00000000
01010000
00000000
00000000
00000000
00000000
00101000
,
00000000
00000000
00011000
00000000
00000000
00000000
00000010
00001000
,
00000000
00000000
00000100
00000010
00000001
00000010
00000000
00000100
,
00001000
00000100
00000010
00000000
00000001
00000000
00000100
00000000
,
00000001
00000100
00001000
00010000
,
01000000
00010000
00001000
00000100
,
00001000
00010000
00001000
01000000
,
00010000
01000000
00100000
10000000
,
01000000
00100000
00010000
00100000
,
01000000
10000000
01000000
00010000
,
00001000
00000000
00010000
00000000
00000100
00001000
00000100
00000000
,
00000000
00000000
00000010
00000001
00000010
00000001
00000010
00000001
,
00000010
00000100
00001000
00000001
,
00000000
00000100
00000010
00010000
,
00000000
00001000
01000000
00010000
,
00000000
10000000
01000000
00100000
,
00000000
00010000
10000000
01000000
,
00000000
00100000
00010000
01000000
,
00000000
00001000
00010000
00000100
,
00000000
00000000
00000010
00000000
00000001
00000000
00001000
00000010
,
00000100
00001001
00000000
00000000
;

//---------------dance-double - M. Emirzian----------------
#NOTES:
     dance-double:
     M. Emirzian:
     Hard:
     9:
     0.662,0.700,0.358,0.000,0.262,466.000,39.000,0.000,27.000,0.000:























00000000
00000000
00000000
00000000
,
00000000
00000000
00000000
00000000
,
00000000
00000000
00000000
00000000
,
00000000
00000000
00000000
00000000
,
00000000
00000000
00000000
00000000
,
00010000
00000000
00000000
00000000
10000000
00000000
00000000
01000000
00000000
00000000
00100000
00000000
00000000
00000000
01000000
00000000
,
00000000
00000000
00010000
00000000
00001000
00000000
00000000
00000000
01000000
00000000
00100000
00000000
01000000
00000000
00000000
00001000
,
00010000
00000000
01000000
00000000
00010000
00001000
00000000
00000010
,
00000001
00000000
0000M000
00000000
00001000
00000000
00000010
00000000
00000100
00000000
00000001
00001000
00000000
00000100
00000000
00001000
,
00000100
00000000
00000010
00000000
00000001
00000000
00000100
00000000
00000010
00000000
00001000
00000100
00000000
00001000
00000000
00000100
,
00010000
00000000
00001000
00000000
01000000
00000000
00010000
00000000
00100000
00000000
00010000
10000000
00000000
00010000
00000000
10000000
,
01000000
00000000
00100000
00000000
00010000
00000000
01000000
00000000
00100000
00000000
10000000
01000000
00000000
10000000
00000000
00010000
,
01000000
00000000
00001000
00000000
00010000
00000000
00000100
00000000
00000010
00000000
00000100
00001000
00000000
00000100
00000000
00001000
,
00000001
00000000
00000100
00000000
00000010
00000000
00000100
00000000
00001000
00000000
00010000
00001000
00000000
00010000
00000000
00000100
,
00001000
00000000
00000010
00000000
00000100
00000000
00000001
00000000
00000010
00000000
00000100
00001000
00000000
00000001
00000000
00000100
,
00000001
00000000
00001000
00000000
00000100
00000000
00010000
00000000
00001000
00000000
01000000
00010000
00000000
01000000
00000000
00100000
,
10000000
00000000
01000000
00100000
00010000
01000000
00100000
00010000
,
00001000
01000000
00000000
00010000
10000000
00000000
11000000
00000000
,
00110000
00000000
01000000
00001000
00010000
00000100
00000010
00000100
,
00001000
00000001
00000000
00000100
00000010
00000000
00001001
00000000
,
0000M00M
00000000
00000100
00001000
00000001
00000010
00000100
00010000
,
00001000
01000000
00000000
00100000
01000000
00000000
01010000
00000000
,
10010000
00000000
01000000
10000000
00100000
01000000
00100000
00010000
,
00001000
01000000
00000000
00001000
00010000
00000000
00010100
00000000
,
000M0M00
00000000
00001000
00000010
00000000
00000100
00000001
00001000
,
00000000
00000000
00000100
00000000
00000010
00000100
00000010
00000000
00000001
00000000
00000100
00000000
00000010
00000000
00001000
00000000
,
00000000
00000100
00000010
00000001
00000100
00000010
00001000
00000100
,
00010000
00001000
00011000
00000000
10010000
00000000
00100000
10000000
,
01000000
00100000
00010000
01000000
00100000
00010000
00001000
00100000
,
01000000
00010000
00001000
00010000
00100000
00010000
00001000
00000010
,
00000001
00001000
00000010
00000100
00000001
00001000
00001100
00000000
,
01010000
00000000
00M00000
00000000
00100000
00000000
10000000
00000000
01000000
00000000
00000000
00100000
00000000
00000000
00010000
00000000
,
10000000
00000000
01000000
00000000
00100000
00000000
00000000
00000000
00010000
00000000
00000000
10000000
00000000
00000000
00100000
00000000
,
00000000
00010000
00000000
00000000
00001000
00000000
00100000
00000000
01000000
00000000
00100000
00010000
00000000
00000000
10000000
00000000
,
00100000
00000000
01000000
00000000
00001000
00000000
00000000
00000000
00010000
00000000
00000000
00000100
00000000
00000000
00001000
00000000
,
00000010
00000000
00000000
00000100
00000000
00000M00
00000000
00000000
00000001
00000000
00000000
00001000
00000000
00000000
00000100
00000000
,
00000010
00000000
00000001
00000000
00001000
00000000
00000000
00000000
00000010
00000000
00000000
00000100
00000000
00000000
00000001
00000000
,
00000000
00001000
00000000
00000000
00000100
00000000
00000010
00000000
00000100
00000000
00000000
00010000
00000000
00000000
00001000
00000000
,
00000100
00000000
00001000
00000000
00010000
00000000
00000000
00000000
00100000
00000000
00000000
00010000
00000000
00000000
00001000
00000000
,
00100000
00000000
01000000
00000000
00010000
00000000
00001000
00000000
01000000
00000000
00010000
10000000
00000000
00000000
10000000
00000000
,
01000000
00100000
00010000
01000000
00100000
10000000
00010000
00000000
,
11000000
00000000
00000000
00000000
00100000
00000000
00010000
00000000
01000000
00000000
00001000
00010000
00000000
00000000
01000000
00000000
,
00010000
00001000
00000100
00000010
00001000
00000010
00000100
00000000
,
00000101
00000000
00000000
00000000
00000010
00000000
00000100
00000000
00001000
00000000
00000001
00001000
00000000
00000000
00000010
00000000
,
00000100
00000001
00001000
00000100
00000010
00001000
00010000
00000000
,
01001000
00000000
00000000
00000000
00010000
00000000
01000000
00000000
00100000
00000000
10000000
01000000
00000000
00000000
00100000
00000000
,
00010000
10000000
00100000
00010000
00001000
00100000
00010000
00000000
,
01010000
00100000
10000000
01000000
,
00000000
00110000
00000000
00MM0000
00000000
00000000
00001000
00000000
,
0000M000
00010000
000M0100
00001M00
,
0000M000
00000000
00001001
0000M00M
00000MM0
00000010
00000100
00001000
,
00000001
00000000
00000100
00000000
00000010
00000000
00000000
00000010
00001000
00000000
00000000
00001000
00000100
00000000
00000000
00000100
,
00010000
00001000
00000000
00010000
00100000
00000000
10100000
00000000
,
11000000
00000000
00000000
00000000
00100000
00000000
00000000
00100000
00010000
00000000
00000000
00010000
01000000
00000000
00000000
01000000
,
00001000
00010000
00000000
01000000
00010000
00000000
00011000
00000000
,
00001010
00000000
00000011
00000000
000000MM
00000000
00000000
00001100
,
00000000
00000000
10010000
00000000
M00M0000
00000000
00000000
01010000
,
00000000
01001000
00000000
00000000
00011000
00000000
00000000
00000000
000MM000
00000000
00000000
00000000
00001001
00000000
00000100
00000000
,
00000000
00000M00
00010000
00001000
01000000
00000000
01100000
00000000
,
10000000
01000000
00100000
00000000
00M00000
00000000
00000000
00110000
,
00000000
00000000
00001100
00000000
0000MM00
00000000
00000000
00000011
,
00000000
00001001
00000000
00000000
00001100
00000000
00000000
00000000
00000000
00000000
00000000
00000000
01100000
00000000
00010000
00000000
,
00000000
00000000
00000000
00000000
00000100
00000000
00001000
00000000
00010000
00000000
00100000
00000000
00000000
10000000
00000000
00100000
,
01000000
00010000
10000000
01000000
00000000
00100000
00010000
01000000
,
00000000
00000000
00100000
00000000
10000000
00100000
10000000
00000000
01000000
00000000
00100000
00000000
00010000
00000000
01000000
00000000
,
00000000
00100000
10000000
00100000
00010000
00100000
10000000
01000000
,
00100000
01000000
00010000
00001000
01000000
00010000
00100000
00001000
,
00010000
00000010
00000100
00001000
00000100
00000001
00000010
00000100
,
00010000
00001000
00000100
00000010
00001000
00000001
00000100
00000010
,
00010000
00001000
01000000
00100000
10000000
01000000
00100000
00010000
,
10000000
00000000
01010000
00000000
00100000
10000000
11000000
00000000
,
10010000
00000000
00001000
00010000
00001000
00010000
00001000
00010000
,
00001000
00000000
00000000
00000000
00001001
00000000
00000000
00000000
00000010
00000000
00000100
00001000
00000000
00000000
00000001
00000000
,
00000000
00000100
00000000
00000010
00010000
00000000
00001000
00000100
,
00001000
00000000
00010000
00000000
00100000
00000000
10000000
00010000
,
00000000
10000000
01000000
00000000
00010000
00000000
00001000
00000000
,
00000100
00000000
00000000
00000000
00000001
00000000
00000000
00000000
00000010
00000000
00000100
00001000
00000000
00000000
00000001
00000000
,
00000000
00000100
00000000
00000010
00001000
00000000
00000100
00000010
,
00000001
00000000
00000000
00001000
00000100
00000000
00000000
00000000
00010000
00000000
00000000
00000000
00001000
00000000
01000000
00000000
,
00000000
00010000
01000000
00000000
10000000
00000000
01000000
00010000
,
00100000
01000000
10010000
00000000
00000000
00000000
00000000
00000000
;

//---------------dance-double - M. Emirzian----------------
#NOTES:
     dance-double:
     M. Emirzian:
     Challenge:
     12:
     0.818,1.000,0.395,0.000,0.679,581.000,43.000,0.000,9.000,0.000:























00000000
00000000
00000000
00000000
,
00000000
00000000
00000000
00000000
,
00000000
00000000
00000000
00000000
,
00000000
00000000
00000000
00000000
,
00000000
00000000
00000000
00000000
,
00000100
00000000
00000000
00000000
00000001
00000000
00000000
00000100
00000000
00000000
00000010
00000000
00000000
00000000
00001000
00000000
,
00000000
00000000
00000100
00000000
00000010
00000000
00000000
00000000
00000001
00000000
00001000
00000000
00000010
00000000
00000000
00000010
,
00000100
00000000
00000001
00000000
00000010
00001000
00000000
00010000
,
00100000
00000000
M0M00000
00000000
10000000
00000000
00010000
00000000
01000000
00000000
00100000
10000000
00000000
01000000
00000000
00100000
,
00010000
00000000
01000000
00000000
00100000
00000000
10000000
00000000
01000000
00000000
00010000
00001000
00000000
00000010
00000000
00000100
,
00010000
00000000
00001000
00000000
00000010
00000000
00000001
00000000
00001000
00000000
00000010
00000100
00000000
00000001
00000000
00000010
,
00000100
00000000
00001000
00000000
00000001
00000000
00000100
00000000
00001000
00000000
00010000
00000100
00000000
01000000
00000000
00100000
,
01000000
00000000
00010000
01000000
00100000
00000000
01000000
00000000
00010000
00000000
10000000
01000000
00000000
00100000
00000000
00001000
,
00010000
00000000
00100000
00000000
01000000
00000000
00010000
00000000
10000000
00000000
01000000
00100000
00000000
00010000
00000000
01000000
,
00001000
00000000
00010000
00000000
00000100
00000000
00001000
00000000
00000010
00000000
00000100
00000001
00000000
00001000
00000000
00000100
,
00000010
00000000
00000001
00000000
00000100
00000000
00000010
00000000
00001000
00000000
00000100
00010000
00000100
00010000
00000000
00001000
,
00010000
00000000
00000000
00000000
00001000
00000000
01000000
00010000
00100000
00000000
01000000
10000000
00010000
00000000
01000000
00010000
,
00100000
01000000
00000000
10000000
00100000
00000000
01010000
00000000
,
00110000
00000000
00000000
00000000
01000000
00000000
10000000
01000000
00010000
00000000
00001000
00010000
00000100
00000000
01000000
00001000
,
00010000
00000000
00001000
00000000
00000000
00000000
00010000
00001000
00100000
00000000
00000000
00000000
01000100
00000000
00000000
00000000
,
0M000M00
00000000
00000000
00000000
00001000
00000000
00010000
00000100
00001000
00000000
00000010
00001000
00000100
00000000
00000010
00000001
,
00000100
00000010
00000000
00001000
00000100
00000000
00000011
00000000
,
00000101
00000000
00000000
00000000
00000010
00000000
00001000
00000100
00010000
00000000
00001000
00010000
00000010
00000000
00010000
00001000
,
00100000
00000000
01000000
00000000
00000000
00000000
10000000
00010000
10000000
00000000
00000000
00000000
10100000
00000000
00000000
00000000
,
M0M00000
00000000
01000000
00010000
00000000
10000000
10000000
10000000
,
00000000
00000000
01000000
00000000
00100000
00010000
00100000
00000000
01000000
00000000
10000000
00000000
00010000
00000000
01000000
00000000
,
00000000
00000000
00010000
00000000
00100000
00001000
00100000
00000000
00001000
00010000
00001000
00000000
01000000
00001000
00010000
00000000
,
00001000
01000000
00010000
00000000
01000100
00000000
00000000
00000000
00100010
00000000
00000000
00000000
00010000
00001000
00010000
00001000
,
00010000
00000100
00001000
00000100
00001000
00000010
00000100
00000001
00000100
00000001
00001000
00000100
00001000
00000100
00010000
00001000
,
00010000
00001000
01000000
00010000
10000000
01000000
10000000
00010000
00100000
01000000
10000000
00010000
01000000
00010000
01000000
00100000
,
10000000
00100000
10000000
00010000
00100000
00010000
00100000
00001000
00010000
00000100
00001000
00000010
00000100
00000000
00000000
00000000
,
00001001
00000000
0000M00M
00000000
00000010
00000000
00000100
00000000
00001000
00000000
00000000
00000001
00000000
00000000
00000100
00000000
,
00000010
00000000
00000010
00000000
00000010
00000000
00000000
00000000
00001000
00000000
00000000
00000100
00000000
00000000
00010000
00000000
,
00000000
00001000
00000000
00000000
00010000
00000000
00001000
00000000
01000000
00000000
00010000
01000000
00000000
00000000
00100000
00000000
,
10000000
00000000
01000000
00000000
00010000
00000000
00000000
00000000
01000000
00000000
00000000
10000000
00000000
00000000
00100000
00000000
,
01000000
00000000
00000000
00010000
00000000
000M0000
00000000
00000000
10000000
00000000
00000000
01000000
00000000
00000000
00100000
00000000
,
00010000
00000000
00010000
00000000
00010000
00000000
00000000
00000000
10001000
00000000
00000000
00100010
00000000
00000000
00011000
00000000
,
00000000
01000100
00000000
00000000
00001000
00000000
00010000
00000000
00000100
00000000
00000000
00001001
00000000
00000000
00000010
00000000
,
00000100
00000000
00000100
00000000
00000100
00000000
00000000
00000000
00001000
00000000
00000000
00000001
00000000
00000000
00000100
00000000
,
00000010
00000000
00001000
00000000
00000100
00000000
00010000
00000000
00001000
00000000
00100000
00010000
00000000
00000000
01000000
00000000
,
00100000
00000000
10000000
00000000
00010000
00000000
00100000
01000000
10000000
00000000
00010000
01000000
00100000
00000000
00000000
00000000
,
10100000
00000000
00000000
00000000
10000000
00000000
01000000
00000000
00100000
00000000
00010000
01000000
00000000
00000000
00001000
00000000
,
00010000
00000000
00000100
00000000
00001000
00000000
00000010
00001000
00000001
00000000
00000010
00000100
00001000
00000000
00000000
00000000
,
00000011
00000000
00000000
00000000
00000010
00000000
00000100
00000000
00001000
00000000
00000001
00000100
00000000
00000000
00000010
00000000
,
00001000
00000000
00000100
00000000
00010000
00000000
00001000
01000000
00010000
00000000
01000000
00001000
00010000
00000000
00000000
00000000
,
00100010
00000000
00000000
00000000
00001000
00000000
00010000
00000000
01000000
00000000
10000000
01000000
00000000
00000000
00100000
00000000
,
00010000
00000000
01000000
00000000
00100000
00000000
10000000
01000000
00100000
00000000
00010000
10000000
00010000
10000000
00010000
01000000
,
00100000
00000000
10000000
01000000
00100000
00001000
00000100
00000001
,
00000010
00000001
00000000
00000100
00000010
00000000
00010001
00000000
,
00011000
00000000
10000000
00100000
01000000
00010000
00000100
00000010
,
00001000
00000100
00000000
00000010
00000001
00000000
00001000
00000010
,
00000100
00000000
00000001
00000000
00001000
00000000
00000100
00001000
00000100
00000000
00000010
00000001
00001000
00000000
00000010
00000100
,
00000001
00000100
00000000
00000010
00001010
00000000
00100010
00000000
,
00011000
00000000
00000000
00000000
01000000
00000000
00001000
01000000
00010000
00000000
01000000
00010000
10000000
00000000
00100000
10000000
,
00100000
01000000
00000000
00010000
10010000
00000000
01100000
00000000
,
00101000
00000000
00100010
00000000
00000000
00000000
00000000
00010001
,
00000000
00000000
10001000
00000000
00000000
00000000
00000000
00100010
,
00000000
10001000
00000000
00000000
01000100
00000000
00000000
00000000
00000000
00000000
00000000
00000000
00000011
00000000
00001000
00000000
,
00000000
00000000
00000010
00000100
00000001
00000000
00011000
00000000
,
00000100
01000000
00000100
00000000
00000000
00000000
00000000
10001000
,
00000000
00000000
00010001
00000000
00000000
00000000
00000000
00100010
,
00000000
00010001
00000000
00000000
01000100
00000000
00000000
00000000
00000000
00000000
00000000
00000000
11000000
00000000
00010000
00000000
,
00000000
00000000
00000000
00000000
10000000
00000000
00100000
00000000
01000000
00000000
00010000
00000000
00000000
10000000
00000000
01000000
,
00010000
00000100
00001000
00000010
00000000
00000100
00000001
00001000
,
00000000
00000000
00000010
00000000
00000100
00001000
00000100
00000000
00000010
00000000
00000001
00000000
00000100
00000000
00000010
00000000
,
00000000
00000000
00001000
00000000
00000100
00000010
00000100
00000000
00001000
00000100
00010000
00000000
00001000
00010000
00000100
00000000
,
01000000
00010000
01000000
00000000
00100000
10000000
00100000
01000000
00010000
10000000
01000000
00100000
00010000
01000000
00100000
10000000
,
01000000
00000000
00100000
00000000
00010000
10000000
01000000
00100000
00010000
10000000
01000000
10000000
01000000
00100000
00010000
00100000
,
00001000
00010000
00001000
00010000
00000100
00001000
00000010
00001000
00000010
00000100
00000001
00000010
00000001
00000010
00000100
00001000
,
00000100
00000010
00000001
00000100
00000010
00001000
00000001
00000100
00000010
00010000
00001000
00010000
00001000
01000000
00010000
00100000
,
00010000
10000000
00010000
00000000
01010000
00000000
00000000
00000000
01000000
00000000
00010000
00000000
10010000
00000000
00000000
00000000
,
11000000
00000000
10000000
01000000
00010000
01000000
10000000
01000000
,
00010000
00000000
00000000
00000000
00110000
00000000
00000000
00000000
00100000
00000000
00001000
00010000
00000000
00000000
00100000
00000000
,
00000000
00010000
00000000
00001000
00000100
00000000
00001000
00010000
,
01000000
00000000
00000000
00000000
00010000
00000000
00000000
00000000
00001000
00000000
00000000
00000010
00000000
00000000
00000001
00000000
,
00000000
00001000
00000010
00000100
00000001
00000000
00000010
00000100
,
00001000
00000000
00000000
00000000
00000001
00000000
00000000
00000000
00000100
00000000
00000010
00001000
00000000
00000000
00000100
00000000
,
00000000
00010000
00000000
00001000
00000100
00000000
00001000
00010000
,
00000100
00000000
00000000
01000000
00100000
00000000
00000000
00000000
10000000
00000000
00000000
00000000
01000000
00000000
00010000
00000000
,
00000000
00000000
01000000
00000000
10000000
00000000
00010000
00000000
01000000
00000000
00100000
00000000
10000000
01000000
10000000
01000000
,
00100000
00010000
00100000
00001000
00010000
00000000
00000000
00000000
00000000
00000000
00000000
00000000
00000000
00000000
00000000
00000000
;

//---------------dance-single - M. Puls----------------
#NOTES:
     dance-single:
     M. Puls:
     Beginner:
     1:
     0.118,0.147,0.083,0.000,0.000,81.000,9.000,0.000,0.000,0.000:







0000
0000
0000
0000
,
0000
0000
0000
0000
,
0000
0000
0000
0000
,
0000
0000
0000
0000
,
0000
0000
0000
0000
,
0100
0000
0000
0000
,
0000
0000
0000
0000
,
0010
0000
0000
0000
,
1001
1000
0000
0000
,
0000
0001
0000
0000
,
0000
1000
0000
0000
,
0000
0001
0000
0001
,
0000
0010
0000
0000
,
0000
0001
0000
0000
,
0000
1000
0000
0000
,
0000
0100
0000
0100
,
0000
1000
0000
0000
,
0000
0000
0000
0000
,
0000
0001
0000
0000
,
0000
0000
0000
0000
,
0000
0010
0000
0010
,
0000
0000
0000
0000
,
0000
0100
0000
0100
,
0000
0000
0000
0000
,
0000
1000
0000
0000
,
0000
0001
0000
0000
,
0000
1000
0000
0001
,
0000
1000
0000
0010
,
0000
0000
0000
0100
,
0000
0000
0000
0001
,
0000
0000
0000
1000
,
0000
0001
0000
0000
,
0000
1000
0000
0000
,
0000
0001
0000
0000
,
0000
0010
0000
0010
,
0000
0001
0000
0000
,
0000
1000
0000
0000
,
0000
0001
0000
0000
,
0000
0010
0000
0100
,
0000
0010
0000
0000
,
0000
0001
0000
0000
,
0000
1000
0000
0000
,
0000
0010
0000
0100
,
0000
0010
0000
0000
,
0000
1000
0000
0000
,
0000
0001
0000
0000
,
0000
0010
0000
0000
,
0000
1001
0000
0000
,
0000
0000
0000
0000
,
0000
0110
0000
0000
,
0000
0000
0000
0000
,
0000
1000
0000
1000
,
0000
1000
0000
0000
,
0000
0001
0000
0001
,
0000
0001
0000
0000
,
0000
1000
0000
0000
,
0000
0010
0000
0000
,
0000
0100
0000
0000
,
0000
0001
0000
1000
,
0000
0001
0000
0000
,
0000
0010
0000
0000
,
0000
0001
0000
1000
,
0000
0001
0000
0000
,
0000
1000
1000
0000
,
0000
0000
0000
0000
,
0000
0001
0001
0000
,
0000
0000
0000
0000
,
0000
0010
0000
0001
,
0000
0010
0000
0000
,
0000
1000
0000
0100
,
0000
1000
0000
0000
,
0000
1001
0000
0000
,
0000
1001
0000
0000
,
0000
0000
0000
0000
,
0000
0110
0000
0000
,
0000
0000
0000
0000
,
0000
1001
0000
0000
,
0000
0000
0000
0000
,
0000
0110
0000
0000
,
0000
0000
0000
0000
,
0000
1001
0000
0000
;
