#TITLE:Red Volcano Zone;
#SUBTITLE:Sonic Blast (1996);
#ARTIST:Kojiro Mikusa;
#TITLETRANSLIT:;
#SUBTITLETRANSLIT:;
#ARTISTTRANSLIT:;
#CREDIT:Owem;
#BANNER:;
#BACKGROUND:BG.PNG;
#LYRICSPATH:;
#CDTITLE:../CDTitleOwem.png;
#MUSIC:Sonic Blast - Red Volcano Zone.ogg;
#OFFSET:-0.476;
#SAMPLESTART:37.996;
#SAMPLELENGTH:29.999;
#SELECTABLE:YES;
#BPMS:0.000=101.962;
#STOPS:;
#BGCHANGES:;
// cache tags:
#FIRSTBEAT:0.000;
#LASTBEAT:218.000;
#SONGFILENAME:Songs/Owem Extras -l/Red Volcano Zone - [Owem] v1.0.0/Red Volcano Zone.sm;
#HASMUSIC:1;
#HASBANNER:0;
#MUSICLENGTH:129.165;
// end cache tags

//---------------dance-single - 12 (Owem)----------------
#NOTES:
     dance-single:
     12 (Owem):
     Hard:
     12:
     0.914,0.970,0.000,0.650,1.000,738.000,0.000,84.000,0.000,0.000:
1000
0000
0100
0000
0010
0000
0001
1000
0001
0100
0010
0000
1000
0100
1000
0001
,
0100
0000
0000
0000
0010
0000
1000
0001
1000
0000
0100
0010
0001
0000
1000
0000
0010
0000
0000
0000
0100
0000
0001
1000
0001
0000
0010
0100
1000
0000
0001
1000
,
0010
0000
0100
0001
1000
0010
1000
0001
0100
0010
0100
0000
0001
1000
0001
0010
,
0100
1000
0001
0100
0010
1000
0010
0100
0001
1000
0100
1000
0010
0100
0001
1000
0001
0100
0010
1000
0001
0010
0100
1000
0001
0100
0010
1000
0010
0000
0100
0001
,
1000
0000
0010
0000
0100
0001
1000
0010
2000
0000
3001
0000
0010
0100
1000
0000
,
0002
0000
0000
0000
0000
0000
0100
0000
0000
0000
0000
0000
0203
0000
0000
0000
0000
0000
0310
0000
0000
1000
0000
0000
0002
0000
0000
0000
0000
0000
0100
0000
0000
0000
0000
0000
0203
0000
0000
0000
0000
0000
0310
0000
0000
1000
0001
0100
,
0002
0000
1000
0000
1003
0100
0010
0001
0200
0010
0010
0000
0302
0000
1000
0000
,
2003
0000
0000
0000
0000
0000
0100
0000
0000
0000
0000
0000
3400
0000
0000
0300
0000
0000
0010
0000
0000
0000
0000
0000
0001
0000
1000
0000
0001
0000
0100
0000
0000
0010
0000
0000
1000
0000
0000
0001
0000
0000
1000
0000
0000
0100
0000
0000
,
0020
0000
0001
0000
0031
1000
0010
0100
0002
0000
1000
0000
1003
0010
0100
0000
,
0020
0000
0000
0000
0000
0000
1000
0000
0000
0000
0000
0000
1030
0000
0000
0000
0000
0000
1000
0000
0000
0001
0000
0000
0200
0000
0000
0000
0000
0000
0010
0000
0000
0000
0000
0000
0310
0000
0000
0000
0000
0000
0010
0000
0000
1000
0001
1000
,
0200
0000
0010
0000
0310
0001
1000
0010
2000
0001
0001
0000
3002
0000
0100
0000
,
0203
0000
0000
0000
0000
0000
0010
0000
0000
0000
0000
0000
0340
0000
0000
0030
0000
0000
1000
0000
0000
0000
0000
0000
0001
0000
0010
0000
0100
0000
1000
0000
0000
0010
0000
0000
0100
0000
0000
0001
0000
0000
1000
0000
0000
0001
0000
0000
,
0010
0000
0000
0000
0010
0000
0000
0000
0100
0000
1000
0000
0001
0000
0100
0000
0010
0000
1000
0001
1000
0000
0000
0000
0100
0000
0010
0000
0001
0000
1000
0000
,
0010
0000
0000
0000
0100
0000
0000
0000
0001
0000
1000
0000
0001
0000
0010
0000
0200
0300
2000
3000
0001
0000
0200
0300
0010
0000
2000
3000
0001
0000
0020
0030
,
0100
0000
1000
0000
0002
0000
0000
0000
0103
0000
0000
0000
0010
0000
1000
0000
0020
0000
0000
0000
0130
0000
0000
0000
0001
0000
1000
0000
0001
0000
0010
0100
,
2000
0000
0000
0000
0000
0000
3010
0000
0000
0100
0000
0000
0002
0000
0000
0000
0000
0000
1003
0000
0000
0100
0000
0000
2000
0000
0000
0000
0000
0000
3010
0000
0000
0100
0000
0000
0001
0000
1000
0000
0001
0000
0010
0000
0000
0100
0000
0000
,
1000
0000
0000
0000
1000
0000
0000
0000
0010
0000
0100
0000
0001
0000
1000
0000
0001
0000
0100
0010
0100
0000
0000
0000
0001
0000
1000
0000
0010
0000
0100
0000
,
0010
0000
0000
0000
1000
0000
0000
0000
0001
0000
0010
0000
0100
0000
1000
0000
0020
0030
0200
0300
0001
0000
2000
3000
0100
0000
0020
0030
0001
0000
2000
3000
,
0010
0000
0100
0000
0002
0000
0000
0000
1003
0000
0000
0000
0010
0000
0100
0000
0020
0000
0000
0000
1030
0000
0000
0000
0001
0000
0100
0000
0001
0000
1000
0010
,
0200
0000
0000
0000
0000
0000
0301
0000
0000
1000
0000
0000
0020
0000
0000
0000
0000
0000
0130
0000
0000
0001
0000
0000
2000
0000
0000
0000
0000
0000
3100
0000
0000
0010
0000
0000
0001
0000
1000
0000
0001
0000
0100
0000
0000
0010
0000
0000
,
1000
0000
0001
0000
0010
0000
0100
1000
0001
0000
1000
0000
0010
0000
0100
0001
,
1000
0000
0100
0000
0010
0000
0001
1000
0001
0000
0100
0000
0010
0000
0100
0000
,
0001
0000
1000
0000
0100
0000
0010
0001
1000
0000
0010
0000
0100
0000
0001
1000
,
0020
0000
0100
0000
0230
0000
0301
1000
0001
0100
0010
1000
0010
0100
0001
0000
,
1000
0000
0010
0000
0100
0000
0001
1000
0001
0100
0010
0000
1000
0100
1000
0001
,
0100
0000
0000
0000
0010
0000
1000
0001
1000
0000
0100
0010
0001
0000
1000
0000
0010
0000
0000
0000
0100
0000
0001
1000
0001
0000
0010
0100
1000
0000
0001
1000
,
0001
0000
0100
0001
1000
0010
1000
0001
0100
0010
0100
0000
0001
1000
0001
0100
,
0010
1000
0001
0100
0001
0010
0100
1000
0001
1000
0010
0100
0001
1000
0100
1000
0001
0010
0001
0100
0010
1000
0001
1000
0100
0010
0001
1000
0100
0000
0010
0001
,
1000
0000
0010
0000
0100
0001
1000
0010
2000
0000
3001
0000
0010
0100
1000
0000
,
0002
0000
0000
0000
0000
0000
0100
0000
0000
0000
0000
0000
0203
0000
0000
0000
0000
0000
0310
0000
0000
1000
0000
0000
0002
0000
0000
0000
0000
0000
0100
0000
0000
0000
0000
0000
0203
0000
0000
0000
0000
0000
0310
0000
0000
1000
0001
0100
,
0002
0000
1000
0000
1003
0100
0010
0001
0200
0010
0010
0000
0302
0000
1000
0000
,
2003
0000
0000
0000
0000
0000
0100
0000
0000
0000
0000
0000
3400
0000
0000
0300
0000
0000
0010
0000
0000
0000
0000
0000
0001
0000
1000
0000
0001
0000
0100
0000
0000
0010
0000
0000
1000
0000
0000
0001
0000
0000
1000
0000
0000
0100
0000
0000
,
0020
0000
0001
0000
0031
1000
0010
0100
0002
0000
1000
0000
1003
0010
0100
0000
,
0020
0000
0000
0000
0000
0000
1000
0000
0000
0000
0000
0000
1030
0000
0000
0000
0000
0000
1000
0000
0000
0001
0000
0000
0200
0000
0000
0000
0000
0000
0010
0000
0000
0000
0000
0000
0310
0000
0000
0000
0000
0000
0010
0000
0000
1000
0001
1000
,
0200
0000
0010
0000
0310
0001
1000
0010
2000
0001
0001
0000
3002
0000
0100
0000
,
0203
0000
0000
0000
0000
0000
0010
0000
0000
0000
0000
0000
0340
0000
0000
0030
0000
0000
1000
0000
0000
0000
0000
0000
0001
0000
0010
0000
0100
0000
1000
0000
0000
0010
0000
0000
0100
0000
0000
0001
0000
0000
1000
0000
0000
0001
0000
0000
,
0010
0000
0000
0000
0010
0000
0000
0000
0100
0000
1000
0000
0001
0000
0100
0000
0010
0000
1000
0001
1000
0000
0000
0000
0100
0000
0010
0000
0001
0000
1000
0000
,
0010
0000
0000
0000
0100
0000
0000
0000
0001
0000
1000
0000
0001
0000
0010
0000
0200
0300
2000
3000
0001
0000
0200
0300
0010
0000
2000
3000
0001
0000
0020
0030
,
0100
0000
1000
0000
0002
0000
0000
0000
0103
0000
0000
0000
0010
0000
1000
0000
0020
0000
0000
0000
0130
0000
0000
0000
0001
0000
1000
0000
0001
0000
0010
0100
,
2000
0000
0000
0000
0000
0000
3010
0000
0000
0100
0000
0000
0002
0000
0000
0000
0000
0000
1003
0000
0000
0100
0000
0000
2000
0000
0000
0000
0000
0000
3010
0000
0000
0100
0000
0000
0001
0000
1000
0000
0001
0000
0010
0000
0000
0100
0000
0000
,
1000
0000
0000
0000
1000
0000
0000
0000
0010
0000
0100
0000
0001
0000
1000
0000
0001
0000
0100
0010
0100
0000
0000
0000
0001
0000
1000
0000
0010
0000
0100
0000
,
0010
0000
0000
0000
1000
0000
0000
0000
0001
0000
0010
0000
0100
0000
1000
0000
0020
0030
0200
0300
0001
0000
2000
3000
0100
0000
0020
0030
0001
0000
2000
3000
,
0010
0000
0100
0000
0002
0000
0000
0000
1003
0000
0000
0000
0010
0000
0100
0000
0020
0000
0000
0000
1030
0000
0000
0000
0001
0000
0100
0000
0001
0000
1000
0010
,
0200
0000
0000
0000
0000
0000
0301
0000
0000
1000
0000
0000
0020
0000
0000
0000
0000
0000
0130
0000
0000
0001
0000
0000
2000
0000
0000
0000
0000
0000
3100
0000
0000
0010
0000
0000
0001
0000
1000
0000
0001
0000
0100
0000
0000
0010
0000
0000
,
1000
0000
0001
0000
0010
0000
0100
1000
0001
0000
1000
0000
0010
0000
0100
0001
,
1000
0000
0100
0000
0010
0000
0001
1000
0001
0000
0100
0000
0010
0000
0100
0000
,
0001
0000
1000
0000
0100
0000
0010
0001
1000
0000
0010
0000
0100
0000
0001
1000
,
0020
0000
0100
0000
0230
0000
0301
1000
0001
0100
0010
1000
0010
0100
0001
0000
,
1000
0000
0100
0000
0010
0000
0001
1000
0001
0100
0010
0000
1000
0100
1000
0001
,
0100
0000
0000
0000
0010
0000
1000
0001
1000
0000
0100
0010
0001
0000
1000
0000
0010
0000
0000
0000
0100
0000
0001
1000
0001
0000
0010
0100
1000
0000
0001
0010
,
0100
0000
1000
0001
0100
0010
1000
0001
0100
0010
0100
0000
0001
1000
0010
0100
,
0001
1000
0010
1000
0100
0010
0001
1000
0100
1000
0001
0100
0010
1000
0001
0100
0001
1000
0100
0010
0100
1000
0001
0100
0010
1000
0001
0010
0100
0000
1000
0001
,
1000
0000
0010
0000
0100
0001
1000
0010
2000
0000
3001
0000
0010
0100
1000
0000
,
0002
0000
0000
0000
0000
0000
0100
0000
0000
0000
0000
0000
0203
0000
0000
0000
0000
0000
0310
0000
0000
1000
0000
0000
0002
0000
0000
0000
0000
0000
0100
0000
0000
0000
0000
0000
0203
0000
0000
0000
0000
0000
0310
0000
0000
1000
0001
0100
,
0002
0000
0003
0000
;

//---------------dance-single - 15 (Owem)----------------
#NOTES:
     dance-single:
     15 (Owem):
     Challenge:
     15:
     0.968,1.000,0.000,0.890,1.000,756.000,0.000,115.000,0.000,0.000:
2000
3000
0000
0000
0100
0000
0000
0000
0020
0030
0000
0000
0001
0000
1000
0000
0002
0003
0200
0300
0020
0030
0000
0000
1000
0000
0100
0000
1000
0000
0001
0000
,
0100
0000
0000
0000
0010
0000
1000
0001
1000
0000
0100
0010
0001
0000
1000
0000
0010
0000
0000
0000
0100
0000
0001
1000
0001
0000
0010
0100
1000
0000
0001
1000
,
0001
0000
0100
0001
1000
0010
1000
0000
0100
0010
0001
0000
1000
0001
1000
0010
,
0100
0000
0000
0000
0000
0001
0000
0000
0000
1000
0000
0000
0000
0000
0001
0000
0000
0000
0000
0010
0000
0000
0000
0000
0100
0000
0000
0000
0000
1000
0000
0000
0000
0001
0000
0000
0000
0000
0010
0000
0000
0000
0000
0001
0000
0000
0000
0000
0100
0000
0000
0000
0000
0010
0000
0000
0000
1000
0000
0000
0000
0000
0100
0000
0000
0000
0000
0010
0000
0000
0000
0000
0001
0000
0000
0000
0000
1000
0000
0000
0000
0100
0000
0000
0000
0000
0010
0000
0000
0000
0000
0001
0000
0000
0000
0000
1000
0000
0000
0000
0000
0001
0000
0000
0000
0100
0000
0000
0000
0000
0010
0000
0000
0000
0000
1000
0000
0000
0000
0000
0001
0000
0000
0000
0000
0010
0000
0000
0000
0100
0000
0000
0000
0000
1000
0000
0000
0000
0000
0001
0000
0000
0000
0000
0100
0000
0000
0000
0000
0001
0000
0000
0000
0010
0000
0000
0000
0000
0100
0000
0000
0000
0000
1000
0000
0000
0000
0000
0001
0000
0000
0000
0000
0000
0000
0000
0000
0000
0000
0000
0100
0000
0000
0000
0000
0000
0010
0000
0000
0000
0000
0000
,
2000
0000
3001
0000
0200
0301
1000
0010
2000
0000
3001
0000
0010
0100
1000
0000
,
0002
0000
0000
0000
0000
0000
0100
0000
0000
0000
0000
0000
0203
0000
0000
0000
0000
0000
0310
0000
0000
1000
0000
0000
0002
0000
0000
0000
0000
0000
0100
0000
0000
0000
0000
0000
0203
0000
0000
0000
0000
0000
0320
0000
0000
1030
0001
0100
,
0002
0000
1000
0000
1003
0100
0010
0001
0200
0010
0010
0000
0302
0000
1000
0000
,
2003
0000
0000
0000
0000
0000
0100
0000
0000
0000
0000
0000
3400
0000
0000
0300
0000
0000
0010
0000
0000
0000
0000
0000
0002
0000
1003
0000
0001
0000
0100
0000
0000
0010
0000
0000
2000
0000
0000
3001
0000
0000
1000
0000
0000
0100
0000
0000
,
0020
0000
0001
0000
0032
1003
0010
0100
0002
0000
1000
0000
1003
0010
0100
0000
,
0020
0000
0000
0000
0000
0000
1000
0000
0000
0000
0000
0000
2030
0000
0000
0000
0000
0000
3001
0000
0000
0010
0000
0000
0200
0000
0000
0000
0000
0000
0010
0000
0000
0000
0000
0000
0320
0000
0000
0000
0000
0000
0031
0000
0000
1000
0001
1000
,
0200
0000
0010
0000
0310
0001
1000
0010
2000
0001
0001
0000
3002
0000
0100
0000
,
0203
0000
0000
0000
0000
0000
0010
0000
0000
0000
0000
0000
0340
0000
0000
0030
0000
0000
1000
0000
0000
0000
0000
0000
0002
0000
0013
0000
0100
0000
1000
0000
0000
0010
0000
0000
0200
0000
0000
0301
0000
0000
1000
0000
0000
0001
0000
0000
,
0010
0000
0000
0000
0010
0000
0000
0000
0100
0000
1000
0000
0001
0000
0100
0000
0010
0000
1000
0001
1000
0000
0000
0000
0100
0000
0010
0000
0001
0000
1000
0000
,
0010
0000
0000
0000
0100
0000
0000
0000
0001
0000
1000
0000
0001
0000
0010
0000
0200
0300
2000
3000
0001
0000
0200
0300
0010
0000
2000
3000
0001
0000
0020
0030
,
0100
0000
1000
0000
0002
0000
0000
0000
0103
0000
0000
0000
0010
0000
1000
0000
0020
0000
0000
0000
0130
0000
0000
0000
0001
0000
1000
0000
0001
0000
0010
0100
,
2000
0000
0000
0000
0000
0000
3010
0000
0000
0100
0000
0000
0002
0000
0000
0000
0000
0000
1003
0000
0000
0100
0000
0000
2000
0000
0000
0000
0000
0000
3010
0000
0000
0100
0000
0000
0001
0000
1000
0000
0001
0000
0010
0000
0000
0100
0000
0000
,
1000
0000
0000
0000
1000
0000
0000
0000
0010
0000
0100
0000
0001
0000
1000
0000
0001
0000
0100
0010
1000
0000
0000
0000
0001
0000
1000
0000
0010
0000
0100
0000
,
0001
0000
0000
0000
1000
0000
0000
0000
0001
0000
0010
0000
0100
0000
1000
0000
0020
0030
0200
0300
0001
0000
2000
3000
0100
0000
0020
0030
0001
0000
2000
3000
,
0010
0000
0100
0000
0002
0000
0000
0000
1003
0000
0000
0000
0010
0000
0100
0000
0020
0000
0000
0000
1030
0000
0000
0000
0001
0000
0100
0000
0001
0000
1000
0010
,
0200
0000
0000
0000
0000
0000
0301
0000
0000
1000
0000
0000
0020
0000
0000
0000
0000
0000
0130
0000
0000
0001
0000
0000
2000
0000
0000
0000
0000
0000
3100
0000
0000
0010
0000
0000
0002
0000
1003
0000
0001
0000
0100
0000
0000
0010
0000
0000
,
1000
0000
0001
0000
0010
0000
0100
1000
0001
0000
1000
0000
0010
0000
0100
0001
,
1000
0000
0100
0000
0010
0000
0001
1000
0001
0000
0100
0000
0010
0000
0100
0000
,
0001
0000
1000
0000
0100
0000
0010
0001
1000
0000
0010
0000
0100
0000
0001
1000
,
0020
0000
0100
0000
0230
0000
0301
1000
0002
0103
0010
1000
0010
1000
0010
0000
,
0100
0000
0001
0000
1000
0000
0001
1000
0001
0100
0010
0000
1000
0100
1000
0001
,
0100
0000
0000
0000
0010
0000
1000
0001
1000
0000
0100
0010
0001
0000
1000
0000
0010
0000
0000
0000
0100
0000
0001
1000
0001
0000
0010
0100
1000
0000
0001
1000
,
0010
0000
0100
0001
1000
0010
1000
0000
0001
0010
0100
0000
1000
0001
1000
0100
,
0010
0000
0000
0000
0000
0001
0000
0000
0000
1000
0000
0000
0000
0000
0001
0000
0000
0000
0000
0100
0000
0000
0000
0000
0010
0000
0000
0000
0000
1000
0000
0000
0000
0001
0000
0000
0000
0000
1000
0000
0000
0000
0000
0100
0000
0000
0000
0000
0010
0000
0000
0000
0000
0001
0000
0000
0000
1000
0000
0000
0000
0000
0010
0000
0000
0000
0000
0100
0000
0000
0000
0000
0001
0000
0000
0000
0000
1000
0000
0000
0000
0100
0000
0000
0000
0000
1000
0000
0000
0000
0000
0010
0000
0000
0000
0000
0100
0000
0000
0000
0000
0001
0000
0000
0000
1000
0000
0000
0000
0000
0100
0000
0000
0000
0000
0010
0000
0000
0000
0000
0001
0000
0000
0000
0000
1000
0000
0000
0000
0010
0000
0000
0000
0000
1000
0000
0000
0000
0000
0001
0000
0000
0000
0000
0010
0000
0000
0000
0000
0100
0000
0000
0000
1000
0000
0000
0000
0000
0001
0000
0000
0000
0000
0100
0000
0000
0000
0000
0010
0000
0000
0000
0000
0000
0000
0000
0000
0000
0000
0000
1000
0000
0000
0000
0000
0000
0001
0000
0000
0000
0000
0000
,
2000
0000
3010
0000
0200
0301
1000
0010
2000
0000
3001
0000
0010
0100
1000
0000
,
0002
0000
0000
0000
0000
0000
0100
0000
0000
0000
0000
0000
0203
0000
0000
0000
0000
0000
0310
0000
0000
1000
0000
0000
0002
0000
0000
0000
0000
0000
0100
0000
0000
0000
0000
0000
0203
0000
0000
0000
0000
0000
0310
0000
0000
1000
0001
0100
,
0002
0000
1000
0000
1003
0100
0010
0001
0200
0010
0010
0000
0302
0000
1000
0000
,
2003
0000
0000
0000
0000
0000
0100
0000
0000
0000
0000
0000
3400
0000
0000
0300
0000
0000
0010
0000
0000
0000
0000
0000
0002
0000
1003
0000
0001
0000
0100
0000
0000
0010
0000
0000
2000
0000
0000
3001
0000
0000
1000
0000
0000
0100
0000
0000
,
0020
0000
0001
0000
0032
1003
0010
0100
0002
0000
1000
0000
1003
0010
0100
0000
,
0020
0000
0000
0000
0000
0000
1000
0000
0000
0000
0000
0000
2030
0000
0000
0000
0000
0000
3001
0000
0000
1000
0000
0000
0020
0000
0000
0000
0000
0000
0100
0000
0000
0000
0000
0000
0230
0000
0000
0000
0000
0000
0320
0000
0000
1030
0001
1000
,
0200
0000
1000
0000
1300
0001
0100
0010
2000
0001
0001
0000
3002
0000
0100
0000
,
0203
0000
0000
0000
0000
0000
0010
0000
0000
0000
0000
0000
0340
0000
0000
0030
0000
0000
1000
0000
0000
0000
0000
0000
0002
0000
0013
0000
0100
0000
1000
0000
0000
0010
0000
0000
0200
0000
0000
0301
0000
0000
1000
0000
0000
0001
0000
0000
,
0010
0000
0000
0000
0010
0000
0000
0000
0100
0000
1000
0000
0001
0000
0100
0000
0010
0000
1000
0001
1000
0000
0000
0000
0100
0000
0010
0000
0001
0000
1000
0000
,
0010
0000
0000
0000
0100
0000
0000
0000
0001
0000
1000
0000
0001
0000
0010
0000
0200
0300
2000
3000
0001
0000
0200
0300
0010
0000
2000
3000
0001
0000
0020
0030
,
0100
0000
1000
0000
0002
0000
0000
0000
0103
0000
0000
0000
0010
0000
1000
0000
0020
0000
0000
0000
0130
0000
0000
0000
0001
0000
1000
0000
0001
0000
0010
0100
,
2000
0000
0000
0000
0000
0000
3010
0000
0000
0100
0000
0000
0002
0000
0000
0000
0000
0000
1003
0000
0000
0100
0000
0000
2000
0000
0000
0000
0000
0000
3010
0000
0000
0100
0000
0000
0001
0000
1000
0000
0001
0000
0010
0000
0000
0100
0000
0000
,
1000
0000
0000
0000
1000
0000
0000
0000
0010
0000
0100
0000
0001
0000
1000
0000
0001
0000
0100
0010
0100
0000
0000
0000
0001
0000
1000
0000
0010
0000
0100
0000
,
0010
0000
0000
0000
1000
0000
0000
0000
0001
0000
0010
0000
0100
0000
1000
0000
0020
0030
0200
0300
0001
0000
2000
3000
0100
0000
0020
0030
0001
0000
2000
3000
,
0010
0000
0100
0000
0002
0000
0000
0000
1003
0000
0000
0000
0010
0000
0100
0000
0020
0000
0000
0000
1030
0000
0000
0000
0001
0000
0100
0000
0001
0000
1000
0010
,
0200
0000
0000
0000
0000
0000
0301
0000
0000
1000
0000
0000
0020
0000
0000
0000
0000
0000
0130
0000
0000
0001
0000
0000
2000
0000
0000
0000
0000
0000
3100
0000
0000
0010
0000
0000
0002
0000
1003
0000
0001
0000
0100
0000
0000
0010
0000
0000
,
1000
0000
0001
0000
0010
0000
0100
1000
0001
0000
1000
0000
0010
0000
0100
0001
,
1000
0000
0100
0000
0010
0000
0001
1000
0010
0000
1000
0000
0100
0000
0010
0000
,
0001
0000
1000
0000
0100
0000
0010
0001
0010
0000
0100
0000
1000
0000
0001
1000
,
0020
0000
0100
0000
0230
0000
0301
1000
0002
0103
0010
1000
0010
0100
0001
0000
,
0100
0000
0010
0000
1000
0000
0001
0010
0001
0100
0010
0000
1000
0001
0100
0001
,
1000
0000
0000
0000
0010
0000
1000
0001
1000
0000
0100
0010
0001
0000
1000
0000
0010
0000
0000
0000
0100
0000
0001
1000
0001
0000
0100
0010
1000
0000
0001
1000
,
0010
0000
0100
0001
1000
0010
1000
0000
0001
0100
0010
0000
1000
0001
0100
0010
,
1000
0000
0000
0000
0000
0001
0000
0000
0000
1000
0000
0000
0000
0000
0100
0000
0000
0000
0000
0010
0000
0000
0000
0000
0001
0000
0000
0000
0000
1000
0000
0000
0000
0010
0000
0000
0000
0000
0100
0000
0000
0000
0000
0001
0000
0000
0000
0000
1000
0000
0000
0000
0000
0100
0000
0000
0000
0010
0000
0000
0000
0000
0001
0000
0000
0000
0000
0100
0000
0000
0000
0000
0001
0000
0000
0000
0000
1000
0000
0000
0000
0100
0000
0000
0000
0000
0010
0000
0000
0000
0000
0001
0000
0000
0000
0000
1000
0000
0000
0000
0000
0010
0000
0000
0000
0100
0000
0000
0000
0000
0001
0000
0000
0000
0000
1000
0000
0000
0000
0000
0100
0000
0000
0000
0000
0010
0000
0000
0000
0001
0000
0000
0000
0000
1000
0000
0000
0000
0000
0010
0000
0000
0000
0000
0100
0000
0000
0000
0000
0001
0000
0000
0000
1000
0000
0000
0000
0000
0001
0000
0000
0000
0000
0100
0000
0000
0000
0000
0010
0000
0000
0000
0000
0000
0000
0000
0000
0000
0000
0000
1000
0000
0000
0000
0000
0000
0001
0000
0000
0000
0000
0000
,
2000
0000
3010
0000
0200
0301
1000
0010
2000
0000
3001
0000
0010
0100
1000
0000
,
0002
0000
0000
0000
0000
0000
0100
0000
0000
0000
0000
0000
0203
0000
0000
0000
0000
0000
0310
0000
0000
1000
0000
0000
0002
0000
0000
0000
0000
0000
0100
0000
0000
0000
0000
0000
0203
0000
0000
0000
0000
0000
0310
0000
0000
1000
0001
0100
,
0002
0000
0003
0000
;
